//TJADB Project
TITLE:Eccentric w
TITLEJA:エキセントリックw
SUBTITLE:--gingahoumenP@Takashi Jinno feat. ZOLA PROJECT
SUBTITLEJA:銀河方面P feat. ZOLA PROJECT
BPM:172
OFFSET:-1.605
WAVE:Eccentric w.ogg
DEMOSTART:41.902

COURSE:Oni
LEVEL:8
SCOREINIT:440
SCOREDIFF:115
#START
1020002020221010,
2010201022112020,
1000200020221010,
2022101000000000,
1020002010221010,
2010201012221020,
1000100010221010,
2030303030030000,
,
1022101000101020,
2011201000102000,
1022101011101020,
2011202000102000,
1022101000101020,
2011201000102000,
1001201120222022,
2010201022202000,
00202022,
0022102210002000,
00202022,
0022102210002000,
1000200011202010,
1000200021102010,
1000200012202010,
1000200022102010,
1010201020102011,
1022201010202000,
33044033,
,//29
#GOGOSTART
1002200210222010,
1010201010222011,
1020201110202011,
1022102010222010,
1000200210222010,
1010201010222011,
1020201110202011,
2022102010002010,
1002200010222010,
1010201010222011,
1020201110202011,
1022102010222010,
1002200210222010,
1010201010222011,
1020201110202011,
2030303030030000,//45
#GOGOEND
1000201000102210,
2011201000102110,
1002201110102010,
1011201000112000,
1120112011102220,
1222122210102110,
2211212221212121,
2010221022222000,
0000200022202020,
0020222220002000,
00222022,
0022202020000000,
1000200011202010,
1000200021102010,
1000200012202010,
1000200022102010,
1010201020102011,
1022201010202000,
33044033,
,
2002200020002020,
2000200011220020,
22022202,
2022102210221020,
30003300,
0040040040000010,
1020001110200011,
2010202210002000,//73
#GOGOSTART
1002200210222010,
1010201010222011,
1020201110202011,
1022102010222010,
1002200210222010,
1010201010222011,
1020201110202011,
2030303030030000,//81
#GOGOEND
1020002020221010,
2010201022112020,
1000200020221010,
2022101000000000,
1020002010221010,
2010201012221020,
1000100010221010,
23333000,
#END

COURSE:Hard
LEVEL:6
SCOREINIT:450
SCOREDIFF:110
#START
2020002020222000,
20202022,
2000200020222000,
2022202000000000,
1000100010222010,
1112,
1000100010222020,
0030303030030000,
,
1000101000222000,
1000201000111000,
1000101010222000,
1010201000111000,
1000101000222000,
1010201000111000,
1000100022202000,
3000300030222000,
00202022,
000000500000000000000008000000000000100000000000,
00202022,
000000500000000000000008000000000000000000000000,
0000200010002022,
2000200010002011,
1000200010002022,
2000200010002011,
11101110,
1022200010202000,
44033044,
,//29
#GOGOSTART
1000100010111000,
1010201010000011,
1010002220200010,
1000222020000000,
1000100010111000,
1010201010000011,
1010002220200010,
1000222020000000,
1000100010111000,
1010201010000011,
1010002220200010,
1000222020000000,
1000100010111000,
1010201010000011,
1010002220200010,
1040404030030000,//45
#GOGOEND
10201102,
01201120,
1000201110100020,
0010200010222000,
1000202220100020,
01201120,
1000201010111000,
3000300011101000,
00202022,
000000500000000000000008000000000000100000000000,
00202022,
000000500000000000000008000000000000000000000000,
0000200010002022,
20000022,
0000200010002022,
2000200010002011,
11101110,
1022200010202000,
33044033,
,
2002200020002020,
20202001,
12011201,
1000222020000000,
30004300,
0030030030000010,
1010002220200011,
11122000,//73
#GOGOSTART
1000100010111000,
1010201010000011,
1010002220200010,
1000222020000000,
1000100010111000,
1010201010000011,
1010002220200010,
1040404030030000,//81
#GOGOEND
2020002020222000,
20202022,
2000200020222000,
2022202000000000,
1000100010222010,
1112,
1000100010222020,
03333000,
,
,
#END

COURSE:Normal
LEVEL:4
BALLOON:4,4,4,4
#START
2022,
2220,
2220,
2200,
1110,
1120,
1110,
000000600000000000000000000008000000000000000000,
,
10010020,
10010000,
10010020,
10020000,
10010020,
10010000,
1111,
300000000000300000000000600000000000000000000008,
0222,
7008,
0222,
7008,
00101011,
00202022,
00101011,
0222,
1111,
1222,
33033033,
,//29
#GOGOSTART
1112,
20111000,
10011100,
20222000,
1112,
20111000,
10011100,
20222000,
1112,
20111000,
10011100,
20222000,
1112,
20111000,
10011100,
30333000,//45
#GOGOEND
10010220,
10110000,
10010220,
10110000,
10010220,
10110000,
10101110,
300000000000300000000000600000000000000000000008,
0222,
7008,
0222,
7008,
00101011,
00000022,
00101011,
0222,
1111,
1222,
33033033,
,
22,
2220,
10011100,
20222000,
30003300,
0030030030000000,
10011100,
20222000,//73
#GOGOSTART
1112,
20111000,
10011100,
20222000,
1112,
20111000,
10011100,
13333000,//81
#GOGOEND
2022,
2220,
2220,
2200,
1110,
1120,
1110,
000000600000000000000000000008000000000000000000,
,
,
#END

COURSE:Easy
LEVEL:3
BALLOON:3,3,3,3
#START
1,
1,
1,
1100,
11,
1110,
1110,
600000000000000000000000000000000008000000000000,
,
10010000,
10010000,
1110,
10010000,
10010000,
10010000,
1111,
300000000000300000000000600000000000000000000008,
0101,
7008,
0101,
7008,
0111,
0222,
0111,
0222,
1111,
1111,
30030030,
,//29
#GOGOSTART
11,
1110,
11,
2220,
11,
1110,
11,
2220,
1111,
1110,
11,
2220,
1111,
1110,
11,
600000000000000000000000000000000008000000000000,//45
#GOGOEND
10010000,
10010000,
10010000,
10010000,
20020000,
20020000,
20020000,
300000000000300000000000600000000000000000000008,
0101,
7008,
0101,
7008,
0111,
0002,
0111,
0222,
1111,
1111,
30030030,
,
22,
2220,
22,
2220,
33,
03003000,
11,
2220,//73
#GOGOSTART
1111,
1110,
11,
2220,
1111,
1110,
11,
600000000000000000000000000000000008000000000000,//81
#GOGOEND
1,
1,
1,
1100,
11,
1110,
1110,
600000000000000000000000000000000008000000000000,
,
,
#END
