//TJADB Project
TITLE:Pen-Pineapple-Apple-Pen
TITLEJA:ペンパイナッポーアッポーペン(PPAP)
SUBTITLE:--Picotaro
SUBTITLEJA:ピコ太郎
BPM:154.16
WAVE:Pen-Pineapple-Apple-Pen.ogg
OFFSET:-2.237
DEMOSTART:12.049 //shinuchi:
21290/10480/8850/5900

COURSE:Oni
LEVEL:7
BALLOON:3,3
SCOREINIT:1880,6330
SCOREDIFF:770
#START
#SCROLL 0.53
20220220,
#BPMCHANGE 152.95
2222,
#MEASURE 7/8
#BPMCHANGE 156.69
#SCROLL 0.52
500000000000000000000000000000000008000000,
#MEASURE 9/8
#BPMCHANGE 118.07
#SCROLL 0.69
222000000000000000
#BPMCHANGE 296.37
#SCROLL 1
000000000, //4
#MEASURE 4/4
#BPMCHANGE 136
1120201022101020,
#BPMCHANGE 142.38
#SCROLL 0.95
500000000000000008000000
#BPMCHANGE 131.89
#SCROLL 1.03
#GOGOSTART
300000300000400000300000, //6
#GOGOEND
#BPMCHANGE 136
#SCROLL 1
1220201012202010,
1220201000102020,
1220201012202010,
1220201000000000, //10
100000200000200200100000500000000008000000000000,
100000200000200200100000200000700008000000000000,
0
#SCROLL 0.5
#GOGOSTART
3,
#GOGOEND
#SCROLL 1
100000100100100000500008000000100000200000200000, //14
100000200000200200100000500000000008000000000000,
100000200000200200100000200000700008000000000000,
0
#SCROLL 0.5
#GOGOSTART
3,
#GOGOEND
#SCROLL 1
100000200200100000500008000000100000200000200000, //18
#GOGOSTART
100000100100100000500000000008000000
#SCROLL 2.5
400000000000,
#SCROLL 1
100000200200100000500000000008000000
#SCROLL 2.5
400000000000, //20
#GOGOEND
#SCROLL 1
0
#BPMCHANGE 133.60
#SCROLL 0.51
#GOGOSTART
3,
#GOGOEND
#BPMCHANGE 131.08
#SCROLL 1.03
201120101022
#BPMCHANGE 160.09
#SCROLL 0.84
1000, //22
#BPMCHANGE 136
#SCROLL 1
#GOGOSTART
1220201012202010,
1220201000102020,
122020101220
#GOGOEND
#BPMCHANGE 130.93
#SCROLL 2.58
4000,
#BPMCHANGE 131.25
#SCROLL 1.03
201120101022
#BPMCHANGE 159.48
#SCROLL 0.85
1000, //26
#BPMCHANGE 125.80
#SCROLL 4.05
5,
000000000000000000000000000000000008000000000000,
#BPMCHANGE 118
#SCROLL 1.15
222000000000000000000000,
#BARLINEOFF
0,
0, //31
#END

COURSE:Hard
LEVEL:4
BALLOON:18
SCOREINIT:1960,10130
SCOREDIFF:1413
#START
#SCROLL 0.88
0,
#BPMCHANGE 152.95
0,
#MEASURE 7/8
#BPMCHANGE 156.69
#SCROLL 0.86
0,
#MEASURE 9/8
#BPMCHANGE 118.07
#SCROLL 1.15
20
#BPMCHANGE 296.37
#SCROLL 1
0, //4
#MEASURE 4/4
#BPMCHANGE 136
22221111,
#BPMCHANGE 142.38
#SCROLL 0.95
500000000000000008000000
#BPMCHANGE 131.89
#SCROLL 1.03
#GOGOSTART
300000300000400000300000, //6
#GOGOEND
#BPMCHANGE 136
#SCROLL 1
10211021,
10210122,
10211021,
10220000, //10
000000100000100000200000500000000008000000000000,
000000100000100000200000100000500000000008000000,
0
#GOGOSTART
3,
#GOGOEND
400000300000000000600000000000000008000000000000, //14
000000100000100000200000500000000008000000000000,
000000100000100000200000100000500000000008000000,
0
#GOGOSTART
3,
#GOGOEND
400000400000300000600000000000000008000000000000, //18
#GOGOSTART
200000100000000000500000000000000008000000000000,
200000200000100000500000000000000008000000000000, //20
#GOGOEND
0
#BPMCHANGE 133.60
#SCROLL 1.01
#GOGOSTART
3,
#GOGOEND
#BPMCHANGE 131.08
#SCROLL 1.03
122121
#BPMCHANGE 160.09
#SCROLL 0.84
10, //22
#BPMCHANGE 136
#SCROLL 1
#GOGOSTART
11211121,
11210122,
112111
#GOGOEND
#BPMCHANGE 130.93
#SCROLL 1.03
40,
#BPMCHANGE 131.25
122121
#BPMCHANGE 159.48
#SCROLL 0.85
10, //26
#BPMCHANGE 125.80
#SCROLL 1.08
9009,
8,
#BPMCHANGE 118
#SCROLL 2.01
2,
#BARLINEOFF
0,
0, //31
#END

COURSE:Normal
LEVEL:4
BALLOON:13
SCOREINIT:1830,12300
SCOREDIFF:1520
#START
#SCROLL 0.88
0,
#BPMCHANGE 152.95
0,
#MEASURE 7/8
#BPMCHANGE 156.69
#SCROLL 0.86
0,
#MEASURE 9/8
#BPMCHANGE 118.07
#SCROLL 1.15
20
#BPMCHANGE 296.37
#SCROLL 1
0, //4
#MEASURE 4/4
#BPMCHANGE 136
11101110,
#BPMCHANGE 142.38
#SCROLL 0.95
1000
#BPMCHANGE 131.89
#SCROLL 1.03
#GOGOSTART
3333, //6
#GOGOEND
#BPMCHANGE 136
#SCROLL 1
1212,
10210120,
1212,
10220000, //10
000000100000100000000000500000000008000000000000,
02201100,
0
#GOGOSTART
3,
#GOGOEND
300000300000000000600000000000000008000000000000, //14
000000100000100000000000500000000008000000000000,
02211100,
0
#GOGOSTART
3,
#GOGOEND
400000400000300000600000000000000008000000000000, //18
#GOGOSTART
100000100000000000500000000000000008000000000000,
200000200000100000500000000000000008000000000000, //20
#GOGOEND
0
#BPMCHANGE 133.60
#SCROLL 1.01
#GOGOSTART
3,
#GOGOEND
#BPMCHANGE 131.08
#SCROLL 1.03
221111
#BPMCHANGE 160.09
#SCROLL 0.84
20, //22
#BPMCHANGE 136
#SCROLL 1
#GOGOSTART
1212,
10210120,
121
#GOGOEND
#BPMCHANGE 130.93
#SCROLL 1.03
4,
#BPMCHANGE 131.25
221111
#BPMCHANGE 159.48
#SCROLL 0.85
20, //26
#BPMCHANGE 125.80
#SCROLL 1.08
9009,
8,
#BPMCHANGE 118
#SCROLL 2.01
500008000000000000000000000000000000000000000000,
#BARLINEOFF
0,
0, //31
#END

COURSE:Easy
LEVEL:2
BALLOON:10
SCOREINIT:2190,29260
SCOREDIFF:4010
#START
#SCROLL 0.88
0,
#BPMCHANGE 152.95
0,
#MEASURE 7/8
#BPMCHANGE 156.69
#SCROLL 0.86
0,
#MEASURE 9/8
#BPMCHANGE 118.07
#SCROLL 1.15
00
#BPMCHANGE 296.37
#SCROLL 1
0, //4
#MEASURE 4/4
#BPMCHANGE 136
500000000000000000000000000000000000000000000008,
#BPMCHANGE 142.38
#SCROLL 0.95
0
#BPMCHANGE 131.89
#SCROLL 1.03
#GOGOSTART
3, //6
#GOGOEND
#BPMCHANGE 136
#SCROLL 1
11,
10010000,
11,
10010000, //10
11,
11,
0
#GOGOSTART
3,
#GOGOEND
600000000000000000000000000008000000000000000000, //14
22,
22,
0
#GOGOSTART
3,
#GOGOEND
600000000000000000000000000008000000000000000000, //18
#GOGOSTART
500000000000000000000000000008000000000000000000,
600000000000000000000000000008000000000000000000, //20
#GOGOEND
0
#BPMCHANGE 133.60
#SCROLL 1.01
#GOGOSTART
3,
#GOGOEND
#BPMCHANGE 131.08
#SCROLL 1.03
443
#BPMCHANGE 160.09
#SCROLL 0.84
3, //22
#BPMCHANGE 136
#SCROLL 1
#GOGOSTART
11,
10010000,
101
#GOGOEND
#BPMCHANGE 130.93
#SCROLL 1.03
0,
#BPMCHANGE 131.25
443
#BPMCHANGE 159.48
#SCROLL 0.85
3, //26
#BPMCHANGE 125.80
#SCROLL 1.08
9009,
8,
#BPMCHANGE 118
#SCROLL 1.73
500008000000000000000000000000000000000000000000,
#BARLINEOFF
0,
0, //31
#END
