//TJADB Project
TITLE:Anata to Tu-lat-tat-ta♪ -Original Version-
TITLEJA:あなたとトゥラッタッタ♪ -本家版-
SUBTITLE:--DREAMS COME TRUE/Manpuku
SUBTITLEJA:DREAMS COME TRUE/「まんぷく」より
BPM:120
WAVE:Anata to Tu-lat-tat-ta -Original Version-.ogg
OFFSET:-2.136
DEMOSTART:34.135

COURSE:Edit
LEVEL:10
SCOREINIT:760
SCOREDIFF:170
#START
#GOGOSTART
100000001000111111100000100000001000111111100000,
100000001000100010001000100000001000222222200000,
101100101100,
500000000000000000000008000000000000200000000000,
100000001000111111100000100000001000111111100000,
100000001000100010001000100000001000222222200000,
101100101100,
500000000000000000000008000000000000200000000000,
#GOGOEND
100000002000222222200000100000002000222222200000,
100000002000200020002000200000002000111111100000,
102202102202,
100000002000200020002000200000002000111111100000,
100000002000222222200000100000002000222222200000,
100000002000200020002000200000002000111111100000,
102222102100,
100000002000200020002000200000001000222222000000,
#GOGOSTART
100000001000111111100000100000001000111111100000,
100000001000100010001000100000001000222222200000,
101100101100,
500000000000000000000008000000000000200000000000,
100000001000111111100000100000001000111111100000,
100000001000100010001000100000001000222222200000,
102101102100,
500000000000000000000008000000000000200000000000,
#GOGOEND
12222121,
200100200122200100200100,
12222121,
200100200122200000101010,
12221222,
12221222,
1222122212221222,
111111111111111111111111111111111111111111111111,
102200202202,
102202202200,
102200102200,
102222101222,
#GOGOSTART
100000001000111111100000100000001000111111100000,
100000001000100010001000500000000000000000000000,
000000000000000000000008000000002000200000000000,
302222200200,
300000002000200020002000200000000000222222200000,
302222300300,
600000000000000000000000000000000000000000000008,
002222200400,
#GOGOEND
#END

COURSE:Oni
LEVEL:1
BALLOON:30
SCOREINIT:1360
SCOREDIFF:400
#START
#GOGOSTART
100100100101,
1110,
1111,
500000000000000000000008000000000000000000000000,
100100100101,
1110,
101101100100,
500000000000000000000008000000000000000000000000,
#GOGOEND
101100100000,
2220,
101100100000,
2220,
101100100000,
2220,
100000101101,
2220,
#GOGOSTART
100100100101,
1110,
1111,
500000000000000000000008000000000000000000000000,
100100100101,
1110,
101101100100,
500000000000000000000008000000000000000000000000,
#GOGOEND
22222022,
20222000,
22222022,
20222000,
11,
11,
7,
0008,
2220,
2220,
1111,
11,
#GOGOSTART
100100100101,
1150,
000000000000000000000008000000000000000000000000,
302202200200,
302202200200,
302202100300,
600000000000000000000000000000000000000000000008,
0004,
#GOGOEND
#END

COURSE:Hard
LEVEL:1
BALLOON:20
SCOREINIT:1650
SCOREDIFF:1155
#START
#GOGOSTART
11,
1110,
11,
58,
11,
1110,
1011,
58,
#GOGOEND
11,
2220,
11,
2220,
11,
2220,
11,
2220,
#GOGOSTART
11,
1110,
11,
58,
11,
1110,
1011,
58,
#GOGOEND
20222020,
2220,
20222020,
2220,
11,
11,
7,
0008,
22,
2220,
11,
11,
#GOGOSTART
1111,
1150,
08,
3022,
3022,
3033,
6,
8004,
#GOGOEND
#END

COURSE:Normal
LEVEL:1
SCOREINIT:2070
SCOREDIFF:2525
BALLOON:16
#START
#GOGOSTART
11,
1,
11,
58,
11,
1,
1011,
58,
#GOGOEND
1,
2,
1,
2,
1,
2,
1,
2,
#GOGOSTART
11,
1,
11,
58,
11,
1,
1011,
58,
#GOGOEND
2,
0,
2,
0,
11,
11,
7,
0008,
2,
2,
11,
1,
#GOGOSTART
11,
1150,
08,
3,
3,
3033,
6,
8004,
#GOGOEND
#END

COURSE:Easy
LEVEL:1
SCOREINIT:2330
SCOREDIFF:4100
BALLOON:12
#START
#GOGOEND
1,
1,
1,
58,
1,
1,
1,
58,
#GOGOEND
1,
0,
1,
0,
1,
0,
1,
0,
#GOGOSTART
1,
1,
1,
58,
1,
1,
1,
58,
#GOGOEND
2,
0,
2,
0,
1,
1,
7,
0008,
2,
2,
11,
1,
#GOGOSTART
11,
15,
08,
3,
3,
33,
6,
8004,
#GOGOEND
#END
