//TJADB Project
TITLE:Pavane for a Dead Princess ~Kimi no Kodou~
TITLEJA:亡き王女のためのパヴァーヌ ~きみのこどう~
SUBTITLE:--Ayano Yasuda
BPM:136
WAVE:Pavane for a Dead Princess Kimi no Kodou.ogg
OFFSET:-1.963
DEMOSTART:9.021

COURSE:Edit
LEVEL:8
BALLOON:20,30
SCOREINIT:480
SCOREDIFF:120
#START
0222,
2022,
2027,
0008,
#LYRIC Aa kiiro no kami o yurashi 3020122010210020,
1020122010210220,
1020122010210020,
1020122010210222,
#LYRIC Aa chiisana kutsu o narashi nagara 1020122010210020,
1020122010210220,
1020122010210020,
1020122010210222,
10201220
#LYRIC Odoru kimi no pavane 10210020,
1020122010210220,
1021022010210220,
2212002022120020,
#LYRIC Aa yawaraka kaze no you ni 3020122010210020,
1020122010210222,
1020122010210020,
1020122010210212,
#LYRIC Aa azayaka na tsuki no you ni 1020122010210020,
1020122010210222,
1020122010210020,
1020122010210212,
#LYRIC Rintoshita kimi no pavane 1020122010210020,
1020122010210222,
1021022010210220,
102100
#LYRIC Tokoshie ni wasurarenu 1100101011,
1010200010102022,
1010200010102022,
1010200010102022,
10102000
#LYRIC Arishi hi no uta koko ni 10102022,
1010200010012000,
200020002000100010001000100000000100000000100000,
10200220,
1001001022010010,
#LYRIC Yume de mata kikoeteru 1,
,
1,
,
102002
#LYRIC Kimi no kodou 20,
00200220,
10200220,
00
#LYRIC Togirezu ima mo iru yo 200220,
1000200202202000,
1000200202202000,
221000222000,
222111222111,
#GOGOSTART
#LYRIC Aa kiiro no gaku no naka de 1020122010210222,
1020122010210212,
1020122010210222,
1020122010210020,
#LYRIC Aa chiisaku suso o hiroge nagara 1020122010210222,
1020122010210212,
1020122010210222,
1020122010210020,
10201220
#LYRIC Warau kimi no pavane 10210222,
1020122010210020,
2212002022120020,
221200
#LYRIC Tokoshie ni wasurarenu 1100101011,
#GOGOEND
1020220020020020,
1020220020020020,
1020220020020020,
10202200
#LYRIC Arishi hi no emi koko ni ikiteru 20020020,
1020102010221020,
1022120212021020,
1020102010221020,
1022120212022000,
#GOGOSTART
#LYRIC Saa odorou yo 3022122010210222,
1022122010210212,
1022122010210222,
102212201021
#LYRIC Te o sashideshita boku ni 0212,
1010200010012000,
222111222111,
#GOGOEND
#BPMCHANGE 134
#SCROLL 1.0149253731343284
11
#BPMCHANGE 128
#SCROLL 1.0625
22,
#MEASURE 3/4
#BPMCHANGE 157
#SCROLL 0.8662420382165605
11
#BPMCHANGE 102
#SCROLL 1.3333333333333333
1,
#MEASURE 4/4
#BPMCHANGE 144
#SCROLL 0.9444444444444444
700000000000000000000000000000000000000000000008,
#LYRIC
#END

COURSE:Oni
LEVEL:6
BALLOON:16,16,10
SCOREINIT:740
SCOREDIFF:160
#START
,
2022,
2027,
0008,
1120220010202010,
1120220010002000,
1120220010002010,
1120220010202000,
1120220010202010,
1120220010002000,
1120120010002010,
1120120010202000,
1120220010002010,
1120220010202010,
1005000000000000,
0000000000000000000000000008000000000000000000000000000000000000,
1120220010202010,
1120220010002000,
1120220010002010,
1120220010202000,
1120220010202010,
1120220010002000,
1120120010002010,
1120220010202000,
1120220010002010,
1120220010202010,
1000000000005000000000000000000000000000000000000000000000080000,
,
11201221,
11201020,
11201221,
10201222,
3217,
0008,
1212,
1000200011102010,
1002,
22202020,
2022,
22200000,
2002,
2202,
2200,
0222,
2,
2222,
5000000000000000000000000000000000000000000000000000000800000000,
7008,
#GOGOSTART
1120220010202010,
1120220010102000,
1120220010002010,
1120220010202000,
1120220010202010,
1120220010102000,
1120120010002010,
1120220010202000,
1120220010202010,
1120220010202010,
1000000000005000000000000000000000000000000000000000000000080000,
00010111,
#GOGOEND
5000000000000000000000000000000000000000000000000000000000000008,
0222,
25,
0000000000000008000000000000000020000000000000002000000000000000,
1221,
0001,
10202150,
0000000000000000000000000000000000000008000000000000000000000000,
#GOGOSTART
1120220010102010,
1120220010202010,
1021201010202010,
1021201010202010,
1001200010015000,
0000000000000000000000000000000800000000000000001000000000000000,
#GOGOEND
#BPMCHANGE 134
#SCROLL 1.0149253731343284
1
#BPMCHANGE 128
#SCROLL 1.0625
5,
#MEASURE 3/4
#BPMCHANGE 157
#SCROLL 0.8662420382165605
00
#BPMCHANGE 102
#SCROLL 1.3333333333333333
8,
#END

COURSE:Hard
LEVEL:5
BALLOON:12,12,8
SCOREINIT:780
SCOREDIFF:215
#START
,
2022,
2027,
0008,
10201220,
10201120,
10201220,
12201220,
10201220,
10201120,
10201220,
12101210,
10201220,
10201121,
1005000000000000,
0000000000000000000000000008000000000000000000000000000000000000,
10201220,
10201120,
10201220,
12201220,
10201220,
10201120,
10201220,
12101210,
10201220,
10201121,
1000000000005000000000000000000000000000000000000000000000080000,
,
11201221,
1212,
11201221,
1212,
3017,
0008,
11,
1000200011102010,
1002,
22202020,
2022,
22200000,
2002,
2202,
2200,
0222,
2,
2222,
5000000000000000000000000000000000000000000000000000000800000000,
7008,
#GOGOSTART
1110200010202000,
1110200010102000,
1110200010202000,
12101210,
1110200010202000,
1110200010102000,
1110200010202000,
12101210,
1110200010202000,
1110200010201010,
1000000000005000000000000000000000000000000000000000000000080000,
00010111,
#GOGOEND
5000000000000000000000000000000000000000000000000000000000000008,
0222,
25,
0000000000000008000000000000000020000000000000002000000000000000,
1221,
0001,
1225,
0000000000000000000000000000000000000008000000000000000000000000,
#GOGOSTART
1110200010102010,
1110200010202000,
1110200010202010,
1110200010202000,
1215,
0000000000000000000000000000000800000000000000001000000000000000,
#GOGOEND
#BPMCHANGE 134
#SCROLL 1.0149253731343284
1
#BPMCHANGE 128
#SCROLL 1.0625
5,
#MEASURE 3/4
#BPMCHANGE 157
#SCROLL 0.8662420382165605
00
#BPMCHANGE 102
#SCROLL 1.3333333333333333
8,
#END

COURSE:Normal
LEVEL:5
BALLOON:10,10,6
SCOREINIT:970
SCOREDIFF:308
#START
,
2022,
2027,
0008,
1212,
10201120,
1212,
11,
1212,
10201120,
1212,
11,
10201220,
11,
1005000000000000,
0000000000000000000000000008000000000000000000000000000000000000,
1212,
10201120,
1212,
11,
1212,
10201120,
1212,
11,
10201220,
11,
1000000000005000000000000000000000000000000000000000000000080000,
,
11201020,
1212,
11,
1212,
3017,
0008,
15,
0000000000000000000000000000000000000000000000080000000000000000,
1002,
2200,
2022,
2200,
2002,
2202,
2200,
0222,
2,
22,
5000000000000000000000000000000000000000000000000000000800000000,
7008,
#GOGOSTART
1212,
10201120,
1212,
11,
1212,
10201120,
1212,
11,
10201220,
11,
1000000000005000000000000000000000000000000000000000000000080000,
0001,
#GOGOEND
5000000000000000000000000000000000000000000000000000000000000008,
0222,
25,
0000000000000008000000000000000020000000000000002000000000000000,
1011,
0001,
1025,
0000000000000000000000000000000000000008000000000000000000000000,
#GOGOSTART
1212,
10201220,
1212,
10201220,
1015,
0000000000000000000000000000000800000000000000001000000000000000,
#GOGOEND
#BPMCHANGE 134
#SCROLL 1.0149253731343284
1
#BPMCHANGE 128
#SCROLL 1.0625
5,
#MEASURE 3/4
#BPMCHANGE 157
#SCROLL 0.8662420382165605
00
#BPMCHANGE 102
#SCROLL 1.3333333333333333
8,
#END

COURSE:Easy
LEVEL:3
BALLOON:6,6,4
SCOREINIT:880
SCOREDIFF:370
#START
,
,
0007,
0008,
1,
0111,
1011,
11,
1,
0111,
1011,
1011,
1011,
11,
1005000000000000,
0000000000000000000000000008000000000000000000000000000000000000,
1,
0111,
1011,
11,
1,
0111,
1011,
1011,
1011,
11,
1000000000005000000000000000000000000000000000000000000000080000,
,
0202,
0222,
0202,
0011,
3007,
0008,
01,
1,
1,
2200,
1,
2200,
1,
2200,
1,
0101,
1,
1011,
5000000000000000000000000000000000000000000000000000000800000000,
7008,
#GOGOSTART
1,
0111,
1011,
11,
1,
0111,
1011,
1011,
1011,
11,
1000000000005000000000000000000000000000000000000000000000080000,
,
#GOGOEND
6000000000000000000000000000000000000000000000000000000000000008,
,
15,
0000000000000008000000000000000000000000000000000000000000000000,
11,
1001,
1015,
0000000000000000000000000000000000000008000000000000000000000000,
#GOGOSTART
1,
0111,
11,
0001,
1115,
0000000000000000000000000000000800000000000000000000000000000000,
#GOGOEND
#BPMCHANGE 134
#SCROLL 1.0149253731343284
1
#BPMCHANGE 128
#SCROLL 1.0625
5,
#MEASURE 3/4
#BPMCHANGE 157
#SCROLL 0.8662420382165605
00
#BPMCHANGE 102
#SCROLL 1.3333333333333333
8,
#END
