TITLE:不死鳥と成りて
SUBTITLE:--Sakuzyo
BPM:200
WAVE:Becoming a Phoenix.ogg
OFFSET:-0.299
SONGVOL:100
SEVOL:100
GENRE:ナムコオリジナル
DEMOSTART:83.035

COURSE:Oni
LEVEL:10
SCOREINIT:350
SCOREDIFF:80
BALLOON:5,
6
#START
#MEASURE 2/4
,
#TTBREAK
#MEASURE 3/4
122122,
101020111020,
122122,
121000,
#GOGOSTART
212000000000000000,
120000000000200000,
212000000000100000,
221000000000000000,
212000000000000000,
120000000000200000,
122000,
100002,
102000000000000000000000100200200200,
10002210,
211111211111,
200000002212,
221111221111,
212121221111,
#GOGOEND
1,
221022101010,
322122,
122122,
101110201020,
122122,
112110201120,
100111100111100200,
101122111120,
120022,
101120201020,
102210102020,
101120201020,
200222100200200100,
101120201020,
221010201010,
212000000200200200,
102000000000200000100000200200100000,
212000000100200100,
221000100100200200,
212000000100200100,
221000100100200100,
121000000200100100,
112000000200100100,
201212121212,
100011221010,
500000000000000000000008000000002000200010002000,
100022121010,
500000000000000800000000200000001000000010000000,
121020102020,
500000000000000000000008000000002000200010002000,
100022121120,
500000000000000800000000200000001000000010000000,
201110201120,
500000000000000000000000000000080000000000000000,
500000000000000800000000200020001000200010002000,
100012121121,
200000221121,
100221,
211020201020,
3,
,
112211221122,
112212121110,
100022221111,
221122112221,
201120112210,
202211112121,
200000101010200000100100200200100100,
221221221222,
708,
222111221212,
708,
111222112212,
111222112212,
111222112212,
100222,
112120,
100220,
122,
100220,
102120,
102221,
102122,
112112,
100000222200100200,
100220,
110000200000200000,
200122,
110000200100200200,
101000000000000000200000100100200100,
222000201020,
202000000000200200100200100200100100,
101121,
#GOGOSTART
304022222010,
304022222010,
100000202020100000200200100000200000,
221100222100221100,
304022222010,
304022221020,
102000000000100000200200100000200000,
222100221100211100,
300100200111200111,
200200100222100100,
101110112010,
201022121221,
111211221222,
111211221222,
102222102222,
#GOGOEND
1,
#GOGOSTART
111211121122,
122212111000,
111211121122,
122212112000,
111211121122,
122212122020,
102120122010,
221100200100200200,
121120102020,
221210102010,
121120102020,
221000100100200100,
344002,
344012,
#GOGOEND
102000000000000000000000100100200200,
202,
#GOGOSTART
111211121112,
112211221122,
122212221222,
122222122222,
112122112122,
112122112122,
121212121221,
121221,
304022222210,
304022222210,
301210302120,
302012112122,
201212121212,
121212121210,
300400300000111200,
304030221111,
#GOGOEND
1,
,
,
,
#END

COURSE:Hard
LEVEL:8
SCOREINIT:360
SCOREDIFF:85
BALLOON:4,
5
#START
#MEASURE 2/4
,
#MEASURE 3/4
101101,
111,
101101,
110,
#GOGOSTART
2,
202,
201,
2,
2,
202,
122000,
100002,
100000001110,
100022,
101110101110,
200000002220,
211211,
222022201111,
#GOGOEND
1,
212111,
302102,
102122,
101212,
102120,
111212,
101110111010,
112112,
120022,
101110201020,
122120,
101110101020,
202220202000,
101110201020,
222010201010,
200222,
102121,
200121,
201122,
200121,
201121,
100211,
100211,
201110111011,
100011111010,
500000000000000000000008000000002000000010001000,
100020111010,
500000000000000800000000200000001000000010000000,
102122,
500000000000000000000008000000002000000010001000,
100020111020,
500000000000000800000000200000001000000010000000,
211212,
500000000000000000000000000000080000000000000000,
500000000000000800000000200020002000000020000000,
100011101110,
200000222011,
100221,
212212,
3,
,
111011101110,
111020201010,
102211,
222220102220,
201020102220,
201010222010,
102121,
201111102010,
708,
111110101010,
708,
111110102020,
111110102020,
111110102020,
100220,
102220,
1,
1,
1,
102,
100220,
122,
102202,
102212,
100220,
122,
200120,
122,
100212,
222000201020,
200022201110,
1,
#GOGOSTART
303022202010,
303022202010,
101222,
222010101010,
303022202010,
303022201020,
101212,
222020201010,
402121,
202010222010,
100010111010,
201022201010,
111110101010,
111110102220,
102220102220,
#GOGOEND
1,
#GOGOSTART
111011101110,
202011111000,
111011101110,
202011102000,
111011101110,
202011102020,
122021,
222020102000,
111110102020,
222220201010,
111110102020,
201121,
344002,
344012,
#GOGOEND
100000002222,
202,
#GOGOSTART
101110101110,
101110101110,
101110101110,
101110101110,
102220102220,
102220102220,
100010102222,
221220,
303022202000,
303022202010,
302302,
302011101000,
222022202220,
222222222000,
304030001110,
304030001111,
#GOGOEND
1,
,
,
,
#END

COURSE:Normal
LEVEL:7
SCOREINIT:460
SCOREDIFF:123
BALLOON:3,
4
#START
#MEASURE 2/4
,
#MEASURE 3/4
11,
1,
11,
110,
#GOGOSTART
1,
101,
1,
2,
1,
102,
110,
2,
1,
101,
11,
2,
111,
101011,
#GOGOEND
1,
101110,
31,
122,
11,
122,
111010,
111110,
101101,
1,
111,
222020,
111,
202220,
101110,
202011,
100220,
122,
200110,
201110,
200110,
201110,
100220,
100220,
101111,
111,
500000000000000000000008000000000000000000000000,
101,
500000000000000800000000000000001000000000000000,
111,
500000000000000000000008000000000000000000000000,
101,
500000000000000800000000000000001000000000000000,
202220,
500000000000000000000000000000080000000000000000,
500000000000000800000000000000001000000000000000,
101110,
200220,
100220,
222,
3,
,
111111,
122,
101011,
111,
202022,
211,
102220,
201110,
708,
101101,
708,
111120,
111120,
111120,
1,
122,
1,
,
1,
,
1,
101,
1,
102220,
101,
102,
202,
101,
100110,
200220,
202011,
1,
#GOGOSTART
114010,
114010,
101120,
212120,
114010,
114020,
101110,
212120,
402220,
221010,
100112,
202210,
111111,
111110,
102102,
#GOGOEND
1,
#GOGOSTART
111111,
221110,
111111,
221120,
111111,
221110,
122020,
221220,
111120,
222210,
111120,
201120,
114000,
114012,
#GOGOEND
102,
202,
#GOGOSTART
101101,
101101,
101101,
101101,
101101,
101101,
102210,
221220,
114020,
114020,
301101,
101111,
202222,
222220,
113010,
113011,
#GOGOEND
1,
,
,
,
#END

COURSE:Easy
LEVEL:5
SCOREINIT:500
SCOREDIFF:153
BALLOON:2,
3
#START
#MEASURE 2/4
,
#MEASURE 3/4
1,
,
,
,
#GOGOSTART
1,
,
1,
,
1,
,
1,
,
1,
1,
1,
1,
101,
101,
#GOGOEND
1,
2,
3,
,
,
,
101,
101,
1,
1,
1,
110,
1,
110,
1,
110,
1,
2,
1,
2,
1,
2,
101,
101,
1,
1,
500000000000000000000000000000000000000000000008,
,
500000000000000000000000000000000000000000000008,
,
500000000000000000000000000000000000000000000008,
,
500000000000000000000000000000000000000000000008,
,
1,
1,
1,
1,
1,
1,
3,
,
111,
1,
101,
101,
101,
111,
1,
2,
7,
8,
7,
8,
101,
101,
1,
,
1,
,
,
,
1,
,
,
,
1,
1,
1,
1,
101,
102,
201,
1,
#GOGOSTART
330,
330,
111,
111,
330,
330,
111,
222,
402,
201,
101,
1,
11101110,
33,
#GOGOEND
3,
#GOGOSTART
111,
101110,
111,
101110,
111,
101110,
110,
222,
111010,
222,
111010,
222,
330,
330,
#GOGOEND
102,
2,
#GOGOSTART
11,
11,
11,
11,
11,
11,
100110,
222,
330,
330,
330,
311,
5,
000000000000000000000008000000000000000000000000,
111000,
111000,
#GOGOEND
1,
,
,
,
#END
