//TJADB Project
TITLE:Dream Tide -Yume no Chouryuu-
TITLEJA:Dream Tide -夢の潮流-
SUBTITLE:--Mirai feat. Chata
SUBTITLEJA:
BPM:141
WAVE:Dream Tide -Yume no Chouryuu-.ogg
OFFSET:-2.005
DEMOSTART:56.446

COURSE:Oni
LEVEL:8
BALLOON:18
SCOREINIT:570
SCOREDIFF:150
#START
#MEASURE 2/4
#GOGOSTART
12201220,//1
#MEASURE 4/4
1020201202102020,
1020201202102020,
1020201202102020,
1020201202112020,
1020201202102020,
1020201202102020,
1020201202102020,
1020201122112212,//9
#GOGOEND
1011201010120210,
1022201011012010,
1011201010210120,
1011201011012010,
1011201010120210,
1022201011012010,
1011201010210120,
1011201011012010,
1011201010120210,
1022201011012010,
1011201010210120,
1011201011012010,
1011201010120210,
1022201011012010,
1011201010210120,
1011201011012010,
1110201202102010,
2220102101202010,
1110211202102012,
0210211202110210,
1120201202102010,
2210102101202010,
1110211202110210,
0000000011011020,//33
#GOGOSTART
1011201102102010,
1011201102112010,
1011201102102010,
1011201102112010,
1011201102102010,
1011201102112010,
1011201102102010,
1011201102211221,
1021101202102210,
1021102101221020,
1021101202102210,
1021102101221020,
1021101202102210,
1021102101221020,
1021101202102210,
1021102102211221,//49
#GOGOEND
1020201202102020,
1020201202102020,
1020201202102020,
1020201202112020,
1020201202102020,
1020201202102020,
1020201202102020,
70000008,
#END

COURSE:Hard
LEVEL:7
BALLOON:13,13,12
SCOREINIT:720
SCOREDIFF:200
#START
#MEASURE 2/4
#GOGOSTART
11101110,//1
#MEASURE 4/4
1010201100102000,
1010201100102000,
1010201100102000,
1010201102202000,
1010201100102000,
1010201100102000,
1010201100102000,
1010201102202000,//9
#GOGOEND
1010200010020010,
0010200011102000,
1010200010020010,
0010200011102000,
1010200010020010,
01201127,
00000008,
,
1010200010020010,
0020200011102000,
1010200010020010,
0010200011102000,
1010200010020010,
02201127,
00000008,
0044,
1010200200102000,
1010200200202000,
1010200200102000,
1010200200202000,
1010200200102000,
1010200200202000,
1010200030030030,
0000000011011000,//33
#GOGOSTART
1010201100102010,
1010201100102000,
1010201100102010,
1010201100202000,
1010201100102010,
1010201100102000,
1010201100102010,
1010201100202000,
1020101100102010,
1020101100102000,
1020101100102010,
1020101100222000,
1020101100102010,
1020101100102000,
1020101100102010,
1020101100222000,//49
#GOGOEND
1010201100102000,
1010201100102000,
1010201100202000,
1010201102202000,
1010201100102000,
1010201100102000,
1010201100202000,
70000008,
,
,
,
,
,
,
,
#END

COURSE:Normal
LEVEL:5
BALLOON:10,10,10
SCOREINIT:1070
SCOREDIFF:408
#START
#MEASURE 2/4
#GOGOSTART
,//1
#MEASURE 4/4
11101010,
11101000,
11101010,
58,
11102020,
11102000,
11102020,
58,//9
#GOGOEND
1120,
1120,
1110,
3,
1120,
1120,
7,
8,
1120,
1120,
1110,
3,
1120,
1120,
7,
8,
1202,
1202,
5,
8,
3202,
3202,
6,
8011,//33
#GOGOSTART
20201110,
1011,
20201110,
1011,
20201110,
1011,
20201110,
1022,
10102220,
2022,
10102220,
2022,
10102220,
2022,
10102220,
2,//49
#GOGOEND
11101010,
11101000,
11101010,
58,
11102020,
11102000,
11102020,
70000008,
,
,
,
,
,
,
,
#END

COURSE:Easy
LEVEL:3
BALLOON:8,8,8
SCOREINIT:900
SCOREDIFF:478
#START
#MEASURE 2/4
#GOGOSTART
,//1
#MEASURE 4/4
1110,
1110,
11,
58,
1110,
1110,
11,
58,//9
#GOGOEND
12,
12,
1110,
3,
12,
12,
7,
8,
12,
12,
1110,
3,
12,
12,
7,
8,
1110,
1110,
5,
8,
3330,
3330,
6,
8011,//33
#GOGOSTART
11,
1011,
11,
1011,
11,
1011,
11,
1022,
22,
2022,
22,
2022,
22,
2022,
22,
2,//49
#GOGOEND
1110,
1110,
11,
58,
1110,
1110,
11,
70000008,
,
,
,
,
,
,
,
#END
