//TJADB Project
TITLE:Invader Invader
TITLEJA:インベーダーインベーダー
SUBTITLE:--Kyary Pamyu Pamyu
SUBTITLEJA:きゃりーぱみゅぱみゅ
BPM:160
OFFSET:-1.805
WAVE:Invader Invader.ogg
DEMOSTART:73.800

COURSE:Oni
LEVEL:6
STYLE:Double
BALLOON:11,12,13,14
SCOREINIT:580
SCOREDIFF:145
#START P1
,
00000120,
0010001020001022,
1020001020001022,
12012012,
10120112,
3000102000112010,
1000102000112020,
1000102000112010,
1000102000112020,
1010201110201020,
1010201110201020,
1010201110201020,
3000300020222020,
1000201000221020,
1000201000222020,
1000201000221020,
10240112,
3000400030222030,
04030222,
3000400030222030,
0040003000222020,
1000201000221020,
1000201000222020,
1000201000221020,
10210111,
3000400030222030,
04030111,
3000400030222030,
04030111,
10012012,
1011201120202000,
1010201010222020,
500000000000000000000000000000000008000000000000,
1010201010112010,
7008,
1010201010222020,
500000000000000000000000000000000008000000000000,
1010201010112010,
7008,
1011201010222020,
500000000000000000000000000000000008000000000000,
1011201010112010,
7008,
1011201010222010,
7008,
01012012,
10120112,//48
#GOGOSTART
1022102210221000,
3000400030222020,
1011201000201000,
2022202000222020,
1022102210100030,
0000400030222020,
1011201000102010,
2022202000222020,
1022102210221000,
3000400030222020,
1011201000102000,
2022202000222020,
1022102210100030,
0000400030222000,//62
#GOGOEND
0010001020001022,
1020001020001022,
12012012,
10120112,
3000102000112010,
1000102000112020,
1000102000112010,
1000102000112020,
1010201110201020,
1010201110201020,
1010201110201020,
10120112,
3,
#END
#START P2
,
00000120,
0010001020001022,
1020001020001022,
12012012,
10120112,
3000102000112010,
1000102000112020,
1000102000112010,
1000102000112020,
1010201110201020,
1010201110201020,
1010201110201020,
3000300020222020,
1000201000221020,
1000201000222020,
1000201000221020,
10240112,
3000400030222030,
04030222,
3000400030222030,
0040003000222020,
1000201000221020,
1000201000222020,
1000201000221020,
10210111,
3000400030222030,
04030111,
3000400030222030,
04030111,
10012012,
1011201120202000,
500000000000000000000000000000000008000000000000,
1010201010222020,
7008,
1010201010112010,
500000000000000000000000000000000008000000000000,
1010201010222020,
7008,
1010201010112020,
500000000000000000000000000000000008000000000000,
1011201010222020,
7008,
1011201010112010,
7008,
1011201010112010,
01012012,
10120112,
#GOGOSTART
1022102210221000,
3000400030222020,
1011201000201000,
2022202000222020,
1022102210100030,
0000400030222020,
1011201000102010,
2022202000222020,
1022102210221000,
3000400030222020,
1011201000102000,
2022202000222020,
1022102210100030,
0000400030222000,//62
#GOGOEND
0010001020001022,
1020001020001022,
12012012,
10120112,
3000102000112010,
1000102000112020,
1000102000112010,
1000102000112020,
1010201110201020,
1010201110201020,
1010201110201020,
10120112,
3,
#END
STYLE:Single
BALLOON:11,12,13,14
SCOREINIT:520
SCOREDIFF:130
#START
,
00000120,
0010001020001022,
1020001020001022,
12012012,
10120112,
3000102000112010,
1000102000112020,
1000102000112010,
1000102000112020,
1010201110201020,
1010201110201020,
1010201110201020,
3000300020222020,
1000201000221020,
1000201000222020,
1000201000221020,
10240112,
3000400030222030,
04030222,
3000400030222030,
0040003000222020,
1000201000221020,
1000201000222020,
1000201000221020,
10210111,
3000400030222030,
04030111,
3000400030222030,
04030111,
10012012,
1011201120202000,
11211250,
000000000000000000000000000000000008000000000000,
1010201010112070,
0008,
11211250,
000000000000000000000000000000000008000000000000,
1010201010117000,
0008,
1011201010225000,
000000000000000000000000000000000008000000000000,
1011201010117000,
0008,
1011201010222070,
0008,
01012012,
10120112,//48
#GOGOSTART
1022102210221000,
3000400030222020,
1011201000201000,
2022202000222020,
1022102210100030,
0000400030222020,
1011201000102010,
2022202000222020,
1022102210221000,
3000400030222020,
1011201000102000,
2022202000222020,
1022102210100030,
0000400030222000,//62
#GOGOEND
0010001020001022,
1020001020001022,
12012012,
10120112,
3000102000112010,
1000102000112020,
1000102000112010,
1000102000112020,
1010201110201020,
1010201110201020,
1010201110201020,
10120112,
3,
#END

COURSE:Hard
LEVEL:6
BALLOON:6,10,11,12
#START
,
00000120,
01012010,
01012010,
01012012,
10120112,
30120121,
10120122,
10120121,
10120220,
12111212,
12111212,
12111212,
30302222,
10210121,
10210122,
10210121,
10240112,
30403003,
04030222,
30403003,
04030000,
10210121,
10210122,
10210121,
10210111,
30403003,
04030111,
30403003,
04030111,
10012010,
1011101120002000,
11210250,
000000000000000000000000000000000008000000000000,
11211217,
0008,
12122250,
000000000000000000000000000000000008000000000000,
12112070,
0008,
1011102010205000,
000000000000000000000000000000000008000000000000,
1011102010207000,
0008,
1011101022202070,
0008,
01012012,
10120112,//48
#GOGOSTART
1011101110111000,
3000400030222020,
1011102000102000,
2022202000202020,
1011101110100030,
0000400030222020,
1011102000102010,
2022202000222020,
1011101110111000,
3000400030222020,
1011102000102000,
2022202000202220,
1011101110100030,
0000400030222020,//62
#GOGOEND
01012010,
01012010,
01012012,
10120121,
30120121,
10120122,
10120121,
10120121,
11211212,
1011101010111020,
1011102010222020,
10110111,
3,
,
#END

COURSE:Normal
LEVEL:4
BALLOON:10,10,10
#START
,
,
10000110,
10000110,
10000110,
10010010,
30010000,
10010000,
10010000,
10010000,
10101110,
10101110,
10101110,
3300,
10010010,
20020020,
10010010,
20040000,
30303004,
04040000,
30303004,
04040000,
10010010,
20020020,
10010010,
20040000,
30303004,
04040000,
30303004,
04040111,
12,
12,
10050000,
000000000000000000000008000000000000000000000000,
1170,
0008,
10050000,
000000000000000000000008000000000000000000000000,
2270,
0008,
10050000,
000000000000000000000008000000000000000000000000,
1170,
0008,
2250,
000000000000000000000000000000000008000000000000,
01011000,
10010010,//48
#GOGOSTART
1111,
3430,
10110110,
20220220,
10101103,
0430,
10110110,
20220220,
1111,
3430,
10110110,
20220220,
10101103,
0430,//62
#GOGOEND
10000220,
10000220,
10000220,
10010010,
30010000,
10010000,
10010000,
10010000,
10101110,
10101110,
10101110,
30030030,
3,
,
#END

COURSE:Easy
LEVEL:3
BALLOON:5,5,5
#START
,
,
3001,
1001,
1001,
10010010,
3001,
1001,
1001,
1001,
1011,
1011,
11,
3300,
10010000,
10010000,
10010000,
10020000,
30303004,
04040000,
30303004,
04040000,
10010000,
10010000,
10010000,
10020000,
30303004,
04040000,
30303004,
04040000,
12,
12,
10050000,
000000000000000000000008000000000000000000000000,
17,
00000800,
10050000,
000000000000000000000008000000000000000000000000,
17,
00000800,
10050000,
000000000000000000000008000000000000000000000000,
17,
00000800,
15,
000000000000000000000008000000000000000000000000,
11,
10010000,//48
#GOGOSTART
1110,
3430,
10010000,
20020000,
1110,
3430,
1110,
20020000,
1110,
3430,
10010000,
20020000,
1110,
3430,//62
#GOGOEND
1001,
1001,
1001,
10010010,
3002,
1002,
1002,
1002,
1011,
1011,
1011,
10010010,
3,
,
#END
