//TJADB Project
TITLE:Taiko Ranbu Kaiden
TITLEJA:太鼓乱舞 皆伝
SUBTITLE:--Yuuji Masubuchi
BPM:130
WAVE:Taiko Ranbu.ogg
OFFSET:-2.591
DEMOSTART:19.670

COURSE:Oni
LEVEL:8
BALLOON:20,12,14,36,60,12
SCOREINIT:630
SCOREDIFF:178
#START
#MEASURE 5/4
600000008000000000000000000000000000000000000000000000000000,
#SECTION
#BRANCHSTART r,1,2
#N
#MEASURE 4/4
100100100100200000100100100100200000100100200000,
100100100100200200100000000000300000300000000000,
100100100100200000100100100100200000100100200000,
100100100100200200100000000000300000300000000000,
100000000100000000000000700000000000000000000000,
000000000000000000800000000000000000000000000000,
100100000200200000100100000200200100100000000000,
100000100000100100000100100000001010100000000000,
100000100000200000100100100000100100200100000100,
000100000100200100000100000100100100200100000200,
100000100000200000100100100000100100200100000100,
000100000100200100000100000100200100200200200200,
100000100000200000100100100000100100200100000100,
000100000100200100000100000100100100200100000200,
100000100000200000100100100000100100200100000100,
100000200200200000100100100000200200200000101010,
100000100000200000100100000100000100200100000100,
000100000100200100100000100000000100200100000100,
100000100000200000100100000100000100200100000100,
000100000100200100100000100100200100100100200100,
100000100000200000100100000100000100200100000100,
000100000100200100100000100000000100200100000100,
100000100000200000100100000100000100200100000100,
100000200200200000100100100000200200200000100000,
700000000000000000000000000000000000800000000000,
100100100100000100200000100100100100000100200000,
700000000000000000000000000000000000800000000000,
100100200100100100200100100100200100100100200000,
700000000000000000000000000000000000000000000000,
000000000000000000000000800000000000000000000000,
500000000000000000000000000000000008000000000000,
500000000000000000000000000000000008000000000000,
700000000000000000000000000000000000000000000000,
000000000000000000000000000000000000000000000000,
000000000000000000000000800000000000000000000000,
100000200200100000200200100000000100100000100000,
#GOGOSTART
100000100000200000100100100000100100200100000100,
000100000100200100000100000100100100200100000200,
100000100000200000100100100000100100200100000100,
000100000100200100000100000100200100000100200100,
100000100000200000100100100000100100200100000100,
000100000100200100000100000100100100200100000200,
100000100000200000100100100000100100200100000100,
100000200200200000100100100000200200200000101010,
100000100000200000100100000100000100200100000100,
000100000100200100100000100000000100200100000100,
100000100000200000100100000100000100200100000100,
000100000100200100100000100100100200100100100200,
100000100000200000100100000100000100200100000100,
000100000100200100100000100000000100200100000100,
100000100000200000100100000100000100200100000100,
100000200200200100100100100000200200202020202020,
100100000200200000100100000200200100100000000000,
100000100000100100000100100000000000000000000000,
#E
#MEASURE 4/4
100100100100100000100100100100100000100100100000,
100100100100200200100000000000300000300000000000,
100100100100100000100100100100100000100100100000,
100100100100200200100000000000300000300000000000,
000000100100000100100000200000100100000100100000,
000000100100000100100000200000100100000200100000,
100100000200200000100100000200200100100000000000,
100000100000100100000100100000000000400000000000,
000000100000100000000000100000000100000000100100,
000000100000100100000200200000000200100000100100,
000000100000100000000000100000000100000000100100,
000200000200100000000100100000000100100100100100,
000000100000100000000000100000000100100000100100,
000000100000100100000200200000000200100000100100,
000000100000100000000000100000000100100000200200,
100000200200200000100100100000200200200000100100,
100000000200000100100000100000100000200200000100,
100000200200000100100000100200000200100000000100,
100000000200000100100000100000100000200200000100,
100100100200200000100100100200200000100100100000,
300000000200000100100000100000100000200200000100,
100000200200000100100000100200000200100000000100,
100000000200000100100000100000100000200200000100,
100000200200200000100100100000200200200000100000,
300000000000000000000000100100100100100100100100,
000200200000200200100000000200200000200200100000,
300000000000000000000000100100100100100100100100,
200000200100000100200000200100000100200200200000,
100100100100000000200200100000000100000000200000,
100100100100000000200200100100100100000000200200,
100000001000000010001000200000000000200200200200,
100000001000000010001000200000000000200200200200,
100000000000100000000000100010001000200000000000,
100000000000100000000000100010001000200000000000,
101010001000100000000000100010001000100000000000,
100000200200100000200200100000000100100000300000,
#GOGOSTART
000000100000100000000000100000000100000000100100,
000000100000100100000200200000000200100000100100,
000000100000100000000000100000000100000000100100,
000200000200100000000100100000000100100100100100,
000000100000100000000000100000000100100000100100,
000000100000100100000200200000000200100000100100,
000000100000100000000000100000000100100000200200,
100000200200200000100100100000200200200000100100,
000000100100000100100000200000100100000100100000,
000000100100000100100000200000100100000100100200,
000000100100000100100000200000100100000100100000,
000000100100000100100000200200200000100100100100,
000000100100000100100000200000100100000100100000,
000000100100000100100000200000100100000100100200,
000000100100000100100000200000100100000100100000,
100000200200200100100100100000200200202020202020,
100100000200200000100100000200200100100000000000,
100000100000100100000100100000000000000000000000,
#M
#MEASURE 4/4
200200200200200000200200200200200000200200200000,
200200200200200200200000000000400000400000000000,
200200200200200000200200200200200000200200200000,
200200200200200200200000000000400000400000002020,
100000100200000100200000202020200000101010100000,
700000000000000000000000000000000000800000000000,
100100000200200000100100000200200100100000000000,
300000300000100100000100200000000000400000000000,
100000200200100000200200100200000200100100200000,
100000200200100000200200100200000200100100200000,
100000200200100000200200100200000200100100200000,
100100200200100200100200100100200200100000200000,
100000200200100000200200100200000200100100200000,
100000200200100000200200100200000200100100200000,
100000200200100000200200100200000200100100200000,
100000200200200000100100100000200200200000101010,
100000200100000200100100100000200100000200100100,
100000200100000200100100100000200100100100200200,
100000200100000200100100100000200100000200100100,
100000200100000200100100100200200100100200200200,
100000200100000200100100100000200100000200100100,
100000200100000200100100100000200100100100200200,
100000200100000200100100100000200100000200100100,
100000200200200000100100100000200200200000100000,
300000000000200000200000200200200200200200200200,
100000200100000100200000100000200100000100200000,
100100100100200200200200100100200200100100200200,
101010200000100100200100100000200000100100200100,
100000100100000000200200200100000200100000100000,
200000100200000000100100200100100200000000100100,
202020002000200020002000200020002000100000100100,
202020002000200020002000200020002000100000100100,
202020002000200010001000200020001000000040000000,
202020002000200010002000100010002000200020000000,
202010001000100020002000100010001000100020002000,
100000200200100000200200100000000100200000200000,
#GOGOSTART
100000200200100000200200100200000200100100200000,
100000200200100000200200100200000200100100200000,
100000200200100000200200100200000200100100200000,
100100200200100200100200100100200200100000200000,
100000200200100000200200100200000200100100200000,
100000200200100000200200100200000200100100200000,
100000200200100000200200100200000200100100200000,
100000200200200000100100100000200200200000101010,
100000200100000200100200100000200100000200100200,
100000200100000200100200100200200100100200200200,
100000200100000200100200100000200100000200100200,
100000200100000200100200100200200000200200100000,
100000200100000200100200100000200100000200100200,
100000200100000200100200100200200100100200200200,
100000200100100200100200100000200100100200100200,
100000200200200100100100100000200200202020202020,
100100000200200000100100000200200100100000000000,
300000300000100100000100200000000000000000000000,
#BRANCHEND
#GOGOEND
#END

COURSE:Hard
LEVEL:7
BALLOON:12,10,12,12,22,27,10,10,10,10,27,10
SCOREINIT:700
SCOREDIFF:203
#START
#MEASURE 5/4
600000008000000000000000000000000000000000000000000000000000,
#SECTION
#BRANCHSTART r,1,2
#N
#MEASURE 4/4
100100100000100000100100100000100000000000000000,
100100100000100000100000000000000000000000000000,
100100100000100000100100100000100000000000000000,
100100100000100000100000000000000000000000000000,
100000000100000000000000700000000000000000000000,
000000000000000000000000800000000000000000000000,
100100000200200000100100000100100100100000000000,
300000000000000000000000300000000000000000000000,
100000100100100000200000000000100100100000000000,
100000100100100000200000000000100000200000000000,
100000100100100000200000000000100100100000000000,
100000100100100000200000000000100000200000000000,
100000100100100000200000000000100100100000000000,
100000100100100000200000000000100000200000000000,
100000100100100000200000000000100100100000000000,
700000000000000000000000000000000000800000000000,
100000100100100000200000000000100000200000000000,
100000100100100000200000000000200200200000000000,
100000100100100000200000000000100000200000000000,
100000100100100000200000000000200200200000000000,
100000100100100000200000000000100000200000000000,
100000100100100000200000000000200200200000000000,
100000100100100000200000000000100000200000000000,
300000000000300000000000300000000000000000000000,
700000000000000000000000000000000000800000000000,
000000000000000000000000000000000000000000000000,
700000000000000000000000000000000000800000000000,
000000000000000000000000000000000000000000000000,
700000000000000000000000000000000000000000000000,
000000000000000000000000800000000000000000000000,
100000001000100010000000100000001000000000000000,
100000001000100010000000100000001000000000000000,
700000000000000000000000000000000000000000000000,
000000000000000000000000000000000000000000000000,
800000000000000000000000000000000000000000000000,
300000000000300000000000300000000000000000000000,
#GOGOSTART
100000100100100000200000000000200200200000000000,
100000100100100000200000000000100100200000000000,
100000100100100000200000000000200200200000000000,
100000100100100000200000000000100100200000000000,
100000100100100000200000000000200200200000100000,
100000100100100000200000000000100100200000000000,
100000100100100000200000000000200200200000100000,
700000000000000000000000000000000000800000000000,
100000100100100000200000000000200200200000100000,
100000100100100000200000000000200200200000200000,
100000100100100000200000000000200200200000100000,
100000100100100000200000000000200200200000200000,
100000100100100000200000000000200200200000100000,
100000100100100000200000000000200200200000200000,
100000100100100000200000000000200200200000100000,
700000000000000000000000000000000000800000000000,
100100000200200000100100000100100100100000000000,
100000100000100100100000300000000000000000000000,
#E
#MEASURE 4/4
100100100000100000100100100000100000100100100000,
100100100000200200200000000000300000300000000000,
100100100000100000100100100000100000100100100000,
100100100000200200200000000000300000300000000000,
100000000100000000100000200000000100000000100000,
100000000100000000100000200000000100000000100000,
100100000200200000100100000200200100100000000000,
100000100000100100000100100000000000400000000000,
100000000100000000100000000000100000100000000000,
000000100000100000000000100000000100100000100000,
100000000100000000100000000000100000100000000000,
000000200000200000000000100100100000200000000000,
100000000100000000100000000000100000100000000000,
000000100000100000000000100000000100100000100000,
100000000100000000100000000000100000100000000000,
100000200200200000100100100000200200200000000000,
100000000100000000100000000000100000100000000100,
100000100000100100000100100000100000200000000000,
100000000100000000100000000000100000100000000100,
100000100000200200000100100100100000200000000000,
100000000100000000100000000000100000100000000100,
100000100000100100000100100000100000200000000000,
100000000100000000100000000000100000100000000000,
100000200200200000100100100000200200200000000000,
300000000000000000000000100000100000100100100100,
200000000200000000100000200000000200000000100000,
100000000000000000000000100000100000100100100100,
500000000000000000000008000000000000400000000000,
100100100100000000000000200000000200000000000000,
100100100100000000000000100100100100000000000000,
300000000000000000000000200020002000200000000000,
300000000000000000000000200020002000200000000000,
100000000000000010000000000000002000000020000000,
100000000000000010000000000000002000200020000000,
100010001000100000000000100010001000100000000000,
100000200200100000000000100000000100100000100000,
#GOGOSTART
100000000100000000100000000000100000100000000000,
000000100000100000000000100000000100100000100000,
100000000100000000100000000000100000100000000000,
000000200000200000000000100100100000200000000000,
100000000100000000100000000000100000100000000000,
000000100000100000000000100000000100100000100000,
100000000100000000100000000000100000100000000000,
100000200200200000100100100000200200200000000000,
100000000100000000100000000000100000100000000100,
100000100000100100000100100100100000200000000000,
100000000100000000100000000000100000100000000100,
100000100000200200000100100100100000200000000000,
100000000100000000100000000000100000100000000100,
100000100000100100000100100100100000200000000000,
100000000100000000100000000000100000100000000100,
100000200200200000100100100000200200200000000000,
100100000200200000100100000200200100100000000000,
100000100000100100000100100000000000000000000000,
#M
#MEASURE 4/4
200200200200200000200200200200200000200200200000,
200000200000200200200000000000400000400000000000,
200200200200200000200200200200200000200200200000,
200000200000200200200000000000400000400000000000,
100000100100000100100000100100100000100100100000,
700000000000000000000000000000000000800000000000,
100100000200200000100100000200200200200000000000,
300000300000100100000100100000000000400000000000,
100000200200200000100000200200200000200200200000,
100000200200200000100000100100100000200000000000,
100000200200200000100000200200200000200200200000,
100000100000100100100000200200200000200000000000,
100000200200200000100000200200200000200200200000,
100000200200200000100000100100100000200000000000,
100000200200200000100000200200200000200200200000,
100000200200200000100100100000200200200000000000,
100000200200000200200000100000200200000200200000,
100000200200000200200000100000100100200000000000,
100000200200000200200000100000200200000200200000,
100000200200000200200000100000100100200000000000,
100000200200000200200000100000200200000200200000,
100000200200000200200000100000100100200000000000,
100000200200000200200000100000200200000200200000,
100000200200200000100100100000200200200000100000,
700000000000000000000000000000000000800000000000,
100000100100000100200000100000100100000100200000,
500000000000000000000000000000000000000000000008,
000000200000000200200000000000200000000200200000,
200000100100000000200200200200000200200000200000,
200000100100000000200200200000200200000000200000,
500000000000000000000000000000000008000000000000,
500000000000000000000000000000000008000000000000,
700000000000000000000000000000000000000000000000,
000000000000000000000000000000000000000000000000,
800000000000000000000000000000000000000000000000,
100000200200200000100100100000000200200000200000,
#GOGOSTART
100000200200200000100000200200200000200200200000,
100000200200200000100000100100100000200000000000,
100000200200200000100000200200200000200200200000,
100000100000100100100000200200200000200000000000,
100000200200200000100000200200200000200200200000,
100000200200200000100000100100100000200000000000,
100000200200200000100000200200200000200200200000,
100000200200200000100100100000200200200000000000,
100000200200000200200000100000200200000200200000,
100000200200000200200000100000100100200000000000,
100000200200000200200000100000200200000200200000,
100000200200000200200000100000100100200000000000,
100000200200000200200000100000200200000200200000,
100000200200000200200000100000100100200000000000,
100000200200000200200000100000200200000200200000,
700000000000000000000000000000000000800000000000,
100100000200200000100100000200200200200000000000,
300000300000200200000200200000000000000000000000,
#BRANCHEND
#GOGOEND
#END

COURSE:Normal
LEVEL:5
BALLOON:10,7,10,10,20,25,7,7,7,10,25,7,10
SCOREINIT:890
SCOREDIFF:318
#START
#MEASURE 5/4
600000008000000000000000000000000000000000000000000000000000,
#SECTION
#BRANCHSTART r,1,2
#N
#MEASURE 4/4
100000000000100000100000000000100000100000000000,
100000000000100000100000000000000000000000000000,
100000000000100000100000000000100000100000000000,
100000000000100000100000000000000000000000000000,
100000000000000000000000700000000000000000000000,
000000000000000000000000800000000000000000000000,
100000000000000000100000000000000000100000000000,
300000000000300000000000300000000000000000000000,
100000000000100000100000100000000000100000000000,
000000000000100000000000100000000000100000000000,
100000000000100000100000100000000000100000000000,
000000000000100000000000100000000000000000000000,
100000000000100000100000100000000000100000000000,
000000000000100000000000100000000000100000000000,
100000000000100000100000100000000000100000000000,
700000000000000000000000000000000000800000000000,
100000000000100000100000100000000000200000000000,
000000000000200000000000100000000000100000000000,
100000000000100000100000100000000000200000000000,
000000000000200000000000100000000000000000000000,
100000000000100000100000100000000000200000000000,
000000000000200000000000100000000000100000000000,
100000000000100000100000100000000000200000000000,
300000000000000000000000300000000000000000000000,
700000000000000000000000000000000000800000000000,
000000000000000000000000000000000000000000000000,
700000000000000000000000000000000000800000000000,
000000000000000000000000000000000000000000000000,
700000000000000000000000000000000000000000000000,
000000000000000000000000800000000000000000000000,
500000000000000000000000000000000008000000000000,
500000000000000000000000000000000008000000000000,
700000000000000000000000000000000000000000000000,
000000000000000000000000000000000000000000000000,
800000000000000000000000000000000000000000000000,
300000000000300000000000300000000000000000000000,
#GOGOSTART
100000000000100000100000100000000000200000000000,
000000000000200000000000200000000000200000000000,
100000000000100000100000100000000000200000000000,
000000000000200000000000200000000000000000000000,
100000000000100000100000100000000000200000000000,
000000000000200000000000200000000000200000000000,
100000000000100000100000100000000000200000000000,
700000000000000000000000000000000000800000000000,
100000000000100000100000100000000000200000000000,
000000000000200000000000200000200000200000000000,
100000000000100000100000100000000000200000000000,
000000000000200000000000200000000000000000000000,
100000000000100000100000100000000000200000000000,
000000000000200000000000200000200000200000000000,
100000000000100000100000100000000000200000000000,
700000000000000000000000000000000000800000000000,
300000000000000000300000000000000000000000000000,
100000100000100000100000300000000000000000000000,
#E
#MEASURE 4/4
100000000000000000100000000000000000100000000000,
100000000000100000100000000000300000300000000000,
100000000000000000100000000000000000100000000000,
100000000000100000100000000000300000300000000000,
100000000000000000000000000000000000000000000000,
500000000000000000000000000000000008000000000000,
100100000000000000100100000000000000100000000000,
100000000000100000000000300000000000000000000000,
100000000000000000100000000000000000100000000000,
000000100000100000000000100000100100100000000000,
100000000000000000100000000000000000100000000000,
000000100000100000000000100100100000100000000000,
100000000000000000100000000000000000100000000000,
000000100000100000000000100000100100100000000000,
100000000000000000100000000000000000100000000000,
300000000000000000000000300000000000000000000000,
100000000000000000100000000000000000100000000000,
000000100000100000000000100000100100200000000000,
100000000000000000100000000000000000100000000000,
000000100000100000000000100100100100100000000000,
100000000000000000100000000000000000100000000000,
000000100000100000000000100000100100200000000000,
100000000000000000100000000000000000100000000000,
300000000000000000000000300000000000000000000000,
300000000000000000000000000000000000000000000000,
200000000200000000000000200000000200000000000000,
300000000000000000000000000000000000000000000000,
700000000000000000000000000000000000800000000000,
100000000100000000000000200000000200000000000000,
100000000100000000000000100000000100000000000000,
400000000000000000000000000000000000000000000000,
400000000000000000000000000000000000000000000000,
100000000000100000000000100000000000200000000000,
100000000000100000000000100000000000200000000000,
100000000000000000000000100000000000000000000000,
100000000000100000000000300000000000000000000000,
#GOGOSTART
100000000000000000100000000000000000100000000000,
000000100000100000000000100000100100100000000000,
100000000000000000100000000000000000100000000000,
000000100000100000000000100100100000100000000000,
100000000000000000100000000000000000100000000000,
000000100000100000000000100000100100100000000000,
100000000000000000100000000000000000100000000000,
300000000000000000000000300000000000000000000000,
100000000000000000100000000000000000100000000000,
000000100000100000000000100000100100200000000000,
100000000000000000100000000000000000100000000000,
000000100000100000000000100100100100100000000000,
100000000000000000100000000000000000100000000000,
000000100000100000000000100000100100200000000000,
100000000000000000100000000000000000100000000000,
300000000000000000000000300000000000000000000000,
100000000000000000100000000000000000100000000000,
100000000000100000000000300000000000000000000000,
#M
#MEASURE 4/4
200000000000200000000000200000200000200000000000,
200000000000200000200000000000400000400000000000,
200000000000200000000000200000200000200000000000,
200000000000200000200000000000400000400000000000,
100000000100000000100000000000000000300000000000,
700000000000000000000000000000000000800000000000,
500000000000000000000000000000000008000000000000,
100000100000100000000000100000000000400000000000,
100000000000200000100000000000100000200000000000,
100000000000200000100000000000200000200000000000,
100000000000200000100000000000100000200000000000,
100000000000200000100000000000100000100000000000,
100000000000200000100000000000100000200000000000,
100000000000200000100000000000200000200000000000,
100000000000200000100000000000100000200000000000,
300000000000400000000000300000000000400000000000,
100000000000100000200000000000200000000000200000,
100000000000100000200000000000200000100000000000,
300000000000100000200000000000200000000000200000,
100000000000100000200000000000100000100000100000,
100000000000100000200000000000200000000000200000,
100000000000100000200000000000200000100000000000,
300000000000100000200000000000200000000000200000,
300000000000400000000000300000000000400000000000,
700000000000000000000000000000000000800000000000,
100000000000000000200000100000000000000000200000,
500000000000000000000000000000000008000000000000,
000000200000000000200000000000200000000000200000,
100000000100000000000000100000000100000000000000,
100000000100000000000000100000000100000000000000,
500000000000000000000000000000000008000000000000,
500000000000000000000000000000000008000000000000,
700000000000000000000000000000000000000000000000,
000000000000000000000000000000000000000000000000,
800000000000000000000000000000000000000000000000,
300000000000400000000000300000000000400000000000,
#GOGOSTART
100000000000200000100000000000100000200000000000,
100000000000200000100000000000200000200000000000,
100000000000200000100000000000100000200000000000,
100000000000200000100000000000100000100000000000,
100000000000200000100000000000100000200000000000,
100000000000200000100000000000200000200000000000,
100000000000200000100000000000100000200000000000,
300000000000400000000000300000000000400000000000,
100000000000100000200000000000200000000000200000,
100000000000100000200000000000200000100000000000,
300000000000100000200000000000200000000000200000,
100000000000100000200000000000100000100000100000,
100000000000100000200000000000200000000000200000,
100000000000100000200000000000200000100000000000,
300000000000100000200000000000200000000000200000,
300000000000400000000000300000000000400000000000,
700000000000000000000000000000000000800000000000,
100000100000100000000000400000000000000000000000,
#BRANCHEND
#GOGOEND
#END

COURSE:Easy
LEVEL:4
BALLOON:9,5,5,5,5,30,5,5,5,5,5,30,5,5,30,5
SCOREINIT:830
SCOREDIFF:400
#START
#MEASURE 5/4
600000008000000000000000000000000000000000000000000000000000,
#SECTION
#BRANCHSTART r,1,2
#N
#MEASURE 4/4
300000000000000000000000000000000000000000000000,
300000000000000000000000000000000000000000000000,
300000000000000000000000000000000000000000000000,
300000000000000000000000000000000000000000000000,
000000000000000000000000700000000000000000000000,
000000000000000000000000800000000000000000000000,
100000000000000000100000000000000000000000000000,
300000000000300000000000300000000000000000000000,
100000000000000000000000100000000000000000000000,
100000000000100000000000100000000000000000000000,
100000000000000000000000100000000000000000000000,
100000000000100000000000100000000000000000000000,
100000000000000000000000100000000000000000000000,
100000000000100000000000100000000000000000000000,
100000000000000000000000100000000000000000000000,
700000000000000000000000000000000000800000000000,
100000000000000000000000200000000000000000000000,
100000000000100000000000100000000000000000000000,
100000000000000000000000200000000000000000000000,
100000000000100000000000100000000000000000000000,
100000000000000000000000200000000000000000000000,
100000000000100000000000100000000000000000000000,
100000000000000000000000200000000000000000000000,
200000000000000000000000200000000000000000000000,
700000000000000000000000000000000000800000000000,
000000000000000000000000000000000000000000000000,
700000000000000000000000000000000000800000000000,
000000000000000000000000000000000000000000000000,
700000000000000000000000000000000000800000000000,
000000000000000000000000000000000000000000000000,
500000000000000000000000000000000008000000000000,
500000000000000000000000000000000008000000000000,
700000000000000000000000000000000000000000000000,
000000000000000000000000000000000000800000000000,
000000000000000000000000000000000000000000000000,
100000000000100000000000100000000000000000000000,
#GOGOSTART
100000000000000000000000200000000000000000000000,
100000000000100000000000100000000000000000000000,
100000000000000000000000200000000000000000000000,
100000000000100000000000100000000000000000000000,
100000000000000000000000200000000000000000000000,
100000000000100000000000100000000000000000000000,
100000000000000000000000200000000000000000000000,
700000000000000000000000000000000000800000000000,
100000000000000000000000200000000000000000000000,
100000000000100000000000200000000000000000000000,
100000000000000000000000200000000000000000000000,
100000000000100000000000200000000000000000000000,
100000000000000000000000200000000000000000000000,
100000000000100000000000200000000000000000000000,
100000000000000000000000200000000000000000000000,
700000000000000000000000000000000000800000000000,
300000000000000000300000000000000000000000000000,
100000000000100000000000300000000000000000000000,
#E
#MEASURE 4/4
100000000000000000000000000000000000000000000000,
100000000000000000000000000000300000300000000000,
100000000000000000000000000000000000000000000000,
100000000000000000000000000000300000300000000000,
100000000000000000000000000000000000000000000000,
500000000000000000000000000000000008000000000000,
100000000000000000100000000000000000100000000000,
100000000000100000000000300000000000000000000000,
100000000000000000100000000000000000100000000000,
000000000000100000000000100000000000000000000000,
100000000000000000100000000000000000100000000000,
000000000000200000000000200000000000000000000000,
100000000000000000100000000000000000100000000000,
000000000000100000000000100000000000000000000000,
100000000000000000100000000000000000100000000000,
300000000000000000000000000000000000000000000000,
100000000000000000100000000000000000100000000000,
000000000000100000100000100000000000000000000000,
100000000000000000100000000000000000100000000000,
000000000000200000200000200000000000000000000000,
100000000000000000100000000000000000100000000000,
000000000000100000100000100000000000000000000000,
100000000000000000100000000000000000100000000000,
300000000000000000000000300000000000000000000000,
000000000000000000000000000000000000000000000000,
200000000000000000000000200000000000000000000000,
300000000000000000000000000000000000000000000000,
500000000000000000000000000000000008000000000000,
000000000000000000000000200000000200000000000000,
000000000000000000000000200000000200000000000000,
200000000000000000000000000000000000000000000000,
200000000000000000000000000000000000000000000000,
700000000000000000000000000000000000000000000000,
000000000000000000000000000000000800000000000000,
100000000000000000000000100000000000000000000000,
100000000000100000000000300000000000000000000000,
#GOGOSTART
100000000000000000100000000000000000100000000000,
000000000000100000000000100000000000000000000000,
100000000000000000100000000000000000100000000000,
000000000000200000000000200000000000000000000000,
100000000000000000100000000000000000100000000000,
000000000000100000000000100000000000000000000000,
100000000000000000100000000000000000100000000000,
300000000000000000000000300000000000000000000000,
100000000000000000100000000000000000100000000000,
000000000000100000100000100000000000000000000000,
100000000000000000100000000000000000100000000000,
000000000000200000200000200000000000000000000000,
100000000000000000100000000000000000100000000000,
000000000000100000100000100000000000000000000000,
100000000000000000100000000000000000100000000000,
300000000000000000000000300000000000000000000000,
300000000000000000000000000000000000000000000000,
100000000000100000000000300000000000000000000000,
#M
#MEASURE 4/4
200000000000200000000000200000000000200000000000,
200000000000200000000000000000400000400000000000,
200000000000200000000000200000000000200000000000,
200000000000200000000000000000400000400000000000,
100000000000000000000000100000000000100000000000,
700000000000000000000000000000000000800000000000,
500000000000000000000000000000000008000000000000,
100000000000100000000000100000000000400000000000,
100000000000200000200000000000000000200000000000,
100000000000200000200000000000000000000000000000,
100000000000200000200000000000000000200000000000,
100000000000200000200000000000000000000000000000,
100000000000200000200000000000000000200000000000,
100000000000200000200000000000000000000000000000,
100000000000200000200000000000000000200000000000,
300000000000400000000000300000000000400000000000,
100000000000200000200000000000200000000000000000,
100000000000200000200000000000200000000000000000,
100000000000200000200000000000200000000000000000,
100000000000200000200000000000000000000000000000,
100000000000200000200000000000200000000000000000,
100000000000200000200000000000200000000000000000,
100000000000200000200000000000200000000000000000,
300000000000400000000000300000000000400000000000,
700000000000000000000000000000000000800000000000,
100000000000000000100000100000000000000000100000,
500000000000000000000000000000000008000000000000,
000000200000000000000000000000200000000000000000,
700000000000000000000000000000000008000000000000,
000000000000000000000000000000000000000000000000,
500000000000000000000000000000000008000000000000,
500000000000000000000000000000000008000000000000,
700000000000000000000000000000000000000000000000,
000000000000000000000000000000000000800000000000,
700000000000000000000000000000000000800000000000,
300000000000400000000000300000000000400000000000,
#GOGOSTART
100000000000200000000000100000000000200000000000,
100000000000200000200000000000000000000000000000,
100000000000200000000000100000000000200000000000,
100000000000200000200000000000000000000000000000,
100000000000200000000000100000000000200000000000,
100000000000200000200000000000000000000000000000,
100000000000200000000000100000000000200000000000,
300000000000400000000000300000000000400000000000,
100000000000200000000000100000000000200000000000,
100000000000200000200000000000200000000000000000,
100000000000200000000000100000000000200000000000,
100000000000200000200000000000200000000000000000,
100000000000200000000000100000000000200000000000,
100000000000200000200000000000200000000000000000,
100000000000200000000000100000000000200000000000,
300000000000400000000000300000000000400000000000,
700000000000000000000000000000000000800000000000,
300000000000000000000000400000000000000000000000,
#BRANCHEND
#GOGOEND
#END
