//TJADB Project
TITLE:Natsu Matsuri -New Audio-
TITLEJA:夏祭り
SUBTITLE:--Whiteberry/Mysterious Story & ReLIFE
BPM:140.39
WAVE:Natsu Matsuri -New Audio-.ogg
OFFSET:-1.805
DEMOSTART:57.947

COURSE:Oni
LEVEL:6
STYLE:Double
BALLOON:9,9
SCOREINIT:620
SCOREDIFF:160
#START P1
,
,
,
#BPMCHANGE 140.98
1,
#BPMCHANGE 140.27
11,
#BPMCHANGE 142.32
1,
#BPMCHANGE 141.01
1,
11,
1011,
11,
1,
3,
#BPMCHANGE 142.84
3,
#BPMCHANGE 141
1110111011102220,
1110111011102220,
1110111011102220,
1110111010001010,
12111011,
1001101022201110,
12111011,
1001101022201110,
1022102210221020,
70008011,
1022102210221020,
70008011,
12111011,
1001101022201110,
12111011,
1001101022201110,
1022102210221020,
50080011,
1022102210221020,
5000008011101011,
#GOGOSTART
10101011,
1000100010201110,
1011102010221020,
50085008,
10101011,
1000100010201110,
33,
3,
#GOGOEND
1110111011102220,
1110111011102220,
1110111010000000,
1001101011102020,
1001101011102020,
1001101011102020,
1001101011102020,
1001102011102022,
1001102011101110,
1001102011102022,
1001102011101110,
1001101011102020,
1001101011102020,
1001101011102020,
1001101011102020,
1001102011102022,
1001102011102022,
1001102011102020,
5000008011101011,
#GOGOSTART
1000100010111020,
1020101110111020,
1020101110111020,
50085008,
1000102010111020,
1020101110111020,
30223022,
3,
#GOGOEND
1110111011111020,
1110111011111020,
1110111011111020,
3,
#END
#START P2
,
,
,
#BPMCHANGE 140.98
1,
#BPMCHANGE 140.27
11,
#BPMCHANGE 142.32
1,
#BPMCHANGE 141.01
1,
11,
1011,
11,
1,
3,
#BPMCHANGE 142.84
3,
#BPMCHANGE 141
1110111011102220,
1110111011102220,
1110111011102220,
1110111010000000,
1001101011102020,
1001101011102020,
1001101011102020,
1001101011102020,
1001102011102022,
1001102011101110,
1001102011102022,
1001102011101110,
1001101011102020,
1001101011102020,
1001101011102020,
1001101011102020,
1001102011102022,
1001102011102022,
1001102011102020,
5000008011101011,
#GOGOSTART
10101011,
1000100010201110,
1011102010221020,
50085008,
10101011,
1000100010201110,
33,
3,
#GOGOEND
1110111011102220,
1110111011102220,
1110111010001010,
12111011,
1001101022201110,
12111011,
1001101022201110,
1022102210221020,
70008011,
1022102210221020,
70008011,
12111011,
1001101022201110,
12111011,
1001101022201110,
1022102210221020,
50080011,
1022102210221020,
5000008011101011,
#GOGOSTART
1000100010111020,
1020101110111020,
1020101110111020,
50085008,
1000102010111020,
1020101110111020,
30223022,
3,
#GOGOEND
1110111011111020,
1110111011111020,
1110111011111020,
3,
#END
STYLE:Single
BALLOON:9,9
SCOREINIT:620
SCOREDIFF:160
#START
,
,
,
#BPMCHANGE 140.98
1,
#BPMCHANGE 140.27
11,
#BPMCHANGE 142.32
1,
#BPMCHANGE 141.01
1,
11,
1011,
11,
1,
3,
#BPMCHANGE 142.84
3,
#BPMCHANGE 141
1110111011102220,
1110111011102220,
1110111011102220,
1110111010001010,
12111011,
1001101022201110,
12111011,
1001101022201110,
1022102210221020,
7000000800001010,
1022102210221020,
7000000800001010,
12111011,
1001101022201110,
12111011,
1001101022201110,
1022102210221020,
500000000000000008000000000000000000100000100000,
1022102210221020,
500000000000000008000000100100100000100000100100,
#GOGOSTART
10101011,
1000100010201110,
1011102010221020,
500000000000000008000000500000000000000008000000,
10101011,
1000100010201110,
33,
3,
#GOGOEND
1110111011102220,
1110111011102220,
1110111010000000,
1001101011102020,
1001101011102020,
1001101011102020,
1001101011102020,
1001102011102022,
1001102011101110,
1001102011102022,
1001102011101110,
1001101011102020,
1001101011102020,
1001101011102020,
1001101011102020,
1001102011102022,
1001102011102022,
1001102011102020,
500000000000000008000000100100100000100000100100,
#GOGOSTART
1000100010111020,
1020101110111020,
1020101110111020,
500000000000000008000000500000000000000008000000,
1000102010111020,
1020101110111020,
30223022,
3,
#GOGOEND
1110111011111020,
1110111011111020,
1110111011111020,
3,
#END

COURSE:Hard
LEVEL:6
STYLE:Single
BALLOON:8,8
SCOREINIT:640
SCOREDIFF:178
#START
#BPMCHANGE 141
,
,
,
1,
11,
1,
1,
11,
1011,
11,
1,
3,
3,
1110111011102000,
1110111011102000,
1110111011102000,
1110111010001010,
10111011,
1001101020001010,
10111011,
1001101020001010,
10101011,
70008011,
10101011,
70008011,
10111011,
1001101020001010,
10111011,
1001101020001010,
10101011,
50080011,
10101011,
5000008011101011,
#GOGOSTART
10101011,
1000100010201110,
10101011,
50085008,
10101011,
1000100010201110,
33,
3,
#GOGOEND
1110111011102000,
1110111011102000,
1110111010000000,
1001101010102000,
1001101010102000,
1001101010102000,
1001101010102000,
1001101011101010,
1001101011101110,
1001101011101010,
1001101011101110,
1001101010102000,
1001101010102000,
1001101010102000,
1001101010102000,
1001101011101010,
1001101011101110,
1001101011101010,
5000008011101011,
#GOGOSTART
10101011,
1000100010201110,
10101011,
50085008,
10101011,
1000100010201110,
33,
3,
#GOGOEND
1110111011102220,
1110111011102220,
1110111010000000,
3,
#END
STYLE:Double
BALLOON:8,8
#START P1
#BPMCHANGE 141
,
,
,
1,
11,
1,
1,
11,
1011,
11,
1,
3,
3,
1110111011102000,
1110111011102000,
1110111011102000,
1110111010001010,
10111011,
1001101020001010,
10111011,
1001101020001010,
10101011,
70008011,
10101011,
70008011,
10111011,
1001101020001010,
10111011,
1001101020001010,
10101011,
50080011,
10101011,
5000008011101011,
#GOGOSTART
10101011,
1000100010201110,
10101011,
50085008,
10101011,
1000100010201110,
33,
3,
#GOGOEND
1110111011102000,
1110111011102000,
1110111010000000,
1001101010102000,
1001101010102000,
1001101010102000,
1001101010102000,
1001101011101010,
1001101011101110,
1001101011101010,
1001101011101110,
1001101010102000,
1001101010102000,
1001101010102000,
1001101010102000,
1001101011101010,
1001101011101110,
1001101011101010,
5000008011101011,
#GOGOSTART
10101011,
1000100010201110,
10101011,
50085008,
10101011,
1000100010201110,
33,
3,
#GOGOEND
1110111011102220,
1110111011102220,
1110111010000000,
3,
,
,
,
#END
BALLOON:8,8
#START P2
#BPMCHANGE 141
,
,
,
1,
11,
1,
1,
11,
1011,
11,
1,
3,
3,
1110111011102000,
1110111011102000,
1110111011102000,
1110111010000000,
1001101010102000,
1001101010102000,
1001101010102000,
1001101010102000,
1001101011101010,
1001101011101110,
1001101011101010,
1001101011101110,
1001101010102000,
1001101010102000,
1001101010102000,
1001101010102000,
1001101011101010,
1001101011101110,
1001101011101010,
5000008011101011,
#GOGOSTART
10101011,
1000100010201110,
10101011,
50085008,
10101011,
1000100010201110,
33,
3,
#GOGOEND
1110111011102000,
1110111011102000,
1110111010001010,
10111011,
1001101020001010,
10111011,
1001101020001010,
10101011,
70008011,
10101011,
70008011,
10111011,
1001101020001010,
10111011,
1001101020001010,
10101011,
50080011,
10101011,
5000008011101011,
#GOGOSTART
10101011,
1000100010201110,
10101011,
50085008,
10101011,
1000100010201110,
33,
3,
#GOGOEND
1110111011102220,
1110111011102220,
1110111010000000,
3,
,
#END

COURSE:Normal
LEVEL:2
STYLE:Single
BALLOON:5,5
SCOREINIT:800
SCOREDIFF:290
#START
#BPMCHANGE 141
0,
0,
0,
1,
11,
1,
1,
11,
1011,
11,
1,
3,
3,
1011,
1011,
1011,
1001,
1110,
10111000,
1110,
10111000,
11,
70008011,
11,
70008011,
1110,
10111000,
1110,
10111000,
11,
50008011,
11,
50008000,
#GOGOSTART
10001011,
10000011,
10001011,
50085008,
10001011,
10000011,
3,
3,
#GOGOEND
1011,
1011,
1120,
11101010,
0110,
11101010,
0110,
1100,
10111000,
1100,
10111000,
11101010,
0110,
11101010,
0110,
1100,
10111000,
1100,
58,
#GOGOSTART
10001011,
10000011,
10001011,
50085008,
10001011,
10000011,
3,
3,
#GOGOEND
1011,
1011,
0,
3,
#END
STYLE:Double
BALLOON:5,5
#START P1
#BPMCHANGE 141
0,
0,
0,
1,
11,
1,
1,
11,
1011,
11,
1,
3,
3,
1011,
1011,
1011,
1001,
1110,
10111000,
1110,
10111000,
11,
70008011,
11,
70008011,
1110,
10111000,
1110,
10111000,
11,
50008011,
11,
50008000,
#GOGOSTART
10001011,
10000011,
10001011,
50085008,
10001011,
10000011,
3,
3,
#GOGOEND
1011,
1011,
1120,
11101010,
0110,
11101010,
0110,
1100,
10111000,
1100,
10111000,
11101010,
0110,
11101010,
0110,
1100,
10111000,
1100,
58,
#GOGOSTART
10001011,
10000011,
10001011,
50085008,
10001011,
10000011,
3,
3,
#GOGOEND
1011,
1011,
0,
3,
#END
BALLOON:5,5
#START P2
#BPMCHANGE 141
0,
0,
0,
1,
11,
1,
1,
11,
1011,
11,
1,
3,
3,
1011,
1011,
1011,
1120,
11101010,
0110,
11101010,
0110,
1100,
10111000,
1100,
10111000,
11101010,
0110,
11101010,
0110,
1100,
10111000,
1100,
58,
#GOGOSTART
10001011,
10000011,
10001011,
50085008,
10001011,
10000011,
3,
3,
#GOGOEND
1011,
1011,
1001,
1110,
10111000,
1110,
10111000,
11,
70008011,
11,
70008011,
1110,
10111000,
1110,
10111000,
11,
50008011,
11,
50008000,
#GOGOSTART
10001011,
10000011,
10001011,
50085008,
10001011,
10000011,
3,
3,
#GOGOEND
1011,
1011,
0,
3,
#END

COURSE:Easy
LEVEL:3
BALLOON:4,4,4,4,6
SCOREINIT:740
SCOREDIFF:283
#START
#BPMCHANGE 141
0,
0,
0,
1,
11,
1,
1,
11,
1011,
11,
1,
3,
3,
11,
11,
11,
1,
11,
1110,
11,
1110,
1110,
7008,
1110,
7008,
11,
1110,
11,
1110,
11,
5000000800000000,
11,
5000000800000000,
#GOGOSTART
1110,
1120,
1110,
5000080005000080,
1110,
1120,
33,
3,
#GOGOEND
1011,
1011,
12,
11,
1110,
11,
1110,
1110,
7008,
1110,
7008,
11,
1110,
11,
1110,
11,
5000000800000000,
11,
58,
#GOGOSTART
1110,
1120,
1110,
5000080005000080,
1110,
1120,
33,
7,
#GOGOEND
08,
1011,
13,
3,
0,
#END
