//TJADB Project
TITLE:Nijiiro Yumeiro Taikoiro -New Audio/Chart-
TITLEJA:虹色・夢色・太鼓色
SUBTITLE:--Go Shiina feat. Yoko Takahashi
SUBTITLEJA:新音源・譜面
BPM:136
WAVE:Nijiiro Yumeiro Taikoiro.ogg
OFFSET:-2.426
DEMOSTART:72.963 //Shinuchi:
7830/5370/3570/2560/1740

COURSE:Edit
LEVEL:8
BALLOON:
SCOREINIT:550,1740
SCOREDIFF:150
#START
1001101020102022,
1001101012112010,
1001101010102022,
1102202111112000, //4
#GOGOSTART
1101201100112020,
1101201100112010,
#BPMCHANGE 136.34
#SCROLL 0.99
1000221011021111,
0040000011111202, //8
#BPMCHANGE 135.31
#SCROLL 1
2000200110112020,
1101201211202211,
#BPMCHANGE 136.35
#SCROLL 0.99
1222122210221122,
500000000000000000000000000000000008000000000000, //12
#GOGOEND
#BPMCHANGE 136
#SCROLL 1
10202222,
#BPMCHANGE 134.52
#SCROLL 1.01
02222220,
#BPMCHANGE 136.62
#SCROLL 0.99
10202222,
0020002000000022,//16
#BPMCHANGE 135.8
#SCROLL 1
10202222,
02222220,
#BPMCHANGE 136.33
#SCROLL 0.99
10202222,
02202020, //20
#BPMCHANGE 136.19
1101201020202022,
1101201012211212,
1101201020202022,
1021011011011022, //24
#BPMCHANGE 136.46
1101201020202022,
1021012011201110,
#BPMCHANGE 135.45
#SCROLL 1
1101201020202022,
#BPMCHANGE 136.07
#SCROLL 0.99
1101201101102211, //28
#BPMCHANGE 132.61
#SCROLL 1.02
1,
#BPMCHANGE 139.75
#SCROLL 0.97
3000221212212212,
#BPMCHANGE 136.08
#SCROLL 0.99
100200100100500000000000000000000008000000000000,
#BPMCHANGE 134.58
#SCROLL 1.01
400000000000222222222200, //32
#BPMCHANGE 135.53
#SCROLL 1
1110101022202020,
#BPMCHANGE 135.78
1110101110210212,
#BPMCHANGE 136.7
#SCROLL 0.99
1102022012221121,
#BPMCHANGE 136
#SCROLL 1
2212021202112220, //36
100000101010101010100000200000200200000000000000,
1001001020020020,
10012211,
#BPMCHANGE 137.78
#SCROLL 0.99
200200100000100000200200101010101010200000000000, //40
#BPMCHANGE 135.41
#SCROLL 1
#GOGOSTART
3010110102112020,
3010110102112110,
#BPMCHANGE 135.8
100100100100500000000008000000400000400000300000,
0010222010101020, //44
1012012020111022,
#BPMCHANGE 136
#SCROLL 0.99
1022112010400040,
1021022102112020,
1221012212204000, //48
#BPMCHANGE 135.43
#SCROLL 1
1000200020020020,
#BPMCHANGE 136.58
#SCROLL 0.99
1000221122212222,
#BPMCHANGE 135.52
#SCROLL 1
1000200020020020,
#BPMCHANGE 137.24
#SCROLL 0.99
2111221122204000, //52
#BPMCHANGE 135.26
#SCROLL 1
1011102212021222,
#BPMCHANGE 137.43
#SCROLL 0.98
1011212000102220,
#BPMCHANGE 134.6
#SCROLL 1.01
100000100000100000500000000000000000000008000000,
#BPMCHANGE 137.9
#SCROLL 0.98
1111100040040040, //56
#GOGOEND
#BPMCHANGE 135.23
#SCROLL 1
30220122,
2222,
#BPMCHANGE 136
11220122,
20202220, //60
11220122,
#BPMCHANGE 133.76
#SCROLL 1.01
20212122,
#BPMCHANGE 136.04
#SCROLL 0.99
11220122,
#BPMCHANGE 136.87
2010201022102000, //64
#BPMCHANGE 136
#SCROLL 1
0,
0,
0,
0, //68
#END

COURSE:Oni
LEVEL:6
STYLE:SINGLE
BALLOON:
SCOREINIT:740,2570
SCOREDIFF:215
#START
1001001020002000,
1001001022102000,
1001001020002000,
2210102210101000, //4
#GOGOSTART
1000201100102010,
1000201100102010,
#BPMCHANGE 136.34
#SCROLL 0.99
1000201102022020,
1000201102022020, //8
#BPMCHANGE 135.31
#SCROLL 1
1000201100102010,
1000201100102010,
#BPMCHANGE 136.35
#SCROLL 0.99
10200120,
10200120, //12
#GOGOEND
#BPMCHANGE 136
#SCROLL 1
10200220,
#BPMCHANGE 134.52
#SCROLL 1.01
00200220,
#BPMCHANGE 136.62
#SCROLL 0.99
10200220,
00200220, //16
#BPMCHANGE 135.8
#SCROLL 1
10200220,
00200220,
#BPMCHANGE 136.33
#SCROLL 0.99
10200220,
00200220, //20
#BPMCHANGE 136.19
1001101001102011,
1001101001102022,
1001101001102011,
1001101001102022, //24
#BPMCHANGE 136.46
1001101001102011,
1001101001101111,
#BPMCHANGE 135.45
#SCROLL 1
1001101001102011,
#BPMCHANGE 136.07
#SCROLL 0.99
1001101001101111, //28
#BPMCHANGE 132.61
#SCROLL 1.02
10200202,
#BPMCHANGE 139.75
#SCROLL 0.97
1000200010010011,
#BPMCHANGE 136.08
#SCROLL 0.99
10200202,
#BPMCHANGE 134.58
#SCROLL 1.01
10202120, //32
#BPMCHANGE 135.53
#SCROLL 1
1010200110101000,
#BPMCHANGE 135.78
1010200110101000,
#BPMCHANGE 136.7
#SCROLL 0.99
1010200220202000,
#BPMCHANGE 136
#SCROLL 1
1010200220202000, //36
1001001020002000,
1001001020102000,
1001001020002000,
#BPMCHANGE 137.78
#SCROLL 0.99
2210102210101000, //40
#BPMCHANGE 135.41
#SCROLL 1
#GOGOSTART
1010110100202000,
1010110100202000,
#BPMCHANGE 135.8
1010200100102010,
0010200010102022, //44
1010200110102022,
#BPMCHANGE 136
#SCROLL 0.99
11220404,
1011010102202000,
1011010102202000, //48
#BPMCHANGE 135.43
#SCROLL 1
1000001020020020,
#BPMCHANGE 136.58
#SCROLL 0.99
1000001022202210,
#BPMCHANGE 135.52
#SCROLL 1
1000001020020020,
#BPMCHANGE 137.24
#SCROLL 0.99
1000001022202210, //52
#BPMCHANGE 135.26
#SCROLL 1
1010200110102001,
#BPMCHANGE 137.43
#SCROLL 0.98
11210220,
#BPMCHANGE 134.6
#SCROLL 1.01
1010200110102010,
#BPMCHANGE 137.9
#SCROLL 0.98
1111100000001000, //56
#GOGOEND
#BPMCHANGE 135.23
#SCROLL 1
1202,
00200120,
#BPMCHANGE 136
1202,
00202120, //60
1202,
#BPMCHANGE 133.76
#SCROLL 1.01
00200120,
#BPMCHANGE 136.04
#SCROLL 0.99
1202,
#BPMCHANGE 136.87
0222, //64
#BPMCHANGE 136
#SCROLL 1
0,
0,
0,
0, //68
#END
STYLE:DOUBLE
BALLOON:
SCOREINIT:740,2570
SCOREDIFF:215
#START P1
1001001020002000,
1001001022102000,
1001001020002000,
2210102210101000, //4
#GOGOSTART
1000201100102010,
1000201100102010,
#BPMCHANGE 136.34
#SCROLL 0.99
1000201102022020,
1000201102022020, //8
#BPMCHANGE 135.31
#SCROLL 1
1000201100102010,
1000201100102010,
#BPMCHANGE 136.35
#SCROLL 0.99
10200120,
10200120, //12
#GOGOEND
#BPMCHANGE 136
#SCROLL 1
10200220,
#BPMCHANGE 134.52
#SCROLL 1.01
00200220,
#BPMCHANGE 136.62
#SCROLL 0.99
10200220,
00200220, //16
#BPMCHANGE 135.8
#SCROLL 1
10200220,
00200220,
#BPMCHANGE 136.33
#SCROLL 0.99
10200220,
00200220, //20
#BPMCHANGE 136.19
1001101001102011,
1001101001102022,
1001101001102011,
1001101001102022, //24
#BPMCHANGE 136.46
1001101001102011,
1001101001101111,
#BPMCHANGE 135.45
#SCROLL 1
1001101001102011,
#BPMCHANGE 136.07
#SCROLL 0.99
1001101001101111, //28
#BPMCHANGE 132.61
#SCROLL 1.02
10200202,
#BPMCHANGE 139.75
#SCROLL 0.97
1000200010010011,
#BPMCHANGE 136.08
#SCROLL 0.99
10200202,
#BPMCHANGE 134.58
#SCROLL 1.01
10202120, //32
#BPMCHANGE 135.53
#SCROLL 1
1010200110101000,
#BPMCHANGE 135.78
1010200110101000,
#BPMCHANGE 136.7
#SCROLL 0.99
1010200220202000,
#BPMCHANGE 136
#SCROLL 1
1010200220202000, //36
1001001020002000,
1001001020102000,
1001001020002000,
#BPMCHANGE 137.78
#SCROLL 0.99
2210102210101000, //40
#BPMCHANGE 135.41
#SCROLL 1
#GOGOSTART
1010110100202000,
1010110100202000,
#BPMCHANGE 135.8
1010200100102010,
0010200010102022, //44
1010200110102022,
#BPMCHANGE 136
#SCROLL 0.99
11220404,
1011010102202000,
1011010102202000, //48
#BPMCHANGE 135.43
#SCROLL 1
1000001020020020,
#BPMCHANGE 136.58
#SCROLL 0.99
1000001022202210,
#BPMCHANGE 135.52
#SCROLL 1
1000001020020020,
#BPMCHANGE 137.24
#SCROLL 0.99
1000001022202210, //52
#BPMCHANGE 135.26
#SCROLL 1
1010200110102001,
#BPMCHANGE 137.43
#SCROLL 0.98
11210220,
#BPMCHANGE 134.6
#SCROLL 1.01
1010200110102010,
#BPMCHANGE 137.9
#SCROLL 0.98
1111100000001000, //56
#GOGOEND
#BPMCHANGE 135.23
#SCROLL 1
1202,
00200120,
#BPMCHANGE 136
1202,
00202120, //60
1202,
#BPMCHANGE 133.76
#SCROLL 1.01
00200120,
#BPMCHANGE 136.04
#SCROLL 0.99
1202,
#BPMCHANGE 136.87
0222, //64
#BPMCHANGE 136
#SCROLL 1
0,
0,
0,
0, //68
#END
BALLOON:
SCOREINIT:740,2570
SCOREDIFF:215
#START P2
1001001020002000,
1001001022102000,
1001001020002000,
2210102210101000, //4
#GOGOSTART
1000201100102010,
1000201100102010,
#BPMCHANGE 136.34
#SCROLL 0.99
1000201102022020,
1000201102022020, //8
#BPMCHANGE 135.31
#SCROLL 1
1000201100102010,
1000201100102010,
#BPMCHANGE 136.35
#SCROLL 0.99
10200120,
10200120, //12
#GOGOEND
#BPMCHANGE 136
#SCROLL 1
10200220,
#BPMCHANGE 134.52
#SCROLL 1.01
00200220,
#BPMCHANGE 136.62
#SCROLL 0.99
10200220,
00200220, //16
#BPMCHANGE 135.8
#SCROLL 1
10200220,
00200220,
#BPMCHANGE 136.33
#SCROLL 0.99
10200220,
00200220, //20
#BPMCHANGE 136.19
1001101001102011,
1001101001102022,
1001101001102011,
1001101001102022, //24
#BPMCHANGE 136.46
1001101001102011,
1001101001101111,
#BPMCHANGE 135.45
#SCROLL 1
1001101001102011,
#BPMCHANGE 136.07
#SCROLL 0.99
1001101001101111, //28
#BPMCHANGE 132.61
#SCROLL 1.02
10200202,
#BPMCHANGE 139.75
#SCROLL 0.97
1000200010010011,
#BPMCHANGE 136.08
#SCROLL 0.99
10200202,
#BPMCHANGE 134.58
#SCROLL 1.01
10202120, //32
#BPMCHANGE 135.53
#SCROLL 1
1010200220202000,
#BPMCHANGE 135.78
1010200220202000,
#BPMCHANGE 136.7
#SCROLL 0.99
1010200110101000,
#BPMCHANGE 136
#SCROLL 1
1010200110101000, //36
1001001020002000,
1001001020102000,
1001001020002000,
#BPMCHANGE 137.78
#SCROLL 0.99
2210102210101000, //40
#BPMCHANGE 135.41
#SCROLL 1
#GOGOSTART
1010110100202000,
1010110100202000,
#BPMCHANGE 135.8
1010200100102010,
0010200010102022, //44
1010200110102022,
#BPMCHANGE 136
#SCROLL 0.99
11220404,
1011010102202000,
1011010102202000, //48
#BPMCHANGE 135.43
#SCROLL 1
1000001020020020,
#BPMCHANGE 136.58
#SCROLL 0.99
1000001022202210,
#BPMCHANGE 135.52
#SCROLL 1
1000001020020020,
#BPMCHANGE 137.24
#SCROLL 0.99
1000001022202210, //52
#BPMCHANGE 135.26
#SCROLL 1
1010200110102001,
#BPMCHANGE 137.43
#SCROLL 0.98
11210220,
#BPMCHANGE 134.6
#SCROLL 1.01
1010200110102010,
#BPMCHANGE 137.9
#SCROLL 0.98
1111100000001000, //56
#GOGOEND
#BPMCHANGE 135.23
#SCROLL 1
1202,
00200120,
#BPMCHANGE 136
1202,
00202120, //60
1202,
#BPMCHANGE 133.76
#SCROLL 1.01
00200120,
#BPMCHANGE 136.04
#SCROLL 0.99
1202,
#BPMCHANGE 136.87
0222, //64
#BPMCHANGE 136
#SCROLL 1
0,
0,
0,
0, //68
#END

COURSE:Hard
LEVEL:4
STYLE:SINGLE
BALLOON:6,6
SCOREINIT:770,3770
SCOREDIFF:238
#START
1001001020002000,
1001001000002000,
1001001020002000,
7008, //4
#GOGOSTART
1000200100102000,
1000200100102000,
#BPMCHANGE 136.34
#SCROLL 0.99
1000200100102010,
1000200100102010, //8
#BPMCHANGE 135.31
#SCROLL 1
1000200100102000,
1000200100102000,
#BPMCHANGE 136.35
#SCROLL 0.99
10200220,
10200220, //12
#GOGOEND
#BPMCHANGE 136
#SCROLL 1
1202,
#BPMCHANGE 134.52
#SCROLL 1.01
0201,
#BPMCHANGE 136.62
#SCROLL 0.99
1202,
0201, //16
#BPMCHANGE 135.8
#SCROLL 1
1202,
0201,
#BPMCHANGE 136.33
#SCROLL 0.99
1202,
0201, //20
#BPMCHANGE 136.19
1001101000101000,
1001101000202000,
1001101000101000,
1001101000202000, //24
#BPMCHANGE 136.46
1001101000101000,
1001101000202000,
#BPMCHANGE 135.45
#SCROLL 1
1001101000101000,
#BPMCHANGE 136.07
#SCROLL 0.99
1001101000202000, //28
#BPMCHANGE 132.61
#SCROLL 1.02
3,
#BPMCHANGE 139.75
#SCROLL 0.97
4000000030030030,
#BPMCHANGE 136.08
#SCROLL 0.99
3,
#BPMCHANGE 134.58
#SCROLL 1.01
40002120, //32
#BPMCHANGE 135.53
#SCROLL 1
10201120,
#BPMCHANGE 135.78
10201120,
#BPMCHANGE 136.7
#SCROLL 0.99
11201020,
#BPMCHANGE 136
#SCROLL 1
11201020, //36
10022000,
10022010,
10022000,
#BPMCHANGE 137.78
#SCROLL 0.99
7008, //40
#BPMCHANGE 135.41
#SCROLL 1
#GOGOSTART
1010200100102000,
1010200100102000,
#BPMCHANGE 135.8
11200121,
00201122, //44
00201122,
#BPMCHANGE 136
#SCROLL 0.99
11220404,
1011010100202000,
1011010100202000, //48
#BPMCHANGE 135.43
#SCROLL 1
10012000,
#BPMCHANGE 136.58
#SCROLL 0.99
10022010,
#BPMCHANGE 135.52
#SCROLL 1
10012000,
#BPMCHANGE 137.24
#SCROLL 0.99
10022030, //52
#BPMCHANGE 135.26
#SCROLL 1
10201120,
#BPMCHANGE 137.43
#SCROLL 0.98
10210120,
#BPMCHANGE 134.6
#SCROLL 1.01
10201120,
#BPMCHANGE 137.9
#SCROLL 0.98
3300, //56
#GOGOEND
#BPMCHANGE 135.23
#SCROLL 1
1202,
00200120,
#BPMCHANGE 136
1202,
00200120, //60
1202,
#BPMCHANGE 133.76
#SCROLL 1.01
00200120,
#BPMCHANGE 136.04
#SCROLL 0.99
1202,
#BPMCHANGE 136.87
0222, //64
#BPMCHANGE 136
#SCROLL 1
0,
0,
0,
0, //68
#END
STYLE:DOUBLE
BALLOON:6,6
SCOREINIT:770,3770
SCOREDIFF:238
#START P1
1001001020002000,
1001001000002000,
1001001020002000,
7008, //4
#GOGOSTART
1000200100102000,
1000200100102000,
#BPMCHANGE 136.34
#SCROLL 0.99
1000200100102010,
1000200100102010, //8
#BPMCHANGE 135.31
#SCROLL 1
1000200100102000,
1000200100102000,
#BPMCHANGE 136.35
#SCROLL 0.99
10200220,
10200220, //12
#GOGOEND
#BPMCHANGE 136
#SCROLL 1
1202,
#BPMCHANGE 134.52
#SCROLL 1.01
0201,
#BPMCHANGE 136.62
#SCROLL 0.99
1202,
0201, //16
#BPMCHANGE 135.8
#SCROLL 1
1202,
0201,
#BPMCHANGE 136.33
#SCROLL 0.99
1202,
0201, //20
#BPMCHANGE 136.19
1001101000101000,
1001101000202000,
1001101000101000,
1001101000202000, //24
#BPMCHANGE 136.46
1001101000101000,
1001101000202000,
#BPMCHANGE 135.45
#SCROLL 1
1001101000101000,
#BPMCHANGE 136.07
#SCROLL 0.99
1001101000202000, //28
#BPMCHANGE 132.61
#SCROLL 1.02
3,
#BPMCHANGE 139.75
#SCROLL 0.97
4000000030030030,
#BPMCHANGE 136.08
#SCROLL 0.99
3,
#BPMCHANGE 134.58
#SCROLL 1.01
40002120, //32
#BPMCHANGE 135.53
#SCROLL 1
10201120,
#BPMCHANGE 135.78
10201120,
#BPMCHANGE 136.7
#SCROLL 0.99
11201020,
#BPMCHANGE 136
#SCROLL 1
11201020, //36
10022000,
10022010,
10022000,
#BPMCHANGE 137.78
#SCROLL 0.99
7008, //40
#BPMCHANGE 135.41
#SCROLL 1
#GOGOSTART
1010200100102000,
1010200100102000,
#BPMCHANGE 135.8
11200121,
00201122, //44
00201122,
#BPMCHANGE 136
#SCROLL 0.99
11220404,
1011010100202000,
1011010100202000, //48
#BPMCHANGE 135.43
#SCROLL 1
10012000,
#BPMCHANGE 136.58
#SCROLL 0.99
10022010,
#BPMCHANGE 135.52
#SCROLL 1
10012000,
#BPMCHANGE 137.24
#SCROLL 0.99
10022030, //52
#BPMCHANGE 135.26
#SCROLL 1
10201120,
#BPMCHANGE 137.43
#SCROLL 0.98
10210120,
#BPMCHANGE 134.6
#SCROLL 1.01
10201120,
#BPMCHANGE 137.9
#SCROLL 0.98
3300, //56
#GOGOEND
#BPMCHANGE 135.23
#SCROLL 1
1202,
00200120,
#BPMCHANGE 136
1202,
00200120, //60
1202,
#BPMCHANGE 133.76
#SCROLL 1.01
00200120,
#BPMCHANGE 136.04
#SCROLL 0.99
1202,
#BPMCHANGE 136.87
0222, //64
#BPMCHANGE 136
#SCROLL 1
0,
0,
0,
0, //68
#END
BALLOON:6,6
SCOREINIT:770,3770
SCOREDIFF:238
#START P2
1001001020002000,
1001001000002000,
1001001020002000,
7008, //4
#GOGOSTART
1000200100102000,
1000200100102000,
#BPMCHANGE 136.34
#SCROLL 0.99
1000200100102010,
1000200100102010, //8
#BPMCHANGE 135.31
#SCROLL 1
1000200100102000,
1000200100102000,
#BPMCHANGE 136.35
#SCROLL 0.99
10200220,
10200220, //12
#GOGOEND
#BPMCHANGE 136
#SCROLL 1
1202,
#BPMCHANGE 134.52
#SCROLL 1.01
0201,
#BPMCHANGE 136.62
#SCROLL 0.99
1202,
0201, //16
#BPMCHANGE 135.8
#SCROLL 1
1202,
0201,
#BPMCHANGE 136.33
#SCROLL 0.99
1202,
0201, //20
#BPMCHANGE 136.19
1001101000101000,
1001101000202000,
1001101000101000,
1001101000202000, //24
#BPMCHANGE 136.46
1001101000101000,
1001101000202000,
#BPMCHANGE 135.45
#SCROLL 1
1001101000101000,
#BPMCHANGE 136.07
#SCROLL 0.99
1001101000202000, //28
#BPMCHANGE 132.61
#SCROLL 1.02
3,
#BPMCHANGE 139.75
#SCROLL 0.97
4000000030030030,
#BPMCHANGE 136.08
#SCROLL 0.99
3,
#BPMCHANGE 134.58
#SCROLL 1.01
40002120, //32
#BPMCHANGE 135.53
#SCROLL 1
11201020,
#BPMCHANGE 135.78
11201020,
#BPMCHANGE 136.7
#SCROLL 0.99
10201120,
#BPMCHANGE 136
#SCROLL 1
10201120, //36
10022000,
10022010,
10022000,
#BPMCHANGE 137.78
#SCROLL 0.99
7008, //40
#BPMCHANGE 135.41
#SCROLL 1
#GOGOSTART
1010200100102000,
1010200100102000,
#BPMCHANGE 135.8
11200121,
00201122, //44
00201122,
#BPMCHANGE 136
#SCROLL 0.99
11220404,
1011010100202000,
1011010100202000, //48
#BPMCHANGE 135.43
#SCROLL 1
10012000,
#BPMCHANGE 136.58
#SCROLL 0.99
10022010,
#BPMCHANGE 135.52
#SCROLL 1
10012000,
#BPMCHANGE 137.24
#SCROLL 0.99
10022030, //52
#BPMCHANGE 135.26
#SCROLL 1
10201120,
#BPMCHANGE 137.43
#SCROLL 0.98
10210120,
#BPMCHANGE 134.6
#SCROLL 1.01
10201120,
#BPMCHANGE 137.9
#SCROLL 0.98
3300, //56
#GOGOEND
#BPMCHANGE 135.23
#SCROLL 1
1202,
00200120,
#BPMCHANGE 136
1202,
00200120, //60
1202,
#BPMCHANGE 133.76
#SCROLL 1.01
00200120,
#BPMCHANGE 136.04
#SCROLL 0.99
1202,
#BPMCHANGE 136.87
0222, //64
#BPMCHANGE 136
#SCROLL 1
0,
0,
0,
0, //68
#END

COURSE:Normal
LEVEL:5
STYLE:SINGLE
BALLOON:6,6,9
SCOREINIT:1000,5700
SCOREDIFF:370
#START
3022,
0,
3022,
7008, //4
#GOGOSTART
10200110,
10200110,
#BPMCHANGE 136.34
#SCROLL 0.99
10201110,
1200, //8
#BPMCHANGE 135.31
#SCROLL 1
10200110,
10200110,
#BPMCHANGE 136.35
#SCROLL 0.99
1202,
0202, //12
#GOGOEND
#BPMCHANGE 136
#SCROLL 1
1,
#BPMCHANGE 134.52
#SCROLL 1.01
2001,
#BPMCHANGE 136.62
#SCROLL 0.99
1,
2001, //16
#BPMCHANGE 135.8
#SCROLL 1
1,
2001,
#BPMCHANGE 136.33
#SCROLL 0.99
1,
2001, //20
#BPMCHANGE 136.19
10022000,
10111000,
10022000,
10111000, //24
#BPMCHANGE 136.46
10022000,
10111000,
#BPMCHANGE 135.45
#SCROLL 1
10022000,
#BPMCHANGE 136.07
#SCROLL 0.99
7008, //28
#BPMCHANGE 132.61
#SCROLL 1.02
3,
#BPMCHANGE 139.75
#SCROLL 0.97
500000000000000000000008000000000000000000000000,
#BPMCHANGE 136.08
#SCROLL 0.99
3,
#BPMCHANGE 134.58
#SCROLL 1.01
500000000000000000000008000000000000000000000000, //32
#BPMCHANGE 135.53
#SCROLL 1
10101110,
#BPMCHANGE 135.78
10101110,
#BPMCHANGE 136.7
#SCROLL 0.99
20202220,
#BPMCHANGE 136
#SCROLL 1
20202220, //36
10022000,
10022010,
10022000,
#BPMCHANGE 137.78
#SCROLL 0.99
3, //40
#BPMCHANGE 135.41
#SCROLL 1
#GOGOSTART
11100220,
11100220,
#BPMCHANGE 135.8
70000008,
0, //44
10101110,
#BPMCHANGE 136
#SCROLL 0.99
11110000,
10101110,
10101110, //48
#BPMCHANGE 135.43
#SCROLL 1
12,
#BPMCHANGE 136.58
#SCROLL 0.99
10022000,
#BPMCHANGE 135.52
#SCROLL 1
12,
#BPMCHANGE 137.24
#SCROLL 0.99
10022000, //52
#BPMCHANGE 135.26
#SCROLL 1
10101110,
#BPMCHANGE 137.43
#SCROLL 0.98
1102,
#BPMCHANGE 134.6
#SCROLL 1.01
10101110,
#BPMCHANGE 137.9
#SCROLL 0.98
3300, //56
#GOGOEND
#BPMCHANGE 135.23
#SCROLL 1
1202,
0200,
#BPMCHANGE 136
1202,
0200, //60
1202,
#BPMCHANGE 133.76
#SCROLL 1.01
0200,
#BPMCHANGE 136.04
#SCROLL 0.99
1202,
#BPMCHANGE 136.87
0222, //64
#BPMCHANGE 136
#SCROLL 1
0,
0,
0,
0, //68
#END
STYLE:DOUBLE
BALLOON:6,6,9
SCOREINIT:1000,5700
SCOREDIFF:370
#START P1
3022,
0,
3022,
7008, //4
#GOGOSTART
10200110,
10200110,
#BPMCHANGE 136.34
#SCROLL 0.99
10201110,
1200, //8
#BPMCHANGE 135.31
#SCROLL 1
10200110,
10200110,
#BPMCHANGE 136.35
#SCROLL 0.99
1202,
0202, //12
#GOGOEND
#BPMCHANGE 136
#SCROLL 1
1,
#BPMCHANGE 134.52
#SCROLL 1.01
2001,
#BPMCHANGE 136.62
#SCROLL 0.99
1,
2001, //16
#BPMCHANGE 135.8
#SCROLL 1
1,
2001,
#BPMCHANGE 136.33
#SCROLL 0.99
1,
2001, //20
#BPMCHANGE 136.19
10022000,
10111000,
10022000,
10111000, //24
#BPMCHANGE 136.46
10022000,
10111000,
#BPMCHANGE 135.45
#SCROLL 1
10022000,
#BPMCHANGE 136.07
#SCROLL 0.99
7008, //28
#BPMCHANGE 132.61
#SCROLL 1.02
3,
#BPMCHANGE 139.75
#SCROLL 0.97
500000000000000000000008000000000000000000000000,
#BPMCHANGE 136.08
#SCROLL 0.99
3,
#BPMCHANGE 134.58
#SCROLL 1.01
500000000000000000000008000000000000000000000000, //32
#BPMCHANGE 135.53
#SCROLL 1
10101110,
#BPMCHANGE 135.78
10101110,
#BPMCHANGE 136.7
#SCROLL 0.99
20202220,
#BPMCHANGE 136
#SCROLL 1
20202220, //36
10022000,
10022010,
10022000,
#BPMCHANGE 137.78
#SCROLL 0.99
3, //40
#BPMCHANGE 135.41
#SCROLL 1
#GOGOSTART
11100220,
11100220,
#BPMCHANGE 135.8
70000008,
0, //44
10101110,
#BPMCHANGE 136
#SCROLL 0.99
11110000,
10101110,
10101110, //48
#BPMCHANGE 135.43
#SCROLL 1
12,
#BPMCHANGE 136.58
#SCROLL 0.99
10022000,
#BPMCHANGE 135.52
#SCROLL 1
12,
#BPMCHANGE 137.24
#SCROLL 0.99
10022000, //52
#BPMCHANGE 135.26
#SCROLL 1
10101110,
#BPMCHANGE 137.43
#SCROLL 0.98
1102,
#BPMCHANGE 134.6
#SCROLL 1.01
10101110,
#BPMCHANGE 137.9
#SCROLL 0.98
3300, //56
#GOGOEND
#BPMCHANGE 135.23
#SCROLL 1
1202,
0200,
#BPMCHANGE 136
1202,
0200, //60
1202,
#BPMCHANGE 133.76
#SCROLL 1.01
0200,
#BPMCHANGE 136.04
#SCROLL 0.99
1202,
#BPMCHANGE 136.87
0222, //64
#BPMCHANGE 136
#SCROLL 1
0,
0,
0,
0, //68
#END
BALLOON:6,6,9
SCOREINIT:1000,5700
SCOREDIFF:370
#START P2
3022,
0,
3022,
7008, //4
#GOGOSTART
10200110,
10200110,
#BPMCHANGE 136.34
#SCROLL 0.99
10201110,
1200, //8
#BPMCHANGE 135.31
#SCROLL 1
10200110,
10200110,
#BPMCHANGE 136.35
#SCROLL 0.99
1202,
0202, //12
#GOGOEND
#BPMCHANGE 136
#SCROLL 1
1,
#BPMCHANGE 134.52
#SCROLL 1.01
2001,
#BPMCHANGE 136.62
#SCROLL 0.99
1,
2001, //16
#BPMCHANGE 135.8
#SCROLL 1
1,
2001,
#BPMCHANGE 136.33
#SCROLL 0.99
1,
2001, //20
#BPMCHANGE 136.19
10022000,
10111000,
10022000,
10111000, //24
#BPMCHANGE 136.46
10022000,
10111000,
#BPMCHANGE 135.45
#SCROLL 1
10022000,
#BPMCHANGE 136.07
#SCROLL 0.99
7008, //28
#BPMCHANGE 132.61
#SCROLL 1.02
3,
#BPMCHANGE 139.75
#SCROLL 0.97
500000000000000000000008000000000000000000000000,
#BPMCHANGE 136.08
#SCROLL 0.99
3,
#BPMCHANGE 134.58
#SCROLL 1.01
500000000000000000000008000000000000000000000000, //32
#BPMCHANGE 135.53
#SCROLL 1
20202220,
#BPMCHANGE 135.78
20202220,
#BPMCHANGE 136.7
#SCROLL 0.99
10101110,
#BPMCHANGE 136
#SCROLL 1
10101110, //36
10022000,
10022010,
10022000,
#BPMCHANGE 137.78
#SCROLL 0.99
3, //40
#BPMCHANGE 135.41
#SCROLL 1
#GOGOSTART
11100220,
11100220,
#BPMCHANGE 135.8
70000008,
0, //44
10101110,
#BPMCHANGE 136
#SCROLL 0.99
11110000,
10101110,
10101110, //48
#BPMCHANGE 135.43
#SCROLL 1
12,
#BPMCHANGE 136.58
#SCROLL 0.99
10022000,
#BPMCHANGE 135.52
#SCROLL 1
12,
#BPMCHANGE 137.24
#SCROLL 0.99
10022000, //52
#BPMCHANGE 135.26
#SCROLL 1
10101110,
#BPMCHANGE 137.43
#SCROLL 0.98
1102,
#BPMCHANGE 134.6
#SCROLL 1.01
10101110,
#BPMCHANGE 137.9
#SCROLL 0.98
3300, //56
#GOGOEND
#BPMCHANGE 135.23
#SCROLL 1
1202,
0200,
#BPMCHANGE 136
1202,
0200, //60
1202,
#BPMCHANGE 133.76
#SCROLL 1.01
0200,
#BPMCHANGE 136.04
#SCROLL 0.99
1202,
#BPMCHANGE 136.87
0222, //64
#BPMCHANGE 136
#SCROLL 1
0,
0,
0,
0, //68
#END

COURSE:Easy
LEVEL:3
BALLOON:5,5,7
SCOREINIT:840,8600
SCOREDIFF:423
#START
3011,
0,
3011,
7008, //4
#GOGOSTART
3001,
1001,
#BPMCHANGE 136.34
#SCROLL 0.99
11,
1, //8
#BPMCHANGE 135.31
#SCROLL 1
3001,
1001,
#BPMCHANGE 136.35
#SCROLL 0.99
11,
1, //12
#GOGOEND
#BPMCHANGE 136
#SCROLL 1
1,
#BPMCHANGE 134.52
#SCROLL 1.01
2001,
#BPMCHANGE 136.62
#SCROLL 0.99
1,
2001, //16
#BPMCHANGE 135.8
#SCROLL 1
1,
2001,
#BPMCHANGE 136.33
#SCROLL 0.99
1,
2001, //20
#BPMCHANGE 136.19
12,
1110,
12,
1110, //24
#BPMCHANGE 136.46
12,
1110,
#BPMCHANGE 135.45
#SCROLL 1
12,
#BPMCHANGE 136.07
#SCROLL 0.99
7008, //28
#BPMCHANGE 132.61
#SCROLL 1.02
3,
#BPMCHANGE 139.75
#SCROLL 0.97
500000000000000000000008000000000000000000000000,
#BPMCHANGE 136.08
#SCROLL 0.99
3,
#BPMCHANGE 134.58
#SCROLL 1.01
500000000000000000000008000000000000000000000000, //32
#BPMCHANGE 135.53
#SCROLL 1
1110,
#BPMCHANGE 135.78
1110,
#BPMCHANGE 136.7
#SCROLL 0.99
1110,
#BPMCHANGE 136
#SCROLL 1
1001, //36
12,
1001,
12,
#BPMCHANGE 137.78
#SCROLL 0.99
3, //40
#BPMCHANGE 135.41
#SCROLL 1
#GOGOSTART
1100,
1100,
#BPMCHANGE 135.8
70000008,
0, //44
1110,
#BPMCHANGE 136
#SCROLL 0.99
1100,
1110,
1110, //48
#BPMCHANGE 135.43
#SCROLL 1
12,
#BPMCHANGE 136.58
#SCROLL 0.99
12,
#BPMCHANGE 135.52
#SCROLL 1
12,
#BPMCHANGE 137.24
#SCROLL 0.99
12, //52
#BPMCHANGE 135.26
#SCROLL 1
1110,
#BPMCHANGE 137.43
#SCROLL 0.98
1100,
#BPMCHANGE 134.6
#SCROLL 1.01
1110,
#BPMCHANGE 137.9
#SCROLL 0.98
3300, //56
#GOGOEND
#BPMCHANGE 135.23
#SCROLL 1
12,
2,
#BPMCHANGE 136
12,
2, //60
12,
#BPMCHANGE 133.76
#SCROLL 1.01
2,
#BPMCHANGE 136.04
#SCROLL 0.99
12,
#BPMCHANGE 136.87
2022, //64
#BPMCHANGE 136
#SCROLL 1
0,
0,
0,
0, //68
#END
