//TJADB Project
TITLE:Ridge Racer
TITLEJA:Ridge Racer
SUBTITLE:--Shinji Hosoe (Sampling Masters)/RIDGE RACER
BPM:139.66
WAVE:Ridge Racer.ogg
OFFSET:-2.707
DEMOSTART:2.703

COURSE:Edit
LEVEL:9
SCOREINIT:360
SCOREDIFF:85
#START
1220120102101120,
1220120102111210,
1220120102101120,
1220122102112110,
1220120101201120,
1220120102111210,
1220120101201120,
1220122102112110,
1010210202102100,
1020210202112110,
1010210202102100,
1020210201221122,
1020120102102100,
1020120102112110,
1020120102102100,
1020120101221122,
1020120101201022,
1220210202112110,
1020120101201022,
1220210201221220,
1020120102101022,
1220120102112110,
1020120102101022,
1220120101221220,
1020210120210120,
1020210102221110,
1020210120210120,
1020210101112220,
1010210202102112,
0120202102112110,
1010210202102112,
0120202101221222,
1010120101201221,
0210101202112110,
1010120101201221,
0210101201221222,
1001201001012010,
1001201022021020,
100000000100200000100000100010001000200000100000,
1002221021022210,
1001201001012010,
1001201022021020,
100000000100200000100000100010001000200000100000,
1002221021022210,
#GOGOSTART
1020210102021020,
2102021011222110,
1112102011221020,
1212102012221020,
1201201120120211,
2102102110210122,
1201201120120211,
2102102110210122,
1201001012020210,
1222121012010210,
1222121012212210,
1221121112211211,
1221121112012010,
2102112012112102,
1120120121112102,
1121120121221210,
1120120102102110,
1120120102211020,
1120120102102110,
1120120102212210,
1120120202102110,
1120120202211020,
1120120202102110,
#BPMCHANGE 138.29
1120120202212210,
#BPMCHANGE 139.85
1220112101201020,
1120112101201020,
1220112101201020,
#BPMCHANGE 139.53
1120112101222210,
#BPMCHANGE 139.68
1220112102201020,
1120122101201020,
1220112102201020,
#BPMCHANGE 139.25
1120122101222210,
#GOGOEND
#BPMCHANGE 139.72
1120120101121120,
1120120102112110,
1120120101121120,
1120120102112110,
1120220101121120,
1120220102112110,
1120220101212212,
#BPMCHANGE 140.18
1000000011121112,
#BPMCHANGE 139.66
1,
#END

COURSE:Oni
LEVEL:8
STYLE:Double
SCOREINIT:420
SCOREDIFF:105
#START P1
1022102101021020,
1022102101020120,
1022102101021020,
1022102101202222,
122012010120102,
1220120101201020,
1220120101201020,
2202022020201111,
1000100101221020,
0020101102201110,
1000100102112020,
0020101102201111,
1020120102021020,
1020120102021020,
1020120102012020,
2202022020202220,
1220120101201020,
1220120101201020,
1220120101201020,
1220120101202222,
1022102101021020,
1022102101021020,
1022102101021020,
2000000000001111,
0020020000000020,
0020220000000020,
0020020000000020,
0020220000001111,
1020120102021020,
1020120102021020,
1020120102012020,
2202022020202220,
1000100101221020,
0020101102201110,
1000100102112020,
2000000000001111,
1001200000012010,
1000000022222000,
1001200000012010,
1000000022222000,
1001200000012010,
1000000022222000,
1001200000012010,
1001200011012222,
#GOGOSTART
1022202220222022,
2022202220222020,
1010220101011020,
2020110202011020,
3003003000000000,
2020110202011020,
1010220101011020,
2002002020020020,
0404000000000000,
,
0111220202201111,
1000000010010020,
0111221100000000,
0102012010102102,
1020120110201201,
1021020110210201,
5,
000000000008000000100100200000000200000000200000,
3,
0000000000002222,
1010201101101020,
1010201101101020,
3003003020020020,
#BPMCHANGE 138.29
2222201101102202,
#BPMCHANGE 139.85
1001001002211020,
2002002101101020,
1001001002211020,
#BPMCHANGE 139.53
2002001002211020,
#BPMCHANGE 139.68
1020120102021020,
1020120102021020,
1020120102021020,
#BPMCHANGE 139.25
2222201101102202,
#GOGOEND
#BPMCHANGE 139.72
0000000101101000,
1010000101101000,
1000000101101000,
1010000101101111,
,
1010220101101020,
,
#BPMCHANGE 130.18
2000000011112222,
#BPMCHANGE 139.66
1,
#END
#START P2
1220102101201020,
1220120101201020,
1220120101201020,
1220120101202222,
1022102101021020,
1022102101021020,
1022102101021020,
2000000000001111,
1020120102021020,
1020120102021020,
1020120102012020,
2202022020202220,
1000100101221020,
0020101102201110,
1000100102112020,
0020101102201111,
1022102101021020,
1022102101021020,
1022102101021020,
1022102101202222,
1220120101201020,
1220120101201020,
1220120101201020,
2202022020201111,
0000000101101000,
1010000101101000,
1000000101101000,
1010000101101111,
1000100101221020,
0020101102201110,
1000100102112020,
0020101102201111,
1020120102021020,
1020120102021020,
1020120102012020,
2202020220201111,
1000000022222000,
1001201000002010,
1000000022222000,
1001220000002010,
1000000022222000,
1001201000002010,
1000000022222000,
1001200000000000,
#GOGOSTART
1010220101011020,
2020110202011020,
1022202220222022,
2022202220222020,
0000000030030030,
2002002020020020,
2002002020020020,
2020110202012210,
0404000000000000,
0111222211010110,
,
1001002000000000,
0111221102012010,
0102012010102102,
1020120110201201,
1021020110210201,
1010201101101020,
1010201101101020,
1010201101101020,
2220220101103000,
5,
000000000008000000100100200000000200000000200000,
3,
#BPMCHANGE 138.29
,
#BPMCHANGE 139.85
1020120102021020,
1020120102021020,
1020120102021020,
#BPMCHANGE 139.53
2222201101102020,
#BPMCHANGE 139.68
1001001002211020,
2002002101101020,
1001001002211020,
#BPMCHANGE 139.25
2002001002211020,
#GOGOEND
#BPMCHANGE 139.72
0020020000000020,
0020220000000020,
0020020000000020,
0020220000001111,
0020020101101020,
,
0020020101101111,
#BPMCHANGE 140.18
2000000011112222,
#BPMCHANGE 139.66
1,
#END
STYLE:Single
SCOREINIT:450
SCOREDIFF:115
#START
1020102101201020,
1020102101201020,
1020102101201020,
1020102101202222,
1020102101201020,
1020102101201020,
1020102101201020,
2202022020201111,
1000100101221020,
0020101102201110,
1000100102112020,
0020101102201111,
1000100101221020,
0020101102201110,
1000100102112020,
0020101102201111,
1020102101201020,
1020102101201020,
1020102101201020,
1020102101202222,
1020102101201020,
1020102101201020,
1020102101201020,
2202022020201111,
0020020101101020,
1010220101101020,
0020020101101020,
1010220101101111,
1000100101221020,
0020101102201110,
1000100102112020,
0020101102201111,
1000100101221020,
0020101102201110,
1000100102112020,
2202020220201111,
1001200000012010,
1001201000002010,
1001200000012010,
1001220000002010,
1001200000012010,
1001201000002010,
1001200000012010,
1001200011012222,
#GOGOSTART
1010220101011020,
2020110202011020,
1010220101011020,
2020110202011020,
3003003020020020,
2020110202011020,
1010220101011020,
2020110202012210,
0404000010010020,
0111222211010110,
0111220202201111,
1001002010010020,
0111221102012010,
0102012010102102,
1020120110201201,
1021020110210201,
1010201101101020,
1010201101101020,
1010201101101020,
2220220101103000,
1010201101101020,
1010201101101020,
3003003020020020,
#BPMCHANGE 138.29
2222201101102202,
#BPMCHANGE 139.85
1001001002211020,
2002002101101020,
1001001002211020,
#BPMCHANGE 139.53
2002001101101020,
#BPMCHANGE 139.68
1001001002211020,
2002002101101020,
1001001002211020,
#BPMCHANGE 139.25
2222201101102202,
#GOGOEND
#BPMCHANGE 139.72
0020020101101020,
1010220101101020,
0020020101101020,
1010220101101111,
0020020101101020,
1010220101101020,
0020020101101111,
#BPMCHANGE 140.18
2000000011112222,
#BPMCHANGE 139.66
1,
#END

COURSE:Hard
LEVEL:8
SCOREINIT:360
SCOREDIFF:93
#START
1020102101201020,
1020102101201020,
1020102101201020,
1020102101202222,
1020102101201020,
1020102101201020,
1020102101201020,
2202022020201111,
1000100101221020,
0020101102201110,
1000100102112020,
0020101102201111,
1000100101221020,
0020101102201110,
1000100102112020,
0020101102201111,
1020102101201020,
1020102101201020,
1020102101201020,
1020102101202222,//20
1020102101201020,
1020102101201020,
1020102101201020,
2202022020201111,
0020020101101020,
1010220101101020,
0020020101101020,
1010220101101111,
1000100101221020,
0020101102201110,//30
1000100102112020,
0020101102201111,
1000100101221020,
0020101102201110,
1000100102112020,
2202020220201111,
1001200000012010,
1001201000002010,
1001200000012010,
1001220000002010,//40
1001200000012010,
1001201000002010,
1001200000012010,
1001200011012222,
#GOGOSTART
1010220101011020,
2020110202011020,
1010220101011020,
2020110202011020,
3003003020020020,
2020110202011020,//50
1010220101011020,
2020110202012210,
0404000010010020,
0111222211010110,
0111220202201111,
1001002010010020,
0111221102012010,
0102012010102102,
1020120110201201,
1021020110210201,//60
1010201101101020,
1010201101101020,
1010201101101020,
2220220101103000,
1010201101101020,
1010201101101020,
3003003020020020,
#BPMCHANGE 138.289
2222201101102202,
#BPMCHANGE 139.842
1001001002211020,
2002002101101020,//70
1001001002211020,
#BPMCHANGE 139.522
2002001101101020,
#BPMCHANGE 139.677
1001001002211020,
2002002101101020,
1001001002211020,
#BPMCHANGE 139.249
2222201101102202,
#GOGOEND
#BPMCHANGE 139.717
0020020101101020,
1010220101101020,
0020020101101020,
1010220101101111,//80
0020020101101020,
1010220101101020,
0020020101101111,
#BPMCHANGE 140.178
2000000011112222,
#BPMCHANGE 139.66
1,
0,
0,
0,
#END

COURSE:Normal
LEVEL:7
SCOREINIT:640,2980
SCOREDIFF:183
SCOREMODE:2
STYLE:Single
#START
1000000101101000,
0000000101101000,
1000000101101000,
0000000101102000,
1000000101101000,
0000000101101000,
1000000101101000,
0000000202202000,
1000100100000000,
0000100100000000,
1000100100000000,
0000101100002000,
1000100100000000,
0000100100000000,
1000100100000000,
0000101100002000,
1000000101101000,
0000000101101000,
1000000101101000,
0000000101102000,
1000000101101000,
0000000101101000,
1000000101101000,
0000000202202000,
0020020000001010,
1000100100000000,
02000011,
1000100100000000,
1000100100000000,
0000100100000000,
1000100100000000,
0000101100002000,
1000100100000000,
0000100100000000,
1000100100000000,
0000101100002000,
10200021,
1202,
10200021,
1000220000002000,
10200021,
1202,
10200021,
10201130,
#GOGOSTART
1010100000022000,
2020200000011000,
1010100000022000,
2020200000011000,
1001001000000000,
2002002000000000,
1001001000000000,
2002002000000000,
0202000010000000,
0110100010001000,
0110100010001000,
1001000020020000,
0110100010001000,
0110100010001000,
1010110010101100,
70000008,
1000000101101000,
1000000101101000,
1000000101101000,
2000000202202000,
1000000101101000,
1000000101101000,
1000000101101000,
#BPMCHANGE 138.22
2000000202202000,
#BPMCHANGE 139.77
1001001000102000,
2002001000101000,
1001001000102000,
#BPMCHANGE 139.45
2002001000101000,
#BPMCHANGE 139.6
1001001000102000,
2002001000101000,
1001001000102000,
#BPMCHANGE 139.18
50000008,
#GOGOEND
#BPMCHANGE 139.64
0020020000001010,
1000100100000000,
02000011,
1000100100000000,
0020020000001010,
1000100100000000,
02000011,
#BPMCHANGE 140.1
2,
#BPMCHANGE 139.58
3,
0,
0,
0,
0,
#END

COURSE:Normal
LEVEL:5
BALLOON:12
SCOREINIT:660
SCOREDIFF:160
SCOREMODE:1
STYLE:Double
#START P1
#GOGOSTART
1000000101101000,
1000000101101000,
1000000101101000,
1000000101102000,
1020120000000000,
1020120000000000,
1020120000000000,
1020120000000000,
#GOGOEND
1000100100000000,
0000100100000000,
00000022,
0002,
00000022,
0,
1000100100000000,
0000101100000000,
#GOGOSTART
1020120000200020,
1020120000200020,
1020120000200020,
1020120000200020,
1000000101101000,
1000000101101000,
1000000101101000,
1000000202202000,
#GOGOEND
0020020000002020,
0020020000002020,
1000000101100000,
1000000101100000,
1000100100000000,
0000100100000000,
00000022,
0002,
00000022,
0,
1000100100000000,
0000101100000000,
50008021,
1000200000222000,
50008021,
1000200000222000,
1001100020000000,
1001100020000000,
1001100020000000,
1001100020000000,
1010110000000000,
2000000202022000,
11100000,
22200000,
1001001000000000,
58,
2220,
1001001000000000,
0202000000000000,
0000002200000022,
0110100011101000,
1001001000000000,
0000222200000020,
0,
1010110010101100,
7008,
1000000101101000,
1000000101101000,
1000000101101000,
2000000202202000,
1020120000202000,
1020120000202000,
1020120000202000,
#BPMCHANGE 138.22
1020120000202000,
#BPMCHANGE 139.77
00000120,
00000110,
1001001000000000,
#BPMCHANGE 139.45
2002001000000000,
#BPMCHANGE 139.6
00000120,
00000110,
1001001000000000,
#BPMCHANGE 139.18
50000008,
#BPMCHANGE 139.64
1000000101100000,
1000000101100000,
0020020000002020,
0020020000002020,
1000000101100000,
0020020000002020,
02000011,
#BPMCHANGE 140.1
2,
#BPMCHANGE 139.59
3,
0,
0,
0,
0,
#END

COURSE:Normal
LEVEL:6
BALLOON:12
SCOREMODE:1
STYLE:Double
#START P2
#GOGOSTART
1020120000000000,
1020120000000000,
1020120000000000,
1020120000000000,
1000000101101000,
1000000101101000,
1000000101101000,
1000000202202000,
#GOGOEND
00000022,
0,
1000100100000000,
0000101100000000,
1000100100000000,
0000100100000000,
00000022,
0002,
#GOGOSTART
1000000101101000,
1000000101101000,
1000000101101000,
1000000101102000,
1020120000200020,
1020120000200020,
1020120000200020,
1020120000200020,
#GOGOEND
1000000101100000,
1000000101100000,
0020020000002020,
0020020000002020,
10000022,
0,
1000100100000000,
0000101100000000,
1000100100000000,
0000100100000000,
00000022,
0002,
1001100020000000,
1001100020000000,
1001100020000000,
1001100020000000,
50008021,
1000200000222000,
50008021,
1000200000222000,
2000000202022000,
1010110000000000,
00001110,
00002220,
5008,
2002002000000000,
1001001000000000,
2220,
0202000000000000,
0110100011101000,
0000002200000022,
0000000020020000,
0110000001011000,
0101011010101100,
0,
7008,
1020120000202000,
1020120000202000,
1020120000202000,
1020120000202000,
1000000101101000,
1000000101101000,
1000000101101000,
#BPMCHANGE 138.22
2000000202202000,
#BPMCHANGE 139.77
1001001000000000,
2002001000000000,
00000120,
#BPMCHANGE 139.45
00000110,
#BPMCHANGE 139.6
1001001000000000,
2002001000000000,
00000120,
#BPMCHANGE 139.18
50000008,
#BPMCHANGE 139.64
0020020000002020,
0020020000002020,
1000000101100000,
1000000101100000,
0020020000002020,
1000000101100000,
02000011,
#BPMCHANGE 140.1
2,
#BPMCHANGE 139.59
3,
0,
0,
0,
0,
#END

COURSE:Easy
LEVEL:4
BALLOON:5
SCOREINIT:460,4070
SCOREDIFF:135
SCOREMODE:2
STYLE:Single
#START
11100000,
22200000,
11100000,
22200000,
11100000,
22200000,
11100000,
22200000,
1000100100000000,
0000100100000000,//10
1000100100000000,
0000200200000000,
1000100100000000,
0000100100000000,
1000100100000000,
0000200200000000,
11100000,
22200000,
11100000,
22200000,
11100000,
22200000,
11100000,
2220,
30000011,
1,
30000011,
1,
1000100100000000,
0000100100000000,
1000100100000000,
0000100100000000,
1000100100000000,
0000100100000000,
1000100100000000,
0000100100000000,
1202,
0202,
1202,
0000220000000000,
1202,
0202,
1202,
1110,
#GOGOSTART
11100020,
22200010,
11100020,
22200010,
1001001000000000,
2002002000000000,
1001001000000000,
2002002000000000,
3,
01101000,
01101000,
01102000,
01101000,
1110,
11101110,
7008,
30000110,
11,
10000110,
22,
30000110,
11,
10000110,
#BPMCHANGE 138.22
22,
#BPMCHANGE 139.77
1001001000000000,
2002002000000000,
1001001000000000,
#BPMCHANGE 139.45
2002002000000000,
#BPMCHANGE 139.6
1001001000000000,
2002002000000000,
1001001000000000,
#BPMCHANGE 139.18
5008,
#BPMCHANGE 139.64
#GOGOEND
11100020,
22200010,
11100020,
22200010,
11100020,
22200010,
11100020,
#BPMCHANGE 140.1
1,
#BPMCHANGE 139.59
3,
0,
0,
0,
0,
#END

COURSE:Easy
LEVEL:5
BALLOON:5
SCOREINIT:730
SCOREDIFF:200
SCOREMODE:1
STYLE:Double
#START P1
#GOGOSTART
11100000,
22200000,
11100000,
22200000,
00111000,
00222000,
00111000,
00222000,
#GOGOEND
0,
0000100100000000,
0,
0000200200000000,
1000100100000000,
0,
1000100100000000,
0,
#GOGOSTART
10111000,
20222000,
10111000,
20222000,
11101000,
22202000,
11101000,
22202000,
#GOGOEND
11100000,
11100000,
11100000,
0202,
1000100100000000,
0,
1000100100000000,
0,
0,
0000100100000000,
0,
0000200200000000,
11,
11,
11,
0000220000000000,
0202,
0202,
0202,
1110,
11100020,
22200010,
11100020,
22200010,
1001001000000000,
58,
2002002000000000,
58,
3,
00000220,
0004,
01101000,
01101000,
11,
11100000,
7008,
30001110,
10001110,
10001110,
22,
3200,
1200,
1200,
#BPMCHANGE 138.22
22,
#BPMCHANGE 139.77
1001001000000000,
2002002000000000,
1001001000000000,
#BPMCHANGE 139.45
2002002000000000,
#BPMCHANGE 139.6
00000220,
00000110,
00000220,
#BPMCHANGE 139.18
0,
#BPMCHANGE 139.64
10000011,
10000011,
10000011,
11,
11100000,
11100000,
11100020,
#BPMCHANGE 140.1
1,
#BPMCHANGE 139.59
3,
0,
0,
0,
0,
#END

COURSE:Easy
LEVEL:5
BALLOON:5
SCOREMODE:1
STYLE:Double
#START P2
#GOGOSTART
00111000,
00222000,
00111000,
00222000,
11100000,
22200000,
11100000,
22200000,
#GOGOEND
1000100100000000,
0,
1000100100000000,
0,
0,
0000100100000000,
0,
0000200200000000,
#GOGOSTART
11101000,
22202000,
11101000,
22202000,
10111000,
20222000,
10111000,
20222000,
#GOGOEND
10000011,
10000011,
10000011,
11,
0,
0000100100000000,
0,
0000200200000000,
1000100100000000,
0,
1000100100000000,
0,
0202,
0202,
0202,
0000220000000000,
11,
11,
11,
1110,
20001110,
10002220,
20001110,
10002220,
58,
1001001000000000,
58,
2002002000000000,
3,
01101000,
01101000,
00000220,
0004,
0202,
00001110,
7008,
3200,
1200,
1200,
22,
30001110,
10001110,
10001110,
#BPMCHANGE 138.22
22,
#BPMCHANGE 139.77
00000220,
00000110,
00000220,
#BPMCHANGE 139.45
0,
#BPMCHANGE 139.6
1001001000000000,
2002002000000000,
1001001000000000,
#BPMCHANGE 139.18
2002002000000000,
#BPMCHANGE 139.64
11100000,
11100000,
11100000,
0202,
10000011,
10000011,
1002,
#BPMCHANGE 140.1
1,
#BPMCHANGE 139.59
3,
0,
0,
0,
0,
#END
