//TJADB Project
TITLE:Iro wa Nioedo Chirinuru o
TITLEJA:色は匂へど 散りぬるを
SUBTITLE:--Iceon (Yuuhei Satellite) feat. senya/Touhou Project
SUBTITLEJA:東方Projectアレンジ 幽閉サテライト
BPM:135.66
WAVE:Iro wa Nioedo Chirinuru o.ogg
OFFSET:-2.120
DEMOSTART:61.253 //Shinuchi:
10290/7710/5430/2690

COURSE:Oni
LEVEL:8
BALLOON:
SCOREINIT:880,2720
SCOREDIFF:248
#START
#SCROLL 1.02
20000220,
#BPMCHANGE 139.67
#SCROLL 0.99
20000022,
#BPMCHANGE 137.58
#SCROLL 1
20002220,
#BPMCHANGE 138
20000220, //4
20000220,
#BPMCHANGE 138.56
20000022,
#BPMCHANGE 138.07
20022002,
#BPMCHANGE 138
5,
#MEASURE 5/4
000000000000000000000000000000000000000008000000
#BPMCHANGE 140.11
#SCROLL 0.98
000000000000, //9
#MEASURE 4/4
#BPMCHANGE 138
#SCROLL 1
1010201210102012,
1010201210202122,
1010201210102012,
1010201210202212,
1010201210102012,
1010201210202122,
500000000000000000000000000000000008000000000000,
1222122212121011, //17
#BPMCHANGE 137.21
#SCROLL 1.01
1000002020020020,
#BPMCHANGE 138
#SCROLL 1
1000002020020020,
1,
0022,
1000002020010020,
#BPMCHANGE 137.58
2000002020010020,
#BPMCHANGE 138
21122112,
#BPMCHANGE 139.22
#SCROLL 0.99
10012000, //25
#BPMCHANGE 138
#SCROLL 1
1021002010210020,
1022201022210210,
1021002010210020,
1022201022210210,
1021021010210210,
1022201022210210,
1221021012210210,
3330,
0, //34
#GOGOSTART
1022202210201020,
1022202210201020,
1022202010222020,
1011200000112010,
1022202020112010,
1022202020112010,
1120112012201220,
1222122212121011, //42
1022102110201020,
1022102110201020,
1022202010222020,
1011200000112010,
1012202020112010,
1012202020112012,
1010401210104012,
5, //50
000000000000000000000000000000000000000008000000,
#GOGOEND
0,
0,
0, //54
#END

COURSE:Hard
LEVEL:5
BALLOON:10
SCOREINIT:1300,5570
SCOREDIFF:463
#START
#SCROLL 1.02
20000220,
#BPMCHANGE 139.67
#SCROLL 0.99
20000022,
#BPMCHANGE 137.58
#SCROLL 1
20002220,
#BPMCHANGE 138
20000220, //4
20000220,
#BPMCHANGE 138.56
20000022,
#BPMCHANGE 138.07
20022002,
#BPMCHANGE 138
5,
#MEASURE 5/4
000000000000000000000000000000000000000008000000
#BPMCHANGE 140.11
#SCROLL 0.98
000000000000, //9
#MEASURE 4/4
#BPMCHANGE 138
#SCROLL 1
10201120,
10201220,
10201120,
10221020,
10201120,
10201220,
500000000000000000000000000000000008000000000000,
7008, //17
#BPMCHANGE 137.21
#SCROLL 1.01
1000002020020020,
#BPMCHANGE 138
#SCROLL 1
1000002020020020,
1,
0011,
1000000020020020,
#BPMCHANGE 137.58
1000000020020020,
#BPMCHANGE 138
1122,
#BPMCHANGE 139.22
#SCROLL 0.99
10012000, //25
#BPMCHANGE 138
#SCROLL 1
1001001010010010,
1022,
1212,
1,
1001001010010010,
1000000010010010,
2002002010010010,
3330,
00000011, //34
#GOGOSTART
500000000000000000000008000000200000200000100000,
10000022,
500000000008000000000000100000100000200000200000,
1000000000111010,
1000000000111010,
10000022,
500000000008000000000000100000100000200000200000,
000000500000000000000008000000100100100000100000, //42
1000000011101010,
10000022,
1000001110102020,
500000000000000008000000000000100100100000100000,
1000000000111010,
10000022,
500000000008000000200000500000000008000000200000,
5, //50
000000000000000000000000000000000000000008000000,
#GOGOEND
0,
0,
0, //54
#END

COURSE:Normal
LEVEL:4
BALLOON:8,18
SCOREINIT:1360,8190
SCOREDIFF:638
#START
#SCROLL 1.02
2002,
#BPMCHANGE 139.67
#SCROLL 0.99
2002,
#BPMCHANGE 137.58
#SCROLL 1
2022,
#BPMCHANGE 138
20000220, //4
20000220,
#BPMCHANGE 138.56
2002,
#BPMCHANGE 138.07
22,
#BPMCHANGE 138
5,
#MEASURE 5/4
000000000000000000000000000000000000000008000000
#BPMCHANGE 140.11
#SCROLL 0.98
000000000000, //9
#MEASURE 4/4
#BPMCHANGE 138
#SCROLL 1
1110,
1110,
1112,
10011000,
1110,
1110,
500000000000000000000000000000000008000000000000,
7008, //17
#BPMCHANGE 137.21
#SCROLL 1.01
10011000,
#BPMCHANGE 138
#SCROLL 1
10011000,
5,
000008000000000000000000100000000000100000000000,
1022,
#BPMCHANGE 137.58
2011,
#BPMCHANGE 138
11,
#BPMCHANGE 139.22
#SCROLL 0.99
1, //25
#BPMCHANGE 138
#SCROLL 1
10011000,
10011000,
10011020,
1,
10011020,
10011020,
33,
3330,
0, //34
#GOGOSTART
500000000000000000000000000000000008000000000000,
10000011,
10001110,
10000110,
10000110,
10000011,
10001110,
500000000000000000000008000000000000000000000000, //42
10001110,
10000011,
10001110,
10000110,
10000110,
10000011,
10011001,
7, //50
00000008,
#GOGOEND
0,
0,
0, //54
#END

COURSE:Easy
LEVEL:2
BALLOON:7,13
SCOREINIT:1040,12430
SCOREDIFF:695
#START
#SCROLL 1.02
2,
#BPMCHANGE 139.67
#SCROLL 0.99
2,
#BPMCHANGE 137.58
#SCROLL 1
2022,
#BPMCHANGE 138
2002, //4
2002,
#BPMCHANGE 138.56
2002,
#BPMCHANGE 138.07
22,
#BPMCHANGE 138
5,
#MEASURE 5/4
000000000000000000000000000000000000000008000000
#BPMCHANGE 140.11
#SCROLL 0.98
000000000000, //9
#MEASURE 4/4
#BPMCHANGE 138
#SCROLL 1
11,
1,
11,
1,
11,
11,
900000000000000000000000000000000009000000000008,
0, //17
#BPMCHANGE 137.21
#SCROLL 1.01
1,
#BPMCHANGE 138
#SCROLL 1
11,
1,
01,
1011,
#BPMCHANGE 137.58
1011,
#BPMCHANGE 138
11,
#BPMCHANGE 139.22
#SCROLL 0.99
1, //25
#BPMCHANGE 138
#SCROLL 1
12,
1,
12,
1,
12,
12,
33,
3330,
0, //34
#GOGOSTART
500000000000000000000000000000000008000000000000,
1001,
1011,
1003,
3003,
3,
1011,
500000000000000000000008000000000000000000000000, //42
1011,
1001,
1011,
1003,
3003,
3,
33,
9, //50
000000000000000000090000000000000000000000800000,
#GOGOEND
0,
0,
0, //54
#END
