//TJADB Project
TITLE:Nijiiro Baton
TITLEJA:ニジイロバトン
SUBTITLE:--Ponchi♪ feat. Haxchi × Donders
SUBTITLEJA:Ponchi♪ feat.はぁち × Donders
BPM:187.6
WAVE:Nijiiro Baton.ogg
OFFSET:-1.889
DEMOSTART:50.982

COURSE:Oni
LEVEL:8
STYLE:Single
BALLOON:11,4,11,9,6,11,8,32
SCOREINIT:420
SCOREDIFF:88
#START
2,
2,
20000005,
,
000000000000000008000000100000100000000000
#GOGOSTART
300000,
0010201110201120,
0010221020101210,
1110201110112010,
0011201020221000,
1000202022202020,
0020202010202022,
500000000000000000000000000000000000000008000000,
0000300000112000,
#GOGOEND
10111010,
10121110,
10111010,
10121110,
10111010,
10121110,
1000101010111110,
3022203000300000,
1000201110102020,
1010201011102222,
1000201110102020,
1010201011102000,
3000203000221000,
3000203000212000,
30030126,
000000000000000000000000000008000000000000000000,
1022202010201110,
0010201022221020,
1022202010201010,
0020200011111010,
0011101010001110,
1000111011101110,
5,
000000000000000000000000000000000000000000000008,
0000000022222030,
03300000,
#GOGOSTART
1110201110201120,
1110201110112210,
1110201110201120,
1110102210102220,
30330370,
0000008000201110,
2000111020111030,
0010107000802222,
1110201110201120,
1110201110112210,
1110201110201120,
1110102210102220,
2011102000101010,
30330370,
0000008020111030,
0011201120112111,
#GOGOEND
1000201000102022,
1000201000102211,
1000201000102222,
1000201000111010,
#GOGOSTART
1110201111102210,
1110201111102210,
1010111111112020,
30030303,
#GOGOEND
00202024,
00202024,
0020202220202040,
0022200011111050,
000000000000000008000000200000100100200000200000,
0010201122112210,
1110201120201220,
2022202011221122,
500000000000000000000000000000000008000000700000,
08,
2,
22,
2,
2001,
30000003,
01111111,
2000000011111030,
0030303000222222,
0000
#GOGOSTART
201110201120,
1110201110112210,
1110101120122070,
0000802210102220,
30330370,
0000008000201110,
2010111020111030,
0011201122221222,
#GOGOEND
1000201000102022,
1000201000102211,
1000201000102220,
1000201000101110,
#GOGOSTART
1110201121112110,
1110201121112110,
1010111121112220,
#GOGOEND
3000202000112000,
32210210,
2010002210101010,
20220000,
2000202000202220,
#GOGOSTART
70008222,
30330336,
000000000000000008000000000000200000200000200000,
30330337,
,
,
#GOGOEND
8,
#END
STYLE:Double
BALLOON:11,4,11,9,6,11,8,32
SCOREINIT:420
SCOREDIFF:88
#START P1
2,
2,
20000005,
,
000000000000000008000000100000100000000000
#GOGOSTART
300000,
0010201110201120,
0010221020101210,
1110201110112010,
0011201020221000,
1000202022202020,
0020202010202022,
500000000000000000000000000000000000000008000000,
0000300000112000,
#GOGOEND
10111010,
10121110,
10111010,
10121110,
10111010,
10121110,
1000101010111110,
3022203000300000,
1000201110102020,
1010201011102222,
1000201110102020,
1010201011102000,
3000203000221000,
3000203000212000,
30030126,
000000000000000000000000000008000000000000000000,
1022202010201110,
0010201022221020,
1022202010201010,
0020200011111010,
0011101010001110,
1000111011101110,
5,
000000000000000000000000000000000000000000000008,
0000000022222030,
03300000,
#GOGOSTART
1110201110201120,
1110201110112210,
1110201110201120,
1110102210102220,
30330370,
0000008000201110,
2000111020111030,
0010107000802222,
1110201110201120,
1110201110112210,
1110201110201120,
1110102210102220,
2011102000101010,
30330370,
0000008020111030,
0011201120112111,
#GOGOEND
1000201000102022,
1000201000102211,
1000201000102222,
1000201000111010,
#GOGOSTART
1110201111102210,
1110201111102210,
1010111111112020,
30030303,
#GOGOEND
00202024,
00202024,
0020202220202040,
0022200011111050,
000000000000000008000000200000100100200000200000,
0010201122112210,
1110201120201220,
2022202011221122,
500000000000000000000000000000000008000000700000,
08,
2,
22,
2,
2001,
30000003,
01111111,
2000000011111030,
0030303000222222,
0000
#GOGOSTART
201110201120,
1110201110112210,
1110101120122070,
0000802210102220,
30330370,
0000008000201110,
2010111020111030,
0011201122221222,
#GOGOEND
1000201000102022,
1000201000102211,
1000201000102220,
1000201000101110,
#GOGOSTART
1110201121112110,
1110201121112110,
1010111121112220,
#GOGOEND
3000202000112000,
32210210,
2010002210101010,
20220000,
2000202000202220,
#GOGOSTART
70008222,
30330336,
000000000000000008000000000000200000200000200000,
30330337,
,
,
#GOGOEND
8,
#END
BALLOON:11,4,11,9,6,11,8,32
#START P2
2,
2,
20000005,
,
000000000000000008000000100000100000000000
#GOGOSTART
300000,
0010201110201120,
0010221020101210,
1110201110112010,
0011201020221000,
1000202022202020,
0020202010202022,
500000000000000000000000000000000000000008000000,
0000300000112000,
#GOGOEND
10111010,
10121110,
10111010,
10121110,
10111010,
10121110,
1000101010111110,
3022203000300000,
1000201110102020,
1010201011102222,
1000201110102020,
1010201011102000,
3000203000221000,
3000203000212000,
30030126,
000000000000000000000000000008000000000000000000,
1022202010201110,
0010201022221020,
1022202010201010,
0020200011111010,
0011101010001110,
1000111011101110,
5,
000000000000000000000000000000000000000000000008,
0000000022222030,
03300000,
#GOGOSTART
1110201110201120,
1110201110112210,
1110201110201120,
1110102210102220,
2011102000101010,
30330370,
0000008020111030,
0010107000802222,
1110201110201120,
1110201110112210,
1110201110201120,
1110102210102220,
30330370,
0000008000201110,
2000111020111030,
0011201120112111,
#GOGOEND
1000201000102022,
1000201000102211,
1000201000102222,
1000201000111010,
#GOGOSTART
1110201111102210,
1110201111102210,
1010111111112020,
30030303,
#GOGOEND
00202024,
00202024,
0020202220202040,
0022200011111050,
000000000000000008000000200000100100200000200000,
0010201122112210,
1110201120201220,
2022202011221122,
500000000000000000000000000000000008000000700000,
08,
2,
22,
2,
2001,
30000003,
01111111,
2000000011111030,
0030303000222222,
0000
#GOGOSTART
201110201120,
1110201110112210,
1110101120122070,
0000802210101110,
2011102010102020,
30330370,
0000008020111030,
0011201122221222,
#GOGOEND
1000201000102022,
1000201000102211,
1000201000102220,
1000201000101110,
#GOGOSTART
1110201121112110,
1110201121112110,
1010111121112220,
#GOGOEND
3000202000112000,
32210210,
2010002210101010,
20220000,
2000202000202220,
#GOGOSTART
70008222,
30330336,
000000000000000008000000000000200000200000200000,
30330337,
,
,
#GOGOEND
8,
#END

COURSE:Hard
LEVEL:6
STYLE:Single
BALLOON:8,8,42,8,8,11,24
SCOREINIT:490
SCOREDIFF:120
#START
2,
2,
20000005,
,
000000000000000008000000100000100000000000
#GOGOSTART
300000,
01201202,
01210110,
1000201000111010,
01202010,
1000200022200020,
02220222,
500000000000000000000000000000000000000008000000,
0300,
#GOGOEND
1111,
10101110,
1111,
10101110,
1111,
10101110,
1000101010001110,
30030300,
10201120,
10211020,
10201120,
10211020,
30030220,
30030220,
6,
000000000000000000000000000008000000000000000000,
10201011,
0010200022202000,
10201011,
02200001,
01111011,
10111010,
5,
000000000000000000000000000000000000000000000008,
00000003,
03300000,
#GOGOSTART
12121110,
12121120,
12121110,
12110120,
30330370,
00080220,
10110115,
000000000000000000000000000008000000200000000000,
12121110,
12121120,
12121110,
12110120,
10010222,
30330370,
00008105,
000000000000000000000000000000000008000000000000,
#GOGOEND
10210120,
10210120,
10210122,
1000201000111010,
#GOGOSTART
1010200010101110,
1010200010101110,
11100022,
30030303,
#GOGOEND
00000004,
00202024,
02222024,
02200009,
,
,
,
9008,
00000003,
,
2,
22,
2,
2001,
30000003,
01111111,
20000003,
0030303000222000,
00
#GOGOSTART
101110,
12121120,
12121117,
0008,
30330370,
00008220,
10110123,
0011100022202000,
#GOGOEND
10210120,
10210120,
10210122,
1000201000101110,
#GOGOSTART
1010200010101110,
1010200010101110,
11111122,
#GOGOEND
30220220,
30210210,
2010001110101010,
20220000,
20220222,
#GOGOSTART
7008,
30330336,
000000000000000008000000000000000000200000000000,
30330337,
,
,
#GOGOEND
8,
,
,
#END
STYLE:Double
BALLOON:8,8,42,8,8,11,24
SCOREINIT:490
SCOREDIFF:120
#START P1
2,
2,
20000005,
,
000000000000000008000000100000100000000000
#GOGOSTART
300000,
01201202,
01210110,
1000201000111010,
01202010,
1000200022200020,
02220222,
500000000000000000000000000000000000000008000000,
0300,
#GOGOEND
1111,
10101110,
1111,
10101110,
1111,
10101110,
1000101010001110,
30030300,
10201120,
10211020,
10201120,
10211020,
30030220,
30030220,
6,
000000000000000000000000000008000000000000000000,
10201011,
0010200022202000,
10201011,
02200001,
01111011,
10111010,
5,
000000000000000000000000000000000000000000000008,
00000003,
03300000,
#GOGOSTART
12121110,
12121120,
12121110,
12110120,
30330370,
00080220,
10110115,
000000000000000000000000000008000000200000000000,
12121110,
12121120,
12121110,
12110120,
10010222,
30330370,
00008105,
000000000000000000000000000000000008000000000000,
#GOGOEND
10210120,
10210120,
10210122,
1000201000111010,
#GOGOSTART
1010200010101110,
1010200010101110,
11100022,
30030303,
#GOGOEND
00000004,
00202024,
02222024,
02200009,
,
,
,
9008,
00000003,
,
2,
22,
2,
2001,
30000003,
01111111,
20000003,
0030303000222000,
00
#GOGOSTART
101110,
12121120,
12121117,
0008,
30330370,
00008220,
10110123,
0011100022202000,
#GOGOEND
10210120,
10210120,
10210122,
1000201000101110,
#GOGOSTART
1010200010101110,
1010200010101110,
11111122,
#GOGOEND
30220220,
30210210,
2010001110101010,
20220000,
20220222,
#GOGOSTART
7008,
30330336,
000000000000000008000000000000000000200000000000,
30330337,
,
,
#GOGOEND
8,
,
,
#END
BALLOON:8,8,42,8,8,11,24
#START P2
2,
2,
20000005,
,
000000000000000008000000100000100000000000
#GOGOSTART
300000,
01201202,
01210110,
1000201000111010,
01202010,
1000200022200020,
02220222,
500000000000000000000000000000000000000008000000,
0300,
#GOGOEND
1111,
10101110,
1111,
10101110,
1111,
10101110,
1000101010001110,
30030300,
10201120,
10211020,
10201120,
10211020,
30030220,
30030220,
6,
000000000000000000000000000008000000000000000000,
10201011,
0010200022202000,
10201011,
02200001,
01111011,
10111010,
5,
000000000000000000000000000000000000000000000008,
00000003,
03300000,
#GOGOSTART
12121110,
12121120,
12121110,
12110120,
10010222,
30330370,
00008115,
000000000000000000000000000008000000200000000000,
12121110,
12121120,
12121110,
12110120,
30330370,
00080220,
10110105,
000000000000000000000000000000000008000000000000,
#GOGOEND
10210120,
10210120,
10210122,
1000201000111010,
#GOGOSTART
1010200010101110,
1010200010101110,
11100022,
30030303,
#GOGOEND
00000004,
00202024,
02222024,
02200009,
,
,
,
9008,
00000003,
,
2,
22,
2,
2001,
30000003,
01111111,
20000003,
0030303000222000,
00
#GOGOSTART
101110,
12121120,
12121117,
0008,
10010222,
30330370,
00080123,
0011100022202000,
#GOGOEND
10210120,
10210120,
10210122,
1000201000101110,
#GOGOSTART
1010200010101110,
1010200010101110,
11111122,
#GOGOEND
30220220,
30210210,
2010001110101010,
20220000,
20220222,
#GOGOSTART
7008,
30330336,
000000000000000008000000000000000000200000000000,
30330337,
,
,
#GOGOEND
8,
,
,
#END

COURSE:Normal
LEVEL:5
STYLE:Single
BALLOON:6,6,6,30,6,6,7,16
SCOREINIT:630
SCOREDIFF:150
#START
2,
2,
20000005,
,
000000000000000008000000000000000000000000
#GOGOSTART
300000,
00000001,
00010100,
10000001,
0111,
10202202,
02220020,
500000000000000000000000000000000000000008000000,
0300,
#GOGOEND
11,
1011,
11,
1011,
11,
1011,
11,
70000800,
12,
1011,
12,
1011,
30030000,
30030000,
6,
000000000000000000000000000008000000000000000000,
10001002,
0022,
10001002,
00000001,
0111,
1111,
5,
000000000000000000000000000000000000000000000008,
00000003,
03300000,
#GOGOSTART
10101110,
1122,
10101110,
1122,
30330370,
00080000,
10110115,
000000000000000000000000000008000000000000000000,
10101110,
1122,
10101110,
1122,
10010020,
30330370,
00080115,
000000000000000000000000000000000000000008000000,
#GOGOEND
10010220,
10010020,
10010222,
10010022,
#GOGOSTART
10201011,
10201011,
1102,
30030303,
#GOGOEND
00202004,
00202004,
02202004,
02200009,
,
,
,
9008,
00000003,
,
2,
22,
2,
2,
30000006,
000000000000000000000000000000000000000000000008,
00000003,
03330000,
00
#GOGOSTART
101110,
1122,
10101117,
0008,
30330370,
00080000,
10110101,
0122,
#GOGOEND
10010220,
10010020,
10010222,
10010020,
#GOGOSTART
10201011,
10201011,
1111,
#GOGOEND
3,
6,
000000000000000000000000000000000008000000000000,
2,
20220222,
#GOGOSTART
7008,
30030306,
000000000000000008000000000000000000200000000000,
30030307,
,
,
#GOGOEND
8,
,
,
#END
STYLE:Double
BALLOON:6,6,6,30,6,6,7,16
SCOREINIT:630
SCOREDIFF:150
#START P1
2,
2,
20000005,
,
000000000000000008000000000000000000000000
#GOGOSTART
300000,
00000001,
00010100,
10000001,
0111,
10202202,
02220020,
500000000000000000000000000000000000000008000000,
0300,
#GOGOEND
11,
1011,
11,
1011,
11,
1011,
11,
70000800,
12,
1011,
12,
1011,
30030000,
30030000,
6,
000000000000000000000000000008000000000000000000,
10001002,
0022,
10001002,
00000001,
0111,
1111,
5,
000000000000000000000000000000000000000000000008,
00000003,
03300000,
#GOGOSTART
10101110,
1122,
10101110,
1122,
30330370,
00080000,
10110115,
000000000000000000000000000008000000000000000000,
10101110,
1122,
10101110,
1122,
10010020,
30330370,
00080115,
000000000000000000000000000000000000000008000000,
#GOGOEND
10010220,
10010020,
10010222,
10010022,
#GOGOSTART
10201011,
10201011,
1102,
30030303,
#GOGOEND
00202004,
00202004,
02202004,
02200009,
,
,
,
9008,
00000003,
,
2,
22,
2,
2,
30000006,
000000000000000000000000000000000000000000000008,
00000003,
03330000,
00
#GOGOSTART
101110,
1122,
10101117,
0008,
30330370,
00080000,
10110101,
0122,
#GOGOEND
10010220,
10010020,
10010222,
10010020,
#GOGOSTART
10201011,
10201011,
1111,
#GOGOEND
3,
6,
000000000000000000000000000000000008000000000000,
2,
20220222,
#GOGOSTART
7008,
30030306,
000000000000000008000000000000000000200000000000,
30030307,
,
,
#GOGOEND
8,
,
,
#END
BALLOON:6,6,6,30,6,6,7,16
#START P2
2,
2,
20000005,
,
000000000000000008000000000000000000000000
#GOGOSTART
300000,
00000001,
00010100,
10000001,
0111,
10202202,
02220020,
500000000000000000000000000000000000000008000000,
0300,
#GOGOEND
11,
1011,
11,
1011,
11,
1011,
11,
70000800,
12,
1011,
12,
1011,
30030000,
30030000,
6,
000000000000000000000000000008000000000000000000,
10001002,
0022,
10001002,
00000001,
0111,
1111,
5,
000000000000000000000000000000000000000000000008,
00000003,
03300000,
#GOGOSTART
10101110,
1122,
10101110,
1122,
10010020,
30330370,
00080115,
000000000000000000000000000008000000000000000000,
10101110,
1122,
10101110,
1122,
30330370,
00080000,
10110115,
000000000000000000000000000000000000000008000000,
#GOGOEND
10010220,
10010020,
10010222,
10010022,
#GOGOSTART
10201011,
10201011,
1102,
30030303,
#GOGOEND
00202004,
00202004,
02202004,
02200009,
,
,
,
9008,
00000003,
,
2,
22,
2,
2,
30000006,
000000000000000000000000000000000000000000000008,
00000003,
03330000,
00
#GOGOSTART
101110,
1122,
10101117,
0008,
30330370,
00080000,
10110101,
0122,
#GOGOEND
10010220,
10010020,
10010222,
10010020,
#GOGOSTART
10201011,
10201011,
1111,
#GOGOEND
3,
6,
000000000000000000000000000000000008000000000000,
2,
20220222,
#GOGOSTART
7008,
30030306,
000000000000000008000000000000000000200000000000,
30030307,
,
,
#GOGOEND
8,
,
,
#END

COURSE:Easy
LEVEL:3
STYLE:Single
BALLOON:4,5,5,26,4,5,4,16
SCOREINIT:760
SCOREDIFF:190
#START
2,
2,
20000005,
,
000000000000000008000000000000000000000000
#GOGOSTART
300000,
00000001,
00010000,
10000001,
01,
10000002,
,
500000000000000000000000000000000000000008000000,
0300,
#GOGOEND
1,
,
1,
,
1,
11,
1,
70000800,
1,
11,
1,
11,
3,
3,
6,
000000000000000000000000000008000000000000000000,
10000002,
02,
10000002,
00000001,
01,
1110,
5,
000000000000000000000000000000000000000000000008,
00000003,
,
#GOGOSTART
11,
1110,
11,
1110,
30030070,
00080000,
10010005,
000000000000000000000000000008000000000000000000,
11,
1110,
11,
1110,
10010000,
30030070,
00080005,
000000000000000000000000000008000000000000000000,
#GOGOEND
10010000,
10010020,
10010000,
10010020,
#GOGOSTART
11,
1110,
500000000000000000000000000008000000000000000000,
30030003,
#GOGOEND
00000004,
00000004,
00000004,
00000009,
,
,
,
9008,
00000003,
,
2,
2,
2,
2,
30000006,
000000000000000000000000000000000000000000000008,
00000003,
00030000,
1
#GOGOSTART
010,
1110,
10001007,
0008,
30030070,
00080000,
10010005,
000000000000000000000000000008000000000000000000,
#GOGOEND
10010000,
10010020,
10010000,
10010020,
#GOGOSTART
11,
1110,
70000800,
#GOGOEND
3,
6,
000000000000000000000000000000000008000000000000,
2,
22,
#GOGOSTART
3,
30030006,
000000000000000008000000000000000000000000000000,
30030007,
,
,
#GOGOEND
8,
,
,
#END
STYLE:Double
BALLOON:4,5,5,26,4,5,4,16
SCOREINIT:760
SCOREDIFF:190
#START P1
2,
2,
20000005,
,
000000000000000008000000000000000000000000
#GOGOSTART
300000,
00000001,
00010000,
10000001,
01,
10000002,
,
500000000000000000000000000000000000000008000000,
0300,
#GOGOEND
1,
,
1,
,
1,
11,
1,
70000800,
1,
11,
1,
11,
3,
3,
6,
000000000000000000000000000008000000000000000000,
10000002,
02,
10000002,
00000001,
01,
1110,
5,
000000000000000000000000000000000000000000000008,
00000003,
,
#GOGOSTART
11,
1110,
11,
1110,
30030070,
00080000,
10010005,
000000000000000000000000000008000000000000000000,
11,
1110,
11,
1110,
10010000,
30030070,
00080005,
000000000000000000000000000008000000000000000000,
#GOGOEND
10010000,
10010020,
10010000,
10010020,
#GOGOSTART
11,
1110,
500000000000000000000000000008000000000000000000,
30030003,
#GOGOEND
00000004,
00000004,
00000004,
00000009,
,
,
,
9008,
00000003,
,
2,
2,
2,
2,
30000006,
000000000000000000000000000000000000000000000008,
00000003,
00030000,
1
#GOGOSTART
010,
1110,
10001007,
0008,
30030070,
00080000,
10010005,
000000000000000000000000000008000000000000000000,
#GOGOEND
10010000,
10010020,
10010000,
10010020,
#GOGOSTART
11,
1110,
70000800,
#GOGOEND
3,
6,
000000000000000000000000000000000008000000000000,
2,
22,
#GOGOSTART
3,
30030006,
000000000000000008000000000000000000000000000000,
30030007,
,
,
#GOGOEND
8,
,
,
#END
BALLOON:4,5,5,26,4,5,4,16
#START P2
2,
2,
20000005,
,
000000000000000008000000000000000000000000
#GOGOSTART
300000,
00000001,
00010000,
10000001,
01,
10000002,
,
500000000000000000000000000000000000000008000000,
0300,
#GOGOEND
1,
,
1,
,
1,
11,
1,
70000800,
1,
11,
1,
11,
3,
3,
6,
000000000000000000000000000008000000000000000000,
10000002,
02,
10000002,
00000001,
01,
1110,
5,
000000000000000000000000000000000000000000000008,
00000003,
,
#GOGOSTART
11,
1110,
11,
1110,
10010000,
30030070,
00080005,
000000000000000000000000000008000000000000000000,
11,
1110,
11,
1110,
30030070,
00080000,
10010005,
000000000000000000000000000008000000000000000000,
#GOGOEND
10010000,
10010020,
10010000,
10010020,
#GOGOSTART
11,
1110,
500000000000000000000000000008000000000000000000,
30030003,
#GOGOEND
00000004,
00000004,
00000004,
00000009,
,
,
,
9008,
00000003,
,
2,
2,
2,
2,
30000006,
000000000000000000000000000000000000000000000008,
00000003,
00030000,
1
#GOGOSTART
010,
1110,
10001007,
0008,
10010000,
30030070,
00080005,
000000000000000000000000000008000000000000000000,
#GOGOEND
10010000,
10010020,
10010000,
10010020,
#GOGOSTART
11,
1110,
70000800,
#GOGOEND
3,
6,
000000000000000000000000000000000008000000000000,
2,
22,
#GOGOSTART
3,
30030006,
000000000000000008000000000000000000000000000000,
30030007,
,
,
#GOGOEND
8,
,
,
#END
