547 lines
21 KiB
Plaintext
547 lines
21 KiB
Plaintext
//TJADB Project
|
|
TITLE:Kakenukete-yuku
|
|
TITLEJA:駆け抜けてゆく
|
|
SUBTITLE:--SueP/Synchronica
|
|
SUBTITLEJA:すえP 「シンクロニカ」より
|
|
BPM:178
|
|
WAVE:Kakenukete-yuku.ogg
|
|
OFFSET:-0.361
|
|
DEMOSTART:60.691
|
|
|
|
COURSE:Oni
|
|
LEVEL:8
|
|
BALLOON:3,6,6,6,3,4,5,6,2,30,10,30
|
|
SCOREDIFF:0
|
|
|
|
|
|
#START
|
|
|
|
|
|
000000000000000000000000
|
|
#SCROLL 2
|
|
700000000000800000000000,
|
|
|
|
#GOGOSTART
|
|
#SCROLL 1
|
|
100000000100000000200000000000100100200000100000,
|
|
100000000200000000100000000000200200100000200000,
|
|
300000000200000000200000300000000200000000200000,
|
|
300000200200100000200000300000000000100200200200,
|
|
100000200100000000200000000000100200100000200000,
|
|
100000100200000000400000000000200200100000200000,
|
|
100000100100200000100000000000100000200000300000,
|
|
#SCROLL 2
|
|
000000300000300000400000300000000000000000000000,
|
|
|
|
#GOGOEND
|
|
#SCROLL 1
|
|
200000000000200200200100200000200000200000200000,
|
|
100000200000100000200000100000200000100000200000,
|
|
200000000000200000100100200000100000200000000000,
|
|
100000100000200000100000000000100000200000000000,
|
|
100000000000200000100100100000100000200000000000,
|
|
100000000000200000100000100000200000100000200000,
|
|
100000000000200000100100100000200000000000100000,
|
|
000000100000200000200000200000100000100000000000,
|
|
100000000000200000000000100000100000200000100000,
|
|
000000100000200000000000100000000000200000000000,
|
|
100000000000200000100000000000100000100000200000,
|
|
000000000000200000100200
|
|
#SCROLL 2
|
|
700000000000000000800000,
|
|
#SCROLL 1
|
|
100000000000200000100100100000200000000000100000,
|
|
000000200000100100100000100000200000200000100000,
|
|
100000000000200000100100100000100000200000200000,
|
|
000000100000200000100000000000
|
|
#SCROLL 2
|
|
200200200000000000,
|
|
#SCROLL 1
|
|
100000000000200000100000100000200200100000200000,
|
|
000000100100200000100000100000000000200000100000,
|
|
100000000000200000100000000000100200100000200000,
|
|
000000200200100000200000
|
|
#SCROLL 2
|
|
700000000000000000800000,
|
|
#SCROLL 1
|
|
100000000000200000100100100000200000000000100000,
|
|
000000100200100000200000000000200200100000200000,
|
|
100000000000200000300000000000300000000000400000,
|
|
000000100000100000100000100000100000100000100000,
|
|
200000000000000000000000000000000000000000000000,
|
|
200000000000000000000000000000000000000000000000,
|
|
200000000000000000000000200000000000000000000000,
|
|
200000000000000000000000200000000000000000000000,
|
|
100000000000000000000000200000000000100000000000,
|
|
100000000000200000000000
|
|
#SCROLL 2
|
|
700000000000000000800000,
|
|
#SCROLL 1
|
|
100000000000200000100100100000100000200000100000,
|
|
100000000000200000200200100000100000200000200000,
|
|
100000100000200000100000000000100000200000000000,
|
|
100000100000200000100100200000200000100000000000,
|
|
#SCROLL 2
|
|
300000300000000000400000000000300000000000300000,
|
|
000000300000400000300000000000
|
|
#SCROLL 1
|
|
200200100100100100,
|
|
|
|
#GOGOSTART
|
|
100000200100000000200000000000100100200000100000,
|
|
100000100200000000100000000000200200100000200000,
|
|
100000200200000100200000100000200200000100200000,
|
|
100100200200100000200000300000000000100200200200,
|
|
100000200100000000200000000000100200100000200000,
|
|
100000100200000000400000000000200200100000200000,
|
|
100000100100200000100000000000100200100000300000,
|
|
#SCROLL 2
|
|
000000300000300000400000300000000000000000000000,
|
|
|
|
#GOGOEND
|
|
#SCROLL 1
|
|
500000000000000000000080000000200000100200100000,
|
|
100000100000100000200000000000100000100000200000,
|
|
100100100100200200200200100100200200100100200200,
|
|
100000200000100000500000000000000080000000100000,
|
|
500000000000000000000080000000100000200000100000,
|
|
000000100000200000500000000000000080000000000000,
|
|
100000100000200000200000100000100000200000200000,
|
|
100000100000200000500000000000000080000000100000,
|
|
600000000000000000000000000000000000000000000000,
|
|
000000000000000000000000000008000000100000000000,
|
|
200000100000100000200000100000100000200000100000,
|
|
100000200000100000100000200000100000200000000000,
|
|
100000000000200000100000100000100000200000000000,
|
|
100010001000200020002000100000000000200000200000,
|
|
100000000000200000100000100000000000200020002000,
|
|
100000000000200020002000100000000000100100200200,
|
|
100000100000100000200000200000100000100000200000,
|
|
200000100000200000100000000000100100200200200000,
|
|
#SCROLL 2
|
|
700000000000000000800000700000000000000000800000,
|
|
700000000000000000800000700000000000000000800000,
|
|
#SCROLL 1
|
|
100000100100100000200000000000100100200000200000,
|
|
000000100200200000200000000000100200200200200000,
|
|
#SCROLL 2
|
|
300000000000300000000000000000300000000000400000,
|
|
000000400000000000300000400000000000700000800000,
|
|
#SCROLL 1
|
|
200000000000000000200000000000200000200000200000,
|
|
200000000200000000200000000000000000000000000000,
|
|
700000000000000000000000000000000000000000000000,
|
|
000000000000000000000000000000000000000000800000,
|
|
200000000000000000200000000000200000200000200000,
|
|
200000000200000000200000000000000000000000000000,
|
|
700000000000000000000000000000000000800000
|
|
#SCROLL 2
|
|
400000,
|
|
000000400000000000400000000000
|
|
#SCROLL 1
|
|
200200100100100100,
|
|
100000200100
|
|
#GOGOSTART
|
|
000000200000000000100100200000100000,
|
|
100000100200000000100000000000200200100000200000,
|
|
100000200200000100200000100000200200000100200000,
|
|
100200100200100000200000300000000200100200200200,
|
|
100000200100000000200000000000100200100000200000,
|
|
100000100200000000400000000000200200100000200000,
|
|
100000100100200000100000000000100200100000300000,
|
|
#SCROLL 2
|
|
000000300000300000400000300000000000000000000000,
|
|
#SCROLL 1
|
|
100000100000200000100000000000100000200000300000,
|
|
#SCROLL 2
|
|
000000400000400000300000400000000000000000000000,
|
|
#GOGOEND
|
|
#SCROLL 1
|
|
200000000000000000000000200000000000000000000000,
|
|
200000000000000000000000200000000000000000000000,
|
|
200000000000000000000000000000000000000000000000,
|
|
200000000000000000000000000000000000000000000000,
|
|
700000000000000000000000000000000000000000000000,
|
|
000000000000000000000000000000000000000000000008,
|
|
|
|
|
|
#END
|
|
|
|
|
|
COURSE:Hard
|
|
LEVEL:6
|
|
BALLOON:10,4,4,4,4,4,4,4,24,8,20
|
|
SCOREDIFF:0
|
|
|
|
|
|
#START
|
|
|
|
|
|
#BARLINEOFF
|
|
,
|
|
|
|
#GOGOSTART
|
|
#BARLINEON
|
|
100000000100000000100000000000200000200000100000,
|
|
100000000100000000100000000000200000200000000000,
|
|
300000000100000000100000300000000100000000100000,
|
|
300000100100100000000000300000000000100100100000,
|
|
100000000100000000100000000000200000200000100000,
|
|
100000000200000000400000000000200000200000100000,
|
|
100000100000200000200000000000100000100000300000,
|
|
000000300000300000400000400000000000000000000000,
|
|
#GOGOEND
|
|
200000000000200000200200200000200000200000000000,
|
|
100000000000100000000000200000000000200000000000,
|
|
100000000000000000100000000000000000200000000000,
|
|
100000100000200000200000000000100000100000000000,
|
|
100000000000000000100000000000100000100000000000,
|
|
100000000000100000100000000000200000200000200000,
|
|
100000000000000000100000000000200000000000700000,
|
|
100000000000000000000000000000000800000000000000,
|
|
100000000000000000000000100000100000100000100000,
|
|
000000200000200000000000100000000000200000000000,
|
|
100000000000200000200000000000100000100000100000,
|
|
000000000000000000200000700000000000000800000000,
|
|
100000000000100000100000000000200000000000200000,
|
|
000000100000000000100000000000200000200000000000,
|
|
100000000000100000100000000000200000000000200000,
|
|
000000100000100000100000000000200000200000000000,
|
|
100000000000000000000000100000100000100000100000,
|
|
000000200000200000000000100000000000200000000000,
|
|
100000000000200000200000000000100000100000100000,
|
|
000000000000200000200000700000000000000800000000,
|
|
100000000000100000100000000000200000000000200000,
|
|
000000100000100000100000000000200000200000000000,
|
|
100000000000100000300000000000300000000000600000,
|
|
000000000000000000000000000000000080000000000000,
|
|
200000000000000000000000000000000000000000000000,
|
|
200000000000000000000000000000000000000000000000,
|
|
200000000000000000000000200000000000000000000000,
|
|
200000000000000000000000200000000000000000000000,
|
|
100000000000000000000000200000000000000000000000,
|
|
100000000000000000000000700000000000000800000000,
|
|
100000000000100000100000000000200000200000100000,
|
|
100000000000100000000000200000200000100000000000,
|
|
100000000000100000100000000000200000200000000000,
|
|
100000000000000000000000200000000000000000000000,
|
|
300000300000000000400000000000300000000000300000,
|
|
000000300000300000300000000000000000000000000000,
|
|
#GOGOSTART
|
|
100000000100000000100000000000200000200000100000,
|
|
100000000100000000100000000000200000200000000000,
|
|
100000000100000000100000100000000100000000100000,
|
|
100000100100100000000000300000000000100100100000,
|
|
100000000100000000100000000000200000200000100000,
|
|
100000000200000000400000000000200000200000100000,
|
|
100000100000200000200000000000100000100000300000,
|
|
000000300000300000300000300000000000000000000000,
|
|
#GOGOEND
|
|
500000000000000000000080000000000000100000000000,
|
|
100000100000100000100000000000200000200000000000,
|
|
500000000000000000000000000000000000000000000000,
|
|
000000000000000000000000000000000080000000100000,
|
|
500000000000000000000080000000100000100000100000,
|
|
000000200000200000500000000000000080000000000000,
|
|
100000100000100000100000200000200000200000200000,
|
|
100000100000100000500000000000000080000000100000,
|
|
600000000000000000000000000000000000000000000000,
|
|
000000000000000000000000000080000000100000000000,
|
|
200000100000200000100000200000100000200000100000,
|
|
200000100000200000100000200000100000200000000000,
|
|
100000000000100000100000000000200000200000000000,
|
|
100000000000000000000000100000000000200000000000,
|
|
100000000000100000100000000000200000200000000000,
|
|
100000000000000000000000100000000000200000000000,
|
|
100000100000100000000000200000200000200000000000,
|
|
100000100000100000100000000000200000200000000000,
|
|
700000000000000800000000700000000000000800000000,
|
|
700000000000000800000000700000000000000800000000,
|
|
100000100000100000100000000000200000200000200000,
|
|
000000100000100000100000000000200000200000000000,
|
|
300000000000300000000000000000300000000000400000,
|
|
000000400000000000300000300000000000000000000000,
|
|
200000000000000000200000000000200000200000200000,
|
|
200000000200000000200000000000000000000000000000,
|
|
700000000000000000000000000000000000000000000000,
|
|
000000000000000000000000000000000800000000000000,
|
|
200000000000000000200000000000200000200000200000,
|
|
200000000200000000200000000000000000000000000000,
|
|
700000000000000000000000000000000800000000400000,
|
|
000000400000000000400000000000000000000000000000,
|
|
100000000100
|
|
#GOGOSTART
|
|
000000100000000000200000200000100000,
|
|
100000000100000000100000000000200000200000000000,
|
|
100000000100000000100000100000000100000000100000,
|
|
100000100100100000000000300000000000100100100000,
|
|
100000000100000000100000000000200000200000100000,
|
|
100000000200000000400000000000200000200000100000,
|
|
100000100000200000200000000000100000100000300000,
|
|
000000300000300000300000300000000000000000000000,
|
|
100000100000200000200000000000100000100000300000,
|
|
000000400000400000300000300000000000000000000000,
|
|
#GOGOEND
|
|
200000000000000000000000200000000000000000000000,
|
|
200000000000000000000000200000000000000000000000,
|
|
200000000000000000000000000000000000000000000000,
|
|
200000000000000000000000000000000000000000000000,
|
|
900000000000000000000000000000000000000000000000,
|
|
000000000000000000000000000000000000000000000008,
|
|
|
|
|
|
#END
|
|
|
|
|
|
COURSE:Normal
|
|
LEVEL:5
|
|
BALLOON:7,14,16,6,16
|
|
SCOREDIFF:0
|
|
|
|
|
|
#START
|
|
|
|
|
|
#BARLINEOFF
|
|
,
|
|
|
|
#GOGOSTART
|
|
#BARLINEON
|
|
100000000000000000100000000000000000100000000000,
|
|
100000000000000000100000000000000000100000000000,
|
|
300000000000000000000000300000000000000000000000,
|
|
300000000000000000000000300000000000000000000000,
|
|
100000000000000000100000000000000000100000000000,
|
|
200000000000000000400000000000000000200000000000,
|
|
100000000000000000100000000000100000000000300000,
|
|
000000300000300000300000300000000000000000000000,
|
|
#GOGOEND
|
|
200000000000000000000000200000000000200000000000,
|
|
100000000000100000000000200000000000200000000000,
|
|
100000000000000000100000000000000000200000000000,
|
|
100000000000000000200000000000000000100000000000,
|
|
100000000000000000100000000000000000100000000000,
|
|
200000000000000000200000000000000000200000000000,
|
|
100000000000000000100000000000200000000000700000,
|
|
000000000000000000000000000000000000000000000000,
|
|
000000700000000000000000000000800000000000000000,
|
|
100000000000000000000000100000000000100000100000,
|
|
000000000000200000000000100000000000200000000000,
|
|
100000000000000000100000000000100000000000100000,
|
|
000000000000000000000000200000000000000000000000,
|
|
100000000000100000100000000000200000000000100000,
|
|
000000200000000000100000000000000000000000000000,
|
|
100000000000100000100000000000100000000000200000,
|
|
000000100000000000100000000000000000000000000000,
|
|
100000000000000000000000100000000000100000100000,
|
|
000000000000200000000000100000000000200000000000,
|
|
100000000000000000100000000000100000000000100000,
|
|
000000000000000000200000200000000000000000000000,
|
|
100000000000100000100000000000200000000000100000,
|
|
000000100000000000100000000000000000000000000000,
|
|
100000000000000000300000000000300000000000600000,
|
|
000000000000000000000000000000000080000000000000,
|
|
200000000000000000000000000000000000000000000000,
|
|
000000000000000000000000000000000000000000000000,
|
|
200000000000000000000000000000000000000000000000,
|
|
200000000000000000000000000000000000000000000000,
|
|
100000000000000000000000000000000000000000000000,
|
|
100000000000000000000000000000000000000000000000,
|
|
100000000000000000000000000000000000100000000000,
|
|
100000000000100000000000200000000000200000000000,
|
|
100000000000000000000000000000000000100000000000,
|
|
100000000000000000000000200000000000000000000000,
|
|
300000300000000000400000000000300000000000300000,
|
|
000000300000300000300000000000000000000000000000,
|
|
#GOGOSTART
|
|
100000000000000000100000000000000000100000000000,
|
|
100000000000000000100000000000000000100000000000,
|
|
100000000000000000000000100000000000000000000000,
|
|
100000000000100000000000300000000000000000000000,
|
|
100000000000000000100000000000000000100000000000,
|
|
200000000000000000400000000000000000200000000000,
|
|
100000000000000000100000000000100000000000300000,
|
|
000000300000300000300000300000000000000000000000,
|
|
#GOGOEND
|
|
500000000000000000000080000000000000100000000000,
|
|
100000000000000000100000000000000000000000000000,
|
|
500000000000000000000000000000000000000000000000,
|
|
000000000000000000000000000000000080000000000000,
|
|
500000000000000000000000000000000000000000000000,
|
|
000000000000000000000000000000000080000000000000,
|
|
100000000000100000000000100000000000100000000000,
|
|
100000000000000000500000000000000080000000000000,
|
|
600000000000000000000000000000000000000000000000,
|
|
000000000000000000000000000080000000000000000000,
|
|
100000000000000000000000100000000000000000000000,
|
|
100000000000000000000000100000000000000000000000,
|
|
100000000000000000100000000000000000200000000000,
|
|
100000000000000000000000000000000000200000000000,
|
|
100000000000000000100000000000000000200000000000,
|
|
100000000000000000000000000000000000000000000000,
|
|
100000000000000000000000100000000000000000000000,
|
|
100000000000000000100000000000000000200000000000,
|
|
300000000000000000000000300000000000000000000000,
|
|
300000000000000000000000300000000000000000000000,
|
|
700000000000000000000000000000000000000000000000,
|
|
000000000000000000800000000000000000000000000000,
|
|
300000000000300000000000000000300000000000400000,
|
|
000000400000000000300000300000000000000000000000,
|
|
200000000000000000000000000000000000000000000000,
|
|
200000000000000000000000000000000000000000000000,
|
|
700000000000000000000000000000000000000000000000,
|
|
000000000000000000000000000000800000000000000000,
|
|
200000000000000000000000000000000000000000000000,
|
|
200000000000000000000000000000000000000000000000,
|
|
700000000000000000000000000000800000000000400000,
|
|
000000400000000000400000000000000000000000000000,
|
|
100000000000
|
|
#GOGOSTART
|
|
000000100000000000000000100000000000,
|
|
100000000000000000100000000000000000100000000000,
|
|
100000000000000000000000100000000000000000000000,
|
|
100000000000100000000000300000000000000000000000,
|
|
100000000000000000100000000000000000100000000000,
|
|
200000000000000000400000000000000000200000000000,
|
|
100000000000000000100000000000100000000000300000,
|
|
000000300000300000300000300000000000000000000000,
|
|
100000000000000000100000000000100000000000300000,
|
|
000000300000300000300000300000000000000000000000,
|
|
#GOGOEND
|
|
200000000000000000000000200000000000000000000000,
|
|
200000000000000000000000200000000000000000000000,
|
|
200000000000000000000000000000000000000000000000,
|
|
200000000000000000000000000000000000000000000000,
|
|
900000000000000000000000000000000000000000000000,
|
|
000000000000000000000000000000000000000000000008,
|
|
|
|
|
|
#END
|
|
|
|
|
|
COURSE:Easy
|
|
LEVEL:4
|
|
BALLOON:5,12,12,4,12
|
|
SCOREDIFF:0
|
|
|
|
|
|
#START
|
|
|
|
|
|
#BARLINEOFF
|
|
,
|
|
|
|
#GOGOSTART
|
|
#BARLINEON
|
|
100000000000000000100000000000000000000000000000,
|
|
100000000000000000100000000000000000000000000000,
|
|
300000000000000000000000300000000000000000000000,
|
|
300000000000000000000000300000000000000000000000,
|
|
100000000000000000100000000000000000000000000000,
|
|
200000000000000000400000000000000000000000000000,
|
|
100000000000000000100000000000000000000000300000,
|
|
000000000000300000000000300000000000000000000000,
|
|
#GOGOEND
|
|
100000000000000000000000100000000000000000000000,
|
|
100000000000100000000000100000000000000000000000,
|
|
100000000000000000100000000000000000000000000000,
|
|
200000000000000000200000000000000000000000000000,
|
|
100000000000000000100000000000000000000000000000,
|
|
200000000000000000200000000000000000000000000000,
|
|
100000000000000000100000000000000000000000700000,
|
|
000000000000000000000000000000000000000000000000,
|
|
000000500000000000000000000000800000000000000000,
|
|
100000000000000000000000000000000000000000100000,
|
|
000000000000000000000000200000000000000000000000,
|
|
100000000000000000000000000000000000000000100000,
|
|
000000000000000000000000200000000000000000000000,
|
|
100000000000000000100000000000000000000000100000,
|
|
000000100000000000100000000000000000000000000000,
|
|
100000000000000000100000000000000000000000200000,
|
|
000000200000000000200000000000000000000000000000,
|
|
100000000000000000000000000000000000000000100000,
|
|
000000000000000000000000100000000000000000000000,
|
|
100000000000000000000000000000000000000000100000,
|
|
000000000000000000000000200000000000000000000000,
|
|
100000000000000000100000000000000000000000100000,
|
|
000000100000000000100000000000000000000000000000,
|
|
100000000000000000300000000000300000000000600000,
|
|
000000000000000000000000000080000000000000000000,
|
|
200000000000000000000000000000000000000000000000,
|
|
000000000000000000000000000000000000000000000000,
|
|
200000000000000000000000000000000000000000000000,
|
|
200000000000000000000000000000000000000000000000,
|
|
100000000000000000000000000000000000000000000000,
|
|
100000000000000000000000000000000000000000000000,
|
|
100000000000000000000000000000000000100000000000,
|
|
100000000000000000000000100000000000000000000000,
|
|
100000000000000000000000000000000000100000000000,
|
|
100000000000000000000000200000000000000000000000,
|
|
300000000000000000400000000000300000000000300000,
|
|
000000000000000000300000000000000000000000000000,
|
|
#GOGOSTART
|
|
100000000000000000100000000000000000000000000000,
|
|
100000000000000000100000000000000000000000000000,
|
|
100000000000000000000000100000000000000000000000,
|
|
100000000000000000000000300000000000000000000000,
|
|
100000000000000000100000000000000000000000000000,
|
|
200000000000000000400000000000000000000000000000,
|
|
100000000000000000100000000000000000000000300000,
|
|
000000000000300000000000300000000000000000000000,
|
|
#GOGOEND
|
|
500000000000000000000080000000000000000000000000,
|
|
100000000000000000000000000000000000000000000000,
|
|
500000000000000000000000000000000000000000000000,
|
|
000000000000000000000000000000000080000000000000,
|
|
500000000000000000000000000000000000000000000000,
|
|
000000000000000000000000000080000000000000000000,
|
|
100000000000100000000000100000000000000000000000,
|
|
100000000000000000500000000000000080000000000000,
|
|
600000000000000000000000000000000000000000000000,
|
|
000000000000000000000000000080000000000000000000,
|
|
100000000000000000000000100000000000000000000000,
|
|
100000000000000000000000100000000000000000000000,
|
|
100000000000000000000000000000000000000000000000,
|
|
100000000000000000000000000000000000000000000000,
|
|
200000000000000000000000000000000000000000000000,
|
|
200000000000000000000000000000000000000000000000,
|
|
100000000000000000000000100000000000000000000000,
|
|
100000000000000000000000000000000000000000000000,
|
|
300000000000000000000000300000000000000000000000,
|
|
300000000000000000000000300000000000000000000000,
|
|
700000000000000000000000000000000000000000000000,
|
|
000000000000000000800000000000000000000000000000,
|
|
300000000000300000000000000000300000000000300000,
|
|
000000300000000000000000300000000000000000000000,
|
|
200000000000000000000000000000000000000000000000,
|
|
000000000000000000000000000000000000000000000000,
|
|
700000000000000000000000000000000000000000000000,
|
|
000000000000000000000000000000800000000000000000,
|
|
200000000000000000000000000000000000000000000000,
|
|
000000000000000000000000000000000000000000000000,
|
|
700000000000000000000000000000800000000000400000,
|
|
000000400000000000400000000000000000000000000000,
|
|
100000000000
|
|
#GOGOSTART
|
|
000000100000000000000000000000000000,
|
|
100000000000000000100000000000000000000000000000,
|
|
100000000000000000000000100000000000000000000000,
|
|
100000000000000000000000300000000000000000000000,
|
|
100000000000000000100000000000000000000000000000,
|
|
200000000000000000400000000000000000000000000000,
|
|
100000000000000000100000000000000000000000300000,
|
|
000000000000300000000000300000000000000000000000,
|
|
100000000000000000100000000000000000000000300000,
|
|
000000000000300000000000300000000000000000000000,
|
|
#GOGOEND
|
|
200000000000000000000000000000000000000000000000,
|
|
000000000000000000000000000000000000000000000000,
|
|
200000000000000000000000000000000000000000000000,
|
|
000000000000000000000000000000000000000000000000,
|
|
900000000000000000000000000000000000000000000000,
|
|
000000000000000000000000000000000000000000000008,
|
|
|
|
|
|
#END
|
|
|