594 lines
8.2 KiB
Plaintext
594 lines
8.2 KiB
Plaintext
//TJADB Project
|
|
TITLE:RNG Cinderella
|
|
TITLEJA:乱数調整のリバースシンデレラ
|
|
SUBTITLE:--Soshina feat. Ayana Taketatsu
|
|
SUBTITLEJA:粗品 feat. 彩宮すう(CV:竹達彩奈)
|
|
BPM:170
|
|
WAVE:RNG Cinderella.ogg
|
|
OFFSET:-1.552
|
|
DEMOSTART:60.826
|
|
|
|
COURSE:Edit
|
|
LEVEL:10
|
|
SCOREINIT:480
|
|
SCOREDIFF:118
|
|
|
|
|
|
#START
|
|
|
|
|
|
10101112,
|
|
1010201010201120,
|
|
1010101010101120,
|
|
1010201111201120,
|
|
1110111011101121,
|
|
1110111011101121,
|
|
2022022022022020,
|
|
3000400011111111,
|
|
1010100010210120,
|
|
1021012210210122,
|
|
2021012222110120,
|
|
100000200100000100200000500000000000000080000000,
|
|
2020200020120210,
|
|
2012021120120211,
|
|
1012021111220210,
|
|
2012021011111111,
|
|
10221202,
|
|
2020202011201120,
|
|
1020121020121020,
|
|
1210201020121020,
|
|
12221212,
|
|
1110112012101220,
|
|
2220221021202110,
|
|
11220211,
|
|
10221201,
|
|
2020202011201120,
|
|
12121212,
|
|
1020121021201212,
|
|
1020121021021020,
|
|
1020121021021020,
|
|
12121212,
|
|
1210212012121212,
|
|
1110,
|
|
2220,
|
|
11211212,
|
|
1110222011102220,
|
|
10101114,
|
|
04140441,
|
|
1011101110111011,
|
|
1011101110111011,
|
|
1111111111111111,
|
|
#MEASURE 7/8
|
|
#BPMCHANGE 148.752
|
|
#SCROLL 1.14
|
|
2222222,
|
|
|
|
#GOGOSTART
|
|
#MEASURE 4/4
|
|
#BPMCHANGE 170
|
|
#SCROLL 1
|
|
1020112010201120,
|
|
1020112010201120,
|
|
1121102011211020,
|
|
1122112211112222,
|
|
1020112010201120,
|
|
1020112010201120,
|
|
2210221022212221,
|
|
11112112,
|
|
1011200040001011,
|
|
2000400011211211,
|
|
2000400040221040,
|
|
4022104011211211,
|
|
1111111110101010,
|
|
1111,
|
|
33,
|
|
1020102012121212,
|
|
|
|
#GOGOEND
|
|
1010100010210120,
|
|
#BPMCHANGE 171.348
|
|
#SCROLL 0.99
|
|
1021012210210122,
|
|
#BPMCHANGE 169.848
|
|
#SCROLL 1
|
|
2021012222110120,
|
|
100000200100000100200000500000000000000080000000,
|
|
2020200020120210,
|
|
#BPMCHANGE 169.708
|
|
2012021120120211,
|
|
1012021111220210,
|
|
2012021011111111,
|
|
#BPMCHANGE 170
|
|
5,
|
|
,
|
|
,
|
|
000000000000000000000000000000000000000008000000,
|
|
|
|
#GOGOSTART
|
|
#MEASURE 2/4
|
|
#BPMCHANGE 85
|
|
#SCROLL 0.51
|
|
1010201020102210,
|
|
2011101011212010,
|
|
1010201020101120,
|
|
1022022022022020,
|
|
1010201011201120,
|
|
#BPMCHANGE 86.907
|
|
1211212111212112,
|
|
|
|
#GOGOEND
|
|
#BPMCHANGE 170
|
|
#SCROLL 3
|
|
1,
|
|
|
|
|
|
#END
|
|
|
|
|
|
COURSE:Oni
|
|
LEVEL:8
|
|
BALLOON:13,16,14
|
|
SCOREINIT:580
|
|
SCOREDIFF:143
|
|
|
|
|
|
#START
|
|
|
|
|
|
1020100010021020,
|
|
1001002010021020,
|
|
1020100010021020,
|
|
1002201000202220,
|
|
1020100010021020,
|
|
1002002010020020,
|
|
1001002010010020,
|
|
7008,
|
|
1000200010010020,
|
|
1001002011012010,
|
|
1000200010010020,
|
|
1012012011012020,
|
|
1000200010020020,
|
|
1002002012022020,
|
|
1000200010020020,
|
|
500000000000000000000000000000000008000000000000,
|
|
1000202011101020,
|
|
1000201020112020,
|
|
1000201010111020,
|
|
1000201110102020,
|
|
1010222010102220,
|
|
2010201022102010,
|
|
1110202011102020,
|
|
500000000000000000000000000000000008000000000000,
|
|
1000202011101020,
|
|
1000201020112020,
|
|
1010202010111020,
|
|
1000201110102020,
|
|
1010222010102220,
|
|
2010201022102010,
|
|
1110222011102220,
|
|
500000000000000000000000000000000008000000000000,
|
|
1110201020102000,
|
|
1110201020102000,
|
|
3232,
|
|
600000000000000000000000000000000008000000000000,
|
|
1110111020101020,
|
|
02020210,
|
|
1011101110111010,
|
|
1011101110111110,
|
|
7,
|
|
#MEASURE 7/8
|
|
#BPMCHANGE 148.752
|
|
#SCROLL 1.14
|
|
8,
|
|
|
|
#GOGOSTART
|
|
#MEASURE 4/4
|
|
#BPMCHANGE 170
|
|
#SCROLL 1
|
|
1020102010210120,
|
|
1102102010221020,
|
|
1020102010210120,
|
|
3022203000222220,
|
|
1020102010210120,
|
|
1102102011021020,
|
|
1021012010210120,
|
|
500000000000000000000000000008000000000000000000,
|
|
1002102010221020,
|
|
1102102011021020,
|
|
1002102010221020,
|
|
3021203000221220,
|
|
1002102010221020,
|
|
1102102011021020,
|
|
1021012010210120,
|
|
7008,
|
|
|
|
#GOGOEND
|
|
1000200010010020,
|
|
#BPMCHANGE 171.348
|
|
#SCROLL 0.99
|
|
1001002011021020,
|
|
#BPMCHANGE 169.848
|
|
#SCROLL 1
|
|
1000200010010020,
|
|
1001002012012020,
|
|
1000200010020020,
|
|
#BPMCHANGE 169.708
|
|
1002002012022020,
|
|
1000200010020020,
|
|
500000000000000000000000000000000008000000000000,
|
|
#BPMCHANGE 170
|
|
3010101012101010,
|
|
1010101210101010,
|
|
3010101012101010,
|
|
1010101210101000,
|
|
|
|
#GOGOSTART
|
|
#MEASURE 2/4
|
|
#BPMCHANGE 85
|
|
#SCROLL 2
|
|
1022202011021020,
|
|
1102102210221020,
|
|
1022202011021020,
|
|
1102102210221222,
|
|
1022202011021020,
|
|
#BPMCHANGE 86.907
|
|
#SCROLL 1.96
|
|
1102102210221220,
|
|
|
|
#GOGOEND
|
|
#BPMCHANGE 170
|
|
#SCROLL 1
|
|
3,
|
|
|
|
|
|
#END
|
|
|
|
|
|
COURSE:Hard
|
|
LEVEL:6
|
|
BALLOON:10,12,11
|
|
SCOREINIT:600
|
|
SCOREDIFF:150
|
|
|
|
|
|
#START
|
|
|
|
|
|
1000100010010020,
|
|
1001002010001020,
|
|
1020100010010020,
|
|
10210222,
|
|
1000100010020020,
|
|
1002002010020020,
|
|
1001002010010020,
|
|
7008,
|
|
1000200010010020,
|
|
1001002010002000,
|
|
1000200010010020,
|
|
1001002010010020,
|
|
1000200010020020,
|
|
1002002010020020,
|
|
1000200010020020,
|
|
500000000000000000000000000000000008000000000000,
|
|
10201112,
|
|
10201122,
|
|
10201112,
|
|
10211120,
|
|
11221120,
|
|
21212120,
|
|
11221122,
|
|
500000000000000000000000000000000008000000000000,
|
|
10201112,
|
|
10201122,
|
|
10201112,
|
|
10211120,
|
|
11221120,
|
|
21212120,
|
|
11221122,
|
|
500000000000000000000000000000000008000000000000,
|
|
10212120,
|
|
10212120,
|
|
3232,
|
|
600000000000000000000000000000000008000000000000,
|
|
10102112,
|
|
02020210,
|
|
1010101010111000,
|
|
1010101110111000,
|
|
9,
|
|
#BPMCHANGE 148.752
|
|
#MEASURE 7/8
|
|
#SCROLL 1.14
|
|
8,
|
|
#BPMCHANGE 170
|
|
#MEASURE 4/4
|
|
#GOGOSTART
|
|
#SCROLL 1
|
|
1000100010010020,
|
|
1001002010001020,
|
|
1020102010010020,
|
|
30230222,
|
|
1000100010020020,
|
|
1002002010020020,
|
|
1001002010010020,
|
|
500000000000000000000000000008000000000000000000,
|
|
1000102010111000,
|
|
1020102010111000,
|
|
1000102010111000,
|
|
30230222,
|
|
1000102010111000,
|
|
1020102010111000,
|
|
1000102010111000,
|
|
7008,
|
|
#GOGOEND
|
|
1000200010010020,
|
|
#BPMCHANGE 171.348
|
|
#SCROLL 0.99
|
|
1001002010002000,
|
|
#BPMCHANGE 169.848
|
|
#SCROLL 1
|
|
1000200010010020,
|
|
1001002010010020,
|
|
1000200010020020,
|
|
#BPMCHANGE 169.708
|
|
1002002010020020,
|
|
1000200010020020,
|
|
500000000000000000000000000000000008000000000000,
|
|
#BPMCHANGE 170
|
|
31101110,
|
|
11110110,
|
|
31101110,
|
|
11110110,
|
|
#BPMCHANGE 85
|
|
#MEASURE 2/4
|
|
#GOGOSTART
|
|
#SCROLL 2
|
|
1020100010111010,
|
|
12101212,
|
|
1020100010111010,
|
|
12101212,
|
|
1020100010111010,
|
|
#BPMCHANGE 86.907
|
|
#SCROLL 1.95
|
|
12101212,
|
|
#BPMCHANGE 170
|
|
#MEASURE 16/4
|
|
#GOGOEND
|
|
#SCROLL 1
|
|
3,
|
|
|
|
|
|
#END
|
|
|
|
|
|
COURSE:Normal
|
|
LEVEL:5
|
|
BALLOON:8,9,8
|
|
SCOREINIT:680
|
|
SCOREDIFF:190
|
|
|
|
|
|
#START
|
|
|
|
|
|
1110,
|
|
1011,
|
|
1110,
|
|
10110220,
|
|
1110,
|
|
22,
|
|
1110,
|
|
7008,
|
|
1210,
|
|
1001001010000000,
|
|
1210,
|
|
2002002020000000,
|
|
1210,
|
|
1001001010000000,
|
|
1210,
|
|
500000000000000000000000000000000008000000000000,
|
|
10001110,
|
|
1210,
|
|
10101110,
|
|
12,
|
|
1212,
|
|
10102220,
|
|
1212,
|
|
500000000000000000000000000000000008000000000000,
|
|
10001110,
|
|
1210,
|
|
10101110,
|
|
12,
|
|
1212,
|
|
10102220,
|
|
1212,
|
|
500000000000000000000000000000000008000000000000,
|
|
1222,
|
|
1222,
|
|
3232,
|
|
600000000000000000000000000000000008000000000000,
|
|
10000012,
|
|
02020200,
|
|
11101110,
|
|
11111110,
|
|
9,
|
|
#BPMCHANGE 148.752
|
|
#MEASURE 7/8
|
|
#SCROLL 1.14
|
|
8,
|
|
#BPMCHANGE 170
|
|
#MEASURE 4/4
|
|
#GOGOSTART
|
|
#SCROLL 1
|
|
1110,
|
|
1001001010000000,
|
|
1110,
|
|
30030222,
|
|
1110,
|
|
1001001010000000,
|
|
1001001010000000,
|
|
500000000000000000000000000008000000000000000000,
|
|
1111,
|
|
20112010,
|
|
1111,
|
|
30030220,
|
|
1111,
|
|
20112010,
|
|
10101110,
|
|
7008,
|
|
#GOGOEND
|
|
1110,
|
|
#BPMCHANGE 171.348
|
|
#SCROLL 0.99
|
|
1001001010000000,
|
|
#BPMCHANGE 169.848
|
|
#SCROLL 1
|
|
1110,
|
|
1001001010010010,
|
|
1110,
|
|
#BPMCHANGE 169.708
|
|
2002002020000000,
|
|
1110,
|
|
500000000000000000000000000000000008000000000000,
|
|
#BPMCHANGE 170
|
|
30101110,
|
|
1111,
|
|
30101110,
|
|
10101110,
|
|
#BPMCHANGE 85
|
|
#MEASURE 2/4
|
|
#GOGOSTART
|
|
#SCROLL 2
|
|
11101110,
|
|
10102220,
|
|
11101110,
|
|
10102220,
|
|
11101110,
|
|
#BPMCHANGE 86.907
|
|
#SCROLL 1.95
|
|
10102220,
|
|
#BPMCHANGE 170
|
|
#MEASURE 16/4
|
|
#GOGOEND
|
|
#SCROLL 1
|
|
3,
|
|
|
|
|
|
#END
|
|
|
|
|
|
COURSE:Easy
|
|
LEVEL:3
|
|
BALLOON:6,6,7,6
|
|
SCOREINIT:730
|
|
SCOREDIFF:270
|
|
|
|
|
|
#START
|
|
|
|
|
|
11,
|
|
1,
|
|
11,
|
|
1,
|
|
11,
|
|
22,
|
|
11,
|
|
7008,
|
|
11,
|
|
1,
|
|
11,
|
|
22,
|
|
11,
|
|
1,
|
|
11,
|
|
500000000000000000000000000008000000000000000000,
|
|
1,
|
|
1,
|
|
11,
|
|
1,
|
|
11,
|
|
22,
|
|
11,
|
|
500000000000000000000000000008000000000000000000,
|
|
1,
|
|
1,
|
|
11,
|
|
1,
|
|
11,
|
|
22,
|
|
11,
|
|
500000000000000000000000000000000008000000000000,
|
|
0111,
|
|
0222,
|
|
33,
|
|
600000000000000000000000000008000000000000000000,
|
|
10000007,
|
|
00000800,
|
|
1011,
|
|
1011,
|
|
9,
|
|
#BPMCHANGE 148.752
|
|
#MEASURE 7/8
|
|
#SCROLL 1.14
|
|
8,
|
|
#BPMCHANGE 170
|
|
#MEASURE 4/4
|
|
#GOGOSTART
|
|
#SCROLL 1
|
|
1110,
|
|
22,
|
|
1110,
|
|
3,
|
|
1110,
|
|
22,
|
|
1110,
|
|
500000000000000000000000000008000000000000000000,
|
|
1111,
|
|
22,
|
|
1111,
|
|
3,
|
|
1111,
|
|
22,
|
|
1111,
|
|
7008,
|
|
#GOGOEND
|
|
11,
|
|
#BPMCHANGE 171.348
|
|
#SCROLL 0.99
|
|
1,
|
|
#BPMCHANGE 169.848
|
|
#SCROLL 1
|
|
11,
|
|
1,
|
|
11,
|
|
#BPMCHANGE 169.708
|
|
22,
|
|
11,
|
|
500000000000000000000000000008000000000000000000,
|
|
#BPMCHANGE 170
|
|
3011,
|
|
1110,
|
|
3011,
|
|
12,
|
|
#BPMCHANGE 85
|
|
#MEASURE 2/4
|
|
#GOGOSTART
|
|
#SCROLL 2
|
|
11,
|
|
1011,
|
|
11,
|
|
1011,
|
|
11,
|
|
#BPMCHANGE 86.907
|
|
#SCROLL 1.95
|
|
1011,
|
|
#BPMCHANGE 170
|
|
#MEASURE 16/4
|
|
#GOGOEND
|
|
#SCROLL 1
|
|
3,
|
|
|
|
|
|
#END
|
|
|