Files
TJA-by-song-no/tja/1037.tja
2026-03-04 23:59:27 +09:00

989 lines
14 KiB
Plaintext

//TJADB Project
TITLE:BATTLE NO. 1
TITLEJA:BATTLE NO.1
SUBTITLE:--TANO*C Sound Team
SUBTITLEJA:TANO*C Sound Team
BPM:200
WAVE:BATTLE NO. 1.ogg
OFFSET:-1.629
DEMOSTART:42.427
COURSE:Oni
LEVEL:10
BALLOON:9
SCOREINIT:1020
SCOREDIFF:0
#START
500800000000500800000000500800000000500800000000,
3034,
#SECTION
#BRANCHSTART r,1,2
#N
#GOGOSTART
10101011,
1000100020102011,
10201120,
#GOGOEND
30214040,
#GOGOSTART
30103011,
300000000000200000300000000000200000500800000000,
100100100100101010101010,
#GOGOEND
3002,
#E
#GOGOSTART
10101011,
1000100020102011,
1000200010102011,
#GOGOEND
10214140,
#GOGOSTART
30123011,
300000000000200000300000000000200000500800000000,
100100200200101010202020,
#GOGOEND
3002,
#M
#GOGOSTART
110000110000110000110100,
101000000000101000000000200000100000200000100100,
101000000000200000000000101000100000200000100100,
#GOGOEND
1000201021112000,
#GOGOSTART
110000110200110000110100,
101000000000200000101000000000200000500800000000,
100100200200101010202020,
#GOGOEND
110000000000000000200000,
#SECTION
#BRANCHSTART r,1,2
#N
11102022,
1120,
11102022,
1000101020020020,
11212021,
10212012,
100000100000100000100000200200000200200000500800,
00001140,
#E
11102022,
1000101022201000,
1010100020022020,
1110101020021020,
1010201020022010,
2110201020021020,
200100100000200100100000200100000200100000500800,
00003140,
#M
11102022,
1000101022201220,
1010100020022020,
1110101020021020,
1010201022022010,
2110201021021020,
200100100000200100100000201010000201010000500800,
000000000011100100400000,
#SECTION
#BRANCHSTART r,1,2
#N
#GOGOSTART
1022102010201020,
1022202030404040,
1022102010201020,
1111101111104000,
1022102010201020,
1022202030404040,
300000000000300000000000300000000000400000500800,
0040403000222000,
#E
#GOGOSTART
1022102010201120,
1021202010404040,
1022102010201120,
1111101111102222,
1022102010201120,
1021202010404040,
300000000000300000000000300000200200200000500800,
0040403000112000,
#M
#GOGOSTART
1022112010201120,
1021212010404040,
1022112010201120,
1121101121102222,
1022112010201120,
1021212010404040,
300000000000300000000000300000100100200000500800,
000000201010200000300000000000100200200000000000,
#SECTION
#BRANCHSTART r,1,2
#N
#GOGOEND
3000200200202011,
1000200200201110,
1000200200202011,
1000202030030000,
500800000000200000000200000000200000000200000000,
2002002002002020,
1010101011111111,
1001001001003000,
#E
#GOGOEND
3000200200202011,
1010200200202110,
1010200200202011,
2110202030030000,
500800000000400000000200000000300000000100000000,
4002003001004020,
3030404011221122,
1001002002003000,
#M
#GOGOEND
101000000000200000000200000100200000200000100100,
2110200201202120,
101000100000200000000200000100200000200000100100,
2111202030030000,
500800000000202000000200000000101000000100000000,
202000000200000000101000000100000000202000200000,
101000101000202000202000100100200200100100200200,
1001002002003000,
#SECTION
#BRANCHSTART r,1,2
#N
#GOGOSTART
1000102011201020,
1120201000221020,
1000102011201022,
21120121,
1020102011201020,
000000200200100000200000300000400000000040000000,
300000000000100000200000100100200000100000500800,
#GOGOEND
02211240,
#E
#GOGOSTART
1000102011221020,
1120201000221020,
1000102011201022,
2210102000102210,
1220102011221020,
000000202020100000200000300000400000000040000000,
300000000000100000200000100100200200100000500800,
#GOGOEND
02211240,
#M
#GOGOSTART
1200102011221020,
100100200000200000101000000000200200100000200000,
1100102011201022,
200200100000100000202000000000100000200200100000,
100200200000100000200000100100200200100000202000,
000000202010100000200000300000400000000040000000,
300000000000100000200000100100200200100000500800,
#GOGOEND
000200200100100200220000,
#SECTION
#BRANCHSTART r,1,2
#N
#GOGOSTART
30212022,
1020102010221020,
3022202010201020,
0020102010221000,
30212022,
1020102010221020,
300000200200200000200000100000200000100000500800,
0020102010222000,
#E
#GOGOSTART
3000201020112020,
100000200200100000200000100000202020100000200000,
3021202012101020,
0020102011221000,
3000201020112020,
100000200200100000200000100000202020100000200000,
300000200100200000200000100200100000100000500800,
000200100200100222200000,
#M
#GOGOSTART
3000201020112020,
100000200200100100200000100000102020100000200000,
3021202012121020,
0020112011221000,
3000201020112020,
100000200200100100200000100000102020100000200000,
300000200100200000200000100200100200100000500800,
000000200000100200200000100100202020200000000000,
#SECTION
#BRANCHSTART r,1,2
#N
#GOGOEND
2020202220202020,
01212120,
2020202220202020,
02221222,
10101012,
1000200010001022,
100000000000200000100100100000100000200000500800,
000000300000300000000000600000000008000000000000,
#E
#GOGOEND
2020101220202020,
01212120,
2020101220201020,
02221222,
10101012,
1000200010001122,
100000000000200000100000100100100100200000500800,
000000300000300000000000600000000008000000000000,
#M
#GOGOEND
202000200000100000100200200000200000200000202000,
01212120,
202000200000100000100200200000200000100000202000,
000220200200100200200200,
110000100000100000100220,
1000200010001122,
101000000000200000100000100100100100200000500800,
000300300000111100400000,
#SECTION
#BRANCHSTART r,1,2
#N
#GOGOSTART
30303230,
31313033,
30303230,
300000300000400000000000300000300000500800000000,
03333030,
31313033,
3000111030001110,
30302140,
#E
#GOGOSTART
31303230,
31323033,
31303230,
300000100000400000000000300000100000500800000000,
03333030,
31323033,
3000111030001111,
10304140,
#M
#GOGOSTART
110100110000110200110000,
110100110200110000110110,
110100110000110200110000,
101000100000202000000000101000100000500800000000,
000110110110110000110000,
110100110200110000110110,
101000000000100100100000101000000000100100100100,
101000000000101000100000202000100100200000000000,
#SECTION
#BRANCHSTART r,1,2
#N
#GOGOEND
11112011,
21102020,
11112011,
21104040,
11401140,
1022102211104000,
300000000300000000300000000300000000500800000000,
1111111111112000,
#E
#GOGOEND
11312011,
21302020,
11312011,
21304040,
11401140,
1022102212104000,
100000200100000200100000200100100200500800000000,
2222222211112000,
#M
#GOGOEND
100100110100200000100100,
200100110000200000200000,
100100110100200000100100,
200100110000210100300000,
110100400000110100400000,
101000200200101000200200100200100000400000000000,
100200200100200200100200200100200200500800000000,
2212212211112000,
#SECTION
#BRANCHSTART r,1,2
#N
#GOGOSTART
1011102010022020,
1022102010022020,
1002102011201020,
1110111030004000,
1020102010201022,
1020102010222000,
300000100000300000100000300000100000500800000000,
7008,
#E
#GOGOSTART
1111102011021020,
1122102011021020,
1102102011201020,
1122112210002222,
1020102010201122,
1020102010222000,
100200100000100200100000100200100000500800000000,
101010100000101010100000101010100000200200200200,
#M
#GOGOSTART
1111102212021020,
100100200200100000200200100200000200100000201010,
1202102011201020,
100100200200100100200200101000000000200200200200,
1020112010201122,
1020112010222000,
100200100200100200100200100200100000500800000000,
201010200000201010200000201010200000200100100200,
#SECTION
#BRANCHSTART r,1,2
#N
#GOGOEND
11112222,
1134,
#GOGOSTART
3011101011101000,
3011101011102000,
#GOGOEND
12121222,
100000100000200000200000300000000000500800000000,
#GOGOSTART
3022202022202000,
3022202022204000,
#E
#GOGOEND
11112222,
11113040,
#GOGOSTART
3012101012102000,
300111100100111100200000,
#GOGOEND
12121222,
100000100000200000200000300000200000500800000000,
#GOGOSTART
3021201021202000,
300222200100222200400000,
#M
#GOGOEND
11112222,
100100100100210000400000,
#GOGOSTART
3012101012101220,
300112100100112100112200,
#GOGOEND
12121222,
100000100000200000200000102000200000500800000000,
#GOGOSTART
3021201021202120,
300221200100221200400000,
#SECTION
#BRANCHSTART r,1,2
#N
#GOGOEND
30201212,
30201240,
30201212,
3211,
30203022,
300000000000300000000000300000000000500800000000,
1111111111111111,
1334,
#E
#GOGOEND
3000201110201020,
3000201110204000,
3000201110201020,
3000211110001000,
30203022,
300000200000300000200000300000000000500800000000,
1111111122222222,
100000000000300000000000600008000000400000000000,
#M
#GOGOEND
3000201110201020,
300000000000200000100100100000200000101000000000,
3000201110201020,
300000000000200100100100101000000000101000000000,
300000220000300000220200,
300000200000300000200000300000000000500800000000,
2121212122222222,
100000000000300000000000600008000000400000000000,
#SECTION
#BRANCHSTART r,1,2
#N
#GOGOSTART
3000202010112020,
1022202030004000,
31203120,
32323040,
12301230,
12401240,
1120102011201020,
600000000000000000000000000008000000400000000000,
#E
#GOGOSTART
3011202010112020,
1022202011104000,
3010222030102220,
1122112210004000,
1020112010201120,
1020122010201220,
1120122011201220,
600000000000000000000000000008000000400000000000,
#M
#GOGOSTART
3011202210112022,
1022202011112000,
3010212030112120,
1122112210004000,
100200110200100200110200,
100200120200100200120200,
110200120200110200120200,
100100200000200000600000000008000000400000000000,
#BRANCHEND
#GOGOEND
#END
COURSE:Hard
LEVEL:6
BALLOON:17,12,12,9
SCOREINIT:2100
SCOREDIFF:0
#START
,
,
#GOGOSTART
10101011,
10102121,
10201120,
#GOGOEND
10214040,
#GOGOSTART
10201011,
10210210,
100100100000101010100000,
#GOGOEND
3,
10102011,
1120,
11102011,
10112000,
11102011,
10112000,
11112011,
0014,
#GOGOSTART
12121012,
12103444,
12121012,
500000000008000000500000000008000000400000000000,
12121012,
12103444,
7,
08,
#GOGOEND
1000200200201000,
0000200200201000,
0000200200202000,
00223000,
1000200200200200,
2002002002002020,
7,
8,
#GOGOSTART
10201120,
10220220,
10201122,
02220020,
10201122,
000100100000400400004000,
30001122,
#GOGOEND
02211020,
#GOGOSTART
30201022,
10121212,
500000000000000000000000000000000000000000000008,
,
30201022,
10121212,
500000000000000000000000000000000000000000000008,
,
#GOGOEND
20002222,
0022,
20002222,
02222020,
10101012,
10201022,
10201212,
03303000,
#GOGOSTART
30303230,
31303033,
30303230,
33404430,
03333030,
31303033,
30433043,
3344,
#GOGOEND
11112011,
01102020,
11112011,
01104040,
11201120,
12121120,
7,
8,
#GOGOSTART
12121020,
12121020,
10201120,
11111040,
12121212,
12121230,
500000000000000000000000000000000008000000000000,
7008,
#GOGOEND
10102220,
1140,
#GOGOSTART
33334430,
33334430,
#GOGOEND
10102220,
1140,
#GOGOSTART
33334430,
33334430,
#GOGOEND
10201212,
10201210,
10201212,
1211,
3232,
3333,
600000000000000000000000000000000000000000008000,
0334,
#GOGOSTART
10201120,
12121020,
3232,
32323040,
10401040,
11401140,
34343434,
600000000000000000000000000008000000400000000000,
#GOGOEND
#END
COURSE:Normal
LEVEL:6
BALLOON:10,21,8,7,5
SCOREINIT:2830
SCOREDIFF:0
#START
,
,
#GOGOSTART
10101011,
1120,
10101110,
#GOGOEND
1044,
#GOGOSTART
10101011,
10220220,
500000000000000000000000000000000000000000000008,
#GOGOEND
,
12,
1120,
1121,
10112000,
11102010,
10112000,
11102011,
,
#GOGOSTART
11101010,
10103330,
11101010,
500000000008000000500000000008000000000000000000,
11101010,
10103330,
7,
08,
#GOGOEND
1000200200002000,
0000200200002000,
0000200200002000,
0230,
7,
,
,
8,
#GOGOSTART
10101110,
10220020,
10101011,
00220020,
10101011,
00204400,
30001011,
#GOGOEND
0224,
#GOGOSTART
10101011,
10111110,
500000000000000000000000000000000000000000000008,
,
10101011,
10111110,
500000000000000000000000000000000000000000000008,
,
#GOGOEND
20002022,
0022,
20002022,
02,
1112,
1112,
7,
8,
#GOGOSTART
3333,
34303033,
3333,
33304040,
03303030,
34303033,
3434,
3344,
#GOGOEND
10112011,
0122,
10112011,
0140,
1212,
10101110,
7,
8,
#GOGOSTART
10111020,
10111020,
10101110,
11104000,
12121020,
12121020,
500000000000000000000000000000000008000000000000,
70000800,
#GOGOEND
12,
1140,
#GOGOSTART
30303330,
30303330,
#GOGOEND
12,
1140,
#GOGOSTART
30303330,
30303330,
#GOGOEND
10001210,
10001210,
10001210,
12,
33,
3333,
600000000000000000000000000000000000000000008000,
0330,
#GOGOSTART
10201120,
11102000,
1212,
12121000,
1212,
11201120,
12121212,
1004,
#GOGOEND
#END
COURSE:Easy
LEVEL:4
BALLOON:8,18,6,6,5
SCOREINIT:4340
SCOREDIFF:0
#START
,
,
#GOGOSTART
1111,
12,
1111,
#GOGOEND
12,
#GOGOSTART
1111,
1,
500000000000000000000000000000000000000000000008,
#GOGOEND
,
12,
1120,
12,
1120,
12,
1120,
1121,
,
#GOGOSTART
1111,
13,
1111,
500000000008000000500000000008000000000000000000,
1111,
13,
7,
08,
#GOGOEND
1202,
0202,
0202,
0230,
7,
,
,
8,
#GOGOSTART
1011,
0202,
1011,
0202,
1011,
04,
3011,
#GOGOEND
02,
#GOGOSTART
1111,
1111,
500000000000000000000000000000000000000000000008,
,
1111,
1111,
500000000000000000000000000000000000000000000008,
,
#GOGOEND
22,
02,
22,
02,
1110,
1110,
7,
8,
#GOGOSTART
3333,
3330,
3333,
3044,
0333,
3330,
3333,
34,
#GOGOEND
1021,
02,
1021,
02,
11,
1110,
7,
8,
#GOGOSTART
1120,
1120,
1111,
12,
1111,
1110,
500000000000000000000000000000000008000000000000,
,
#GOGOEND
12,
1120,
#GOGOSTART
3330,
3330,
#GOGOEND
12,
1120,
#GOGOSTART
3330,
3330,
#GOGOEND
1011,
11,
1011,
12,
33,
3333,
600000000000000000000000000000000000000000008000,
0330,
#GOGOSTART
1212,
12,
33,
3330,
1212,
1210,
3333,
3004,
#GOGOEND
#END