844 lines
10 KiB
Plaintext
844 lines
10 KiB
Plaintext
//TJADB Project
|
|
TITLE:Byoudouin Houou-Don ℣ Chojugi-Katsu
|
|
TITLEJA:平等院鳳凰ドン vs 鳥獣戯カッ
|
|
SUBTITLE:--Taiko de Time Travel Heian / Yuuya Kobayashi (IOSYS) feat. miko
|
|
SUBTITLEJA:太鼓 de タイムトラベル平安 / コバヤシユウヤ(IOSYS) feat. miko
|
|
BPM:80
|
|
WAVE:Byoudouin Houou-Don vs Chojugi-Katsu.ogg
|
|
OFFSET:-3.031
|
|
DEMOSTART:67.221
|
|
|
|
//SONG_ID: 20thei
|
|
//shinuchi: 4580/2720/2070/1600/880
|
|
|
|
COURSE:Edit
|
|
LEVEL:10
|
|
BALLOON:
|
|
SCOREINIT:300,910
|
|
SCOREDIFF:75
|
|
|
|
#START
|
|
11212210,
|
|
#MEASURE 51/64
|
|
200020000000000000000000000000000000000000000000000000000000000000000000000000000000000000000000000000000000000000000000000000000000000000000000000000000,
|
|
#MEASURE 4/4
|
|
#BPMCHANGE 200
|
|
2222111122104000, //3
|
|
|
|
#GOGOSTART
|
|
1011201120111010,
|
|
2022102210222020,
|
|
1011201120111010,
|
|
1212121030004000, //7
|
|
|
|
1011201120111010,
|
|
2022102210222020,
|
|
1011201120111010,
|
|
0021212040003000, //11
|
|
#GOGOEND
|
|
|
|
2022202022222020,
|
|
200000000222200000000000,
|
|
#BPMCHANGE 100
|
|
1111010110111012,
|
|
1111022220102010, //15
|
|
|
|
110100100100110000000000110000200000110000200000,
|
|
110100100100110000000000110000200000110000200000,
|
|
1111010010112012,
|
|
1111022220101110, //19
|
|
|
|
#GOGOSTART
|
|
110100100100110000000000110000200000110000200000,
|
|
110100100100110000000000110000200000110000200000,
|
|
#GOGOEND
|
|
#BPMCHANGE 150
|
|
2222111122112211,
|
|
2220200000002220, //23
|
|
|
|
400000100002200000100202,
|
|
200000100002200202100202,
|
|
200222200202200202200202,
|
|
100200200102200200100000,
|
|
200222200202200202200202,
|
|
100200200102200200100000, //29
|
|
|
|
#GOGOSTART
|
|
200200200000400000000000202020202020200000000000,
|
|
200200200000400000000000202020202020100000000000,
|
|
#GOGOEND
|
|
200002200002200202200202,
|
|
200002200002200202200222, //33
|
|
|
|
2220200000002220,
|
|
#BPMCHANGE 200
|
|
2211221122112211,
|
|
1000102012221010,
|
|
2000201021112012,
|
|
1012101210121212,
|
|
1121104040000000, //39
|
|
|
|
#GOGOSTART
|
|
1000102011221020,
|
|
1122122210001111,
|
|
2000201022112010,
|
|
2211211120002222, //43
|
|
|
|
1022112011221020,
|
|
100200200200100100100200100000202020200000200000,
|
|
1010222010102222,
|
|
0030403040111222, //47
|
|
|
|
1011202210112022,
|
|
1011202211221122,
|
|
2022101120221011,
|
|
2022101122112211, //51
|
|
|
|
1011202210112022,
|
|
1011202211221122,
|
|
1010111122222020,
|
|
343
|
|
#GOGOEND
|
|
4, //55
|
|
|
|
#BPMCHANGE 180
|
|
2022101022221110,
|
|
1001201121102110,
|
|
000000100100200100100200100100200200500008000000,
|
|
1001201121102110, //59
|
|
|
|
000000100100200100100200100100200100500008000000,
|
|
1001201221102110,
|
|
000000100200200100200200100200100200500008000000,
|
|
1001201221102110, //63
|
|
|
|
#BPMCHANGE 200
|
|
#SCROLL 0.9
|
|
4,
|
|
#SCROLL 1
|
|
4000400040002222,
|
|
1222122212221220,
|
|
4000400040002222, //67
|
|
|
|
1222122212221210,
|
|
3000300030002222,
|
|
1010220220221220,
|
|
3000300030002222, //71
|
|
|
|
1020220220202222,
|
|
1000102012221010,
|
|
2000201021112012,
|
|
1012101210121212,
|
|
1121104040000000, //76
|
|
|
|
#GOGOSTART
|
|
3000102011221020,
|
|
3020302030001111,
|
|
2000201022112010,
|
|
2211211120002222, //80
|
|
|
|
1022112011221020,
|
|
100200200200100100100200100000202020200000200000,
|
|
1010222010102222,
|
|
0030403040111222,//84
|
|
|
|
1011202210112022,
|
|
1011202211221122,
|
|
2022101120221011,
|
|
2022101122112211, //88
|
|
|
|
1011202210112022,
|
|
1011202211221122,
|
|
1010111122222020,
|
|
343
|
|
#GOGOEND
|
|
4, //92
|
|
|
|
#GOGOSTART
|
|
1011201120221010,
|
|
2022102210112020,
|
|
1011201120221010,
|
|
1212121030004000, //96
|
|
|
|
1011201120221010,
|
|
2022102210112020,
|
|
1011201120221010,
|
|
1112221112221112, //100
|
|
|
|
1122112212121122,
|
|
2211221121212121,
|
|
#GOGOEND
|
|
0
|
|
#GOGOSTART
|
|
400,
|
|
#GOGOEND
|
|
0, //104
|
|
#END
|
|
|
|
|
|
COURSE:Oni
|
|
LEVEL:7
|
|
BALLOON:20,6,6
|
|
SCOREINIT:480,1780
|
|
SCOREDIFF:123
|
|
|
|
#START
|
|
11221220,
|
|
#MEASURE 51/64
|
|
700000000000000000000000000000000000000080000000000,
|
|
#MEASURE 4/4
|
|
#BPMCHANGE 200
|
|
0, //3
|
|
|
|
#GOGOSTART
|
|
1000102010212010,
|
|
2000201020121020,
|
|
1000102010212010,
|
|
34343000, //7
|
|
|
|
1000102010212010,
|
|
2000201020121020,
|
|
1000102010212010,
|
|
03434000, //11
|
|
#GOGOEND
|
|
|
|
0,
|
|
0,
|
|
#BPMCHANGE 100
|
|
1111000000001000,
|
|
1111000000000000, //15
|
|
|
|
110000000000110000000000110000000000110000000000,
|
|
110000000000110000000000110000000000110000000000,
|
|
1111000000001000,
|
|
1111000000000000, //19
|
|
|
|
#GOGOSTART
|
|
7833,
|
|
7833,
|
|
#GOGOEND
|
|
#BPMCHANGE 150
|
|
0,
|
|
2220200000002220, //23
|
|
|
|
4,
|
|
0,
|
|
2022202022202020,
|
|
2220000020200000,
|
|
2022202022202020,
|
|
2220000020200000, //29
|
|
|
|
#GOGOSTART
|
|
2220200040404000,
|
|
2220200040404000,
|
|
#GOGOEND
|
|
2000200020222220,
|
|
2000000000000022, //33
|
|
|
|
2220200000002220,
|
|
#BPMCHANGE 200
|
|
#SCROLL 0.75
|
|
4,
|
|
#SCROLL 1
|
|
500000000000000000000000000008000000000000000000,
|
|
500000000000000000000000000008000000000000100200,
|
|
12121212,
|
|
30044000, //39
|
|
|
|
#GOGOSTART
|
|
1000102010221020,
|
|
12121011,
|
|
2000201020112010,
|
|
20202022, //43
|
|
|
|
1020112010221020,
|
|
12121011,
|
|
2022101020221010,
|
|
000000500000000000000000000000000000000008000000, //47
|
|
|
|
0000100011101000,
|
|
1000201000112010,
|
|
0000200022202000,
|
|
2000102000221020, //51
|
|
|
|
0000100011101000,
|
|
1000201000112010,
|
|
10112222,
|
|
343
|
|
#GOGOEND
|
|
0, //55
|
|
|
|
#BPMCHANGE 180
|
|
0,
|
|
1001101020201020,
|
|
01102210,
|
|
1001101020201020, //59
|
|
|
|
0010100020222000,
|
|
1001101020201020,
|
|
01102210,
|
|
1001101020201020, //63
|
|
|
|
#BPMCHANGE 200
|
|
#SCROLL 0.9
|
|
4,
|
|
#SCROLL 1
|
|
1000200020002220,
|
|
1000222020002220,
|
|
1000200010002220, //67
|
|
|
|
1000222010002220,
|
|
2000100020001110,
|
|
2000111020001110,
|
|
2000100010001110, //71
|
|
|
|
2000111010001110,
|
|
500000000000000000000000000008000000000000000000,
|
|
500000000000000000000000000008000000000000100200,
|
|
12121212,
|
|
30044000, //76
|
|
|
|
#GOGOSTART
|
|
33,
|
|
3330,
|
|
2000201020112010,
|
|
20202022, //80
|
|
|
|
1020112010221020,
|
|
12121011,
|
|
2022101020221010,
|
|
000000500000000000000000000000000000000008000000, //84
|
|
|
|
0000100011101000,
|
|
1000201000112010,
|
|
0000200022202000,
|
|
2000102000221020, //88
|
|
|
|
0000100011101000,
|
|
1000201000112010,
|
|
10112222,
|
|
343
|
|
#GOGOEND
|
|
0, //92
|
|
|
|
#GOGOSTART
|
|
1000102010212010,
|
|
2000201020121020,
|
|
1000102010212010,
|
|
34343000, //96
|
|
|
|
1000102010212010,
|
|
2000201020121020,
|
|
1000102010212010,
|
|
3004003004003060, //100
|
|
|
|
0,
|
|
000000000000000000000000000000000000000000000008,
|
|
#GOGOEND
|
|
0
|
|
#GOGOSTART
|
|
400,
|
|
#GOGOEND
|
|
0, //104
|
|
#END
|
|
|
|
|
|
COURSE:Hard
|
|
LEVEL:6
|
|
BALLOON:20,5,5,25
|
|
SCOREINIT:510,2310
|
|
SCOREDIFF:128
|
|
|
|
#START
|
|
11221220,
|
|
#MEASURE 51/64
|
|
70000000000000008,
|
|
#MEASURE 4/4
|
|
#BPMCHANGE 200
|
|
0, //3
|
|
|
|
#GOGOSTART
|
|
1000100010111010,
|
|
2000200020222020,
|
|
1000100010111010,
|
|
500000000000000000000000000008000000000000000000,
|
|
|
|
1000100010111010,
|
|
2000200020222020,
|
|
1000100010111010,
|
|
03434000, //11
|
|
#GOGOEND
|
|
|
|
0,
|
|
0,
|
|
#BPMCHANGE 100
|
|
1111000000001000,
|
|
1111000000000000,
|
|
|
|
1111,
|
|
1111,
|
|
1111000000001000,
|
|
1111000000000000, //19
|
|
|
|
#GOGOSTART
|
|
7833,
|
|
7833,
|
|
#GOGOEND
|
|
#BPMCHANGE 150
|
|
0,
|
|
2220200000002220,
|
|
|
|
4,
|
|
0,
|
|
2022200020202020,
|
|
2220000020200000,
|
|
2022200020202020,
|
|
2220000020200000, //29
|
|
|
|
#GOGOSTART
|
|
2220200040404000,
|
|
2220200040404000,
|
|
#GOGOEND
|
|
2000200020222000,
|
|
2,
|
|
|
|
2220200000002220,
|
|
#BPMCHANGE 200
|
|
#SCROLL 0.75
|
|
4,
|
|
#SCROLL 1
|
|
500000000000000000000000000008000000000000000000,
|
|
500000000000000000000000000008000000000000000000,
|
|
12121212,
|
|
30044000, //39
|
|
|
|
#GOGOSTART
|
|
1000100010111010,
|
|
1110,
|
|
2000200020222020,
|
|
2220,
|
|
|
|
1000101010111010,
|
|
1110,
|
|
2020200020222020,
|
|
000000500000000000000000000000000000000008000000, //47
|
|
|
|
0111,
|
|
1000001000111010,
|
|
0222,
|
|
2000002000222020,
|
|
|
|
0111,
|
|
1000001000111010,
|
|
10102220,
|
|
343
|
|
#GOGOEND
|
|
0, //55
|
|
|
|
#BPMCHANGE 180
|
|
0,
|
|
10012011,
|
|
01102010,
|
|
10012011,
|
|
|
|
01102000,
|
|
10012011,
|
|
01102010,
|
|
10012010, //63
|
|
|
|
#BPMCHANGE 200
|
|
#SCROLL 0.9
|
|
4,
|
|
#SCROLL 1
|
|
10201022,
|
|
10221022,
|
|
20102011,
|
|
|
|
20112011,
|
|
10201022,
|
|
10221022,
|
|
20102011, //71
|
|
|
|
20112011,
|
|
500000000000000000000000000008000000000000000000,
|
|
500000000000000000000000000008000000000000000000,
|
|
12121212,
|
|
30044000, //76
|
|
|
|
#GOGOSTART
|
|
33,
|
|
3330,
|
|
2000200020222020,
|
|
2220,
|
|
|
|
1000101010111010,
|
|
1110,
|
|
2020200020222020,
|
|
000000500000000000000000000000000000000008000000, //84
|
|
|
|
0111,
|
|
1000001000111010,
|
|
0222,
|
|
2000002000222020,
|
|
|
|
0111,
|
|
1000001000111010,
|
|
10102220,
|
|
343
|
|
#GOGOEND
|
|
0, //92
|
|
|
|
#GOGOSTART
|
|
1000100010111010,
|
|
2000200020222020,
|
|
1000100010111010,
|
|
500000000000000000000000000008000000000000000000,
|
|
|
|
1000100010111010,
|
|
2000200020222020,
|
|
1000100010111010,
|
|
9, //100
|
|
|
|
0000000000090000,
|
|
0800,
|
|
#GOGOEND
|
|
0
|
|
#GOGOSTART
|
|
400,
|
|
#GOGOEND
|
|
0, //104
|
|
#END
|
|
|
|
|
|
COURSE:Normal
|
|
LEVEL:5
|
|
BALLOON:13,15
|
|
SCOREINIT:490,3050
|
|
SCOREDIFF:135
|
|
|
|
#START
|
|
10101110,
|
|
#MEASURE 51/64
|
|
70000000000000008,
|
|
#MEASURE 4/4
|
|
#BPMCHANGE 200
|
|
0, //3
|
|
|
|
#GOGOSTART
|
|
10101110,
|
|
20202220,
|
|
10101110,
|
|
500000000000000000000000000008000000000000000000,
|
|
|
|
10101110,
|
|
20202220,
|
|
10101110,
|
|
03333000, //11
|
|
#GOGOEND
|
|
|
|
0,
|
|
0,
|
|
#BPMCHANGE 100
|
|
11000010,
|
|
11000000,
|
|
|
|
1111,
|
|
1111,
|
|
11000010,
|
|
11000000, //19
|
|
|
|
#GOGOSTART
|
|
0033,
|
|
0033,
|
|
#GOGOEND
|
|
#BPMCHANGE 150
|
|
0,
|
|
22200022,
|
|
|
|
4,
|
|
0,
|
|
20202220,
|
|
20002200,
|
|
20202220,
|
|
20002200, //29
|
|
|
|
#GOGOSTART
|
|
00004440,
|
|
00004440,
|
|
#GOGOEND
|
|
2022,
|
|
2,
|
|
|
|
22200022,
|
|
#BPMCHANGE 200
|
|
#SCROLL 0.75
|
|
4,
|
|
#SCROLL 1
|
|
500000000000000000000000000008000000000000000000,
|
|
500000000000000000000000000008000000000000000000,
|
|
1212,
|
|
34, //39
|
|
|
|
#GOGOSTART
|
|
10101011,
|
|
1110,
|
|
20202022,
|
|
2220,
|
|
|
|
10111011,
|
|
1110,
|
|
22202222,
|
|
000000500000000000000000000000000000000008000000, //47
|
|
|
|
0111,
|
|
10010111,
|
|
0222,
|
|
20020222,
|
|
|
|
0111,
|
|
10010111,
|
|
1122,
|
|
343
|
|
#GOGOEND
|
|
0, //55
|
|
|
|
#BPMCHANGE 180
|
|
0,
|
|
10022010,
|
|
0121,
|
|
10022010,
|
|
|
|
0120,
|
|
10022010,
|
|
0121,
|
|
10022010, //63
|
|
|
|
#BPMCHANGE 200
|
|
#SCROLL 0.9
|
|
4,
|
|
#SCROLL 1
|
|
10101011,
|
|
10111000,
|
|
20202022,
|
|
|
|
20222000,
|
|
10101011,
|
|
10111000,
|
|
20202022, //71
|
|
|
|
20222000,
|
|
500000000000000000000000000008000000000000000000,
|
|
500000000000000000000000000008000000000000000000,
|
|
1212,
|
|
34, //76
|
|
|
|
#GOGOSTART
|
|
33,
|
|
3330,
|
|
20202022,
|
|
2220,
|
|
|
|
10111011,
|
|
1110,
|
|
22202222,
|
|
000000500000000000000000000000000000000008000000, //84
|
|
|
|
0111,
|
|
10010111,
|
|
0222,
|
|
20020222,
|
|
|
|
0111,
|
|
10010111,
|
|
1122,
|
|
343
|
|
#GOGOEND
|
|
0, //92
|
|
|
|
#GOGOSTART
|
|
10101110,
|
|
20202220,
|
|
10101110,
|
|
500000000000000000000000000008000000000000000000,
|
|
|
|
10101110,
|
|
20202220,
|
|
10101110,
|
|
9, //100
|
|
|
|
0000000000090000,
|
|
0800,
|
|
#GOGOEND
|
|
0
|
|
#GOGOSTART
|
|
400,
|
|
#GOGOEND
|
|
0, //104
|
|
#END
|
|
|
|
|
|
COURSE:Easy
|
|
LEVEL:3
|
|
BALLOON:11,4,13
|
|
SCOREINIT:460,5550
|
|
SCOREDIFF:150
|
|
|
|
#START
|
|
1110,
|
|
#MEASURE 51/64
|
|
70000000000000008,
|
|
#MEASURE 4/4
|
|
#BPMCHANGE 200
|
|
0, //3
|
|
|
|
#GOGOSTART
|
|
1110,
|
|
2220,
|
|
1110,
|
|
500000000000000000000000000008000000000000000000,
|
|
|
|
1110,
|
|
2220,
|
|
1110,
|
|
07000080, //11
|
|
#GOGOEND
|
|
|
|
0,
|
|
0,
|
|
#BPMCHANGE 100
|
|
1001,
|
|
1,
|
|
|
|
1111,
|
|
1110,
|
|
1001,
|
|
1, //19
|
|
|
|
#GOGOSTART
|
|
0033,
|
|
0033,
|
|
#GOGOEND
|
|
#BPMCHANGE 150
|
|
0,
|
|
2204,
|
|
|
|
4,
|
|
0,
|
|
2022,
|
|
2,
|
|
2022,
|
|
2, //29
|
|
|
|
#GOGOSTART
|
|
0044,
|
|
0044,
|
|
#GOGOEND
|
|
22,
|
|
2,
|
|
|
|
2204,
|
|
#BPMCHANGE 200
|
|
#SCROLL 0.75
|
|
4,
|
|
#SCROLL 1
|
|
500000000000000000000000000008000000000000000000,
|
|
500000000000000000000000000008000000000000000000,
|
|
1111,
|
|
34, //39
|
|
|
|
#GOGOSTART
|
|
11,
|
|
1110,
|
|
22,
|
|
2220,
|
|
|
|
11,
|
|
1110,
|
|
22,
|
|
000000500000000000000000000000000000000008000000, //47
|
|
|
|
0111,
|
|
1,
|
|
0222,
|
|
2,
|
|
|
|
0111,
|
|
1,
|
|
33,
|
|
444
|
|
#GOGOEND
|
|
0, //55
|
|
|
|
#BPMCHANGE 180
|
|
0,
|
|
1,
|
|
0001,
|
|
1,
|
|
|
|
0,
|
|
1,
|
|
0001,
|
|
1, //63
|
|
|
|
#BPMCHANGE 200
|
|
#SCROLL 0.9
|
|
4,
|
|
#SCROLL 1
|
|
11,
|
|
1,
|
|
22,
|
|
|
|
2,
|
|
11,
|
|
1,
|
|
22, //71
|
|
|
|
2,
|
|
500000000000000000000000000008000000000000000000,
|
|
500000000000000000000000000008000000000000000000,
|
|
1111,
|
|
34, //76
|
|
|
|
#GOGOSTART
|
|
33,
|
|
3330,
|
|
22,
|
|
2220,
|
|
|
|
11,
|
|
1110,
|
|
22,
|
|
000000500000000000000000000000000000000008000000, //84
|
|
|
|
0111,
|
|
1,
|
|
0222,
|
|
2,
|
|
|
|
0111,
|
|
1,
|
|
33,
|
|
444
|
|
#GOGOEND
|
|
0, //92
|
|
|
|
#GOGOSTART
|
|
1110,
|
|
2220,
|
|
1110,
|
|
500000000000000000000000000008000000000000000000,
|
|
|
|
1110,
|
|
2220,
|
|
1110,
|
|
9, //100
|
|
|
|
0000000000090000,
|
|
0800,
|
|
#GOGOEND
|
|
0
|
|
#GOGOSTART
|
|
400,
|
|
#GOGOEND
|
|
0, //104
|
|
#END |