955 lines
22 KiB
Plaintext
955 lines
22 KiB
Plaintext
//TJADB Project
|
|
TITLE:Taiko no 2000
|
|
TITLEJA:たいこの2000
|
|
SUBTITLE:--Linda AI-CUE
|
|
SUBTITLEJA:太鼓 de タイムトラベル紀元前 / LindaAI-CUE
|
|
BPM:224
|
|
WAVE:Taiko no 2000.ogg
|
|
OFFSET:-3.041
|
|
DEMOSTART:3.026
|
|
|
|
COURSE:Oni
|
|
LEVEL:10
|
|
BALLOON:765
|
|
SCOREINIT:1000
|
|
SCOREDIFF:0
|
|
|
|
|
|
#START
|
|
|
|
|
|
#MEASURE 8/4
|
|
#SCROLL 0.5
|
|
3000300030
|
|
#SCROLL 2
|
|
400000,
|
|
#SCROLL 0.5
|
|
3000003000300000,
|
|
3000300030
|
|
#SCROLL 2
|
|
400000,
|
|
#SCROLL 0.5
|
|
3000003000300000,
|
|
#MEASURE 4/4
|
|
#SCROLL 1
|
|
32023202,
|
|
3022202020202020,
|
|
3020002220203020,
|
|
0020302020202220,
|
|
1121112111211121,
|
|
1121212121212121,
|
|
1111111111111110,
|
|
4
|
|
#SCROLL 1.33
|
|
4
|
|
#SCROLL 1.66
|
|
4
|
|
#SCROLL 2
|
|
4,
|
|
#SCROLL 1
|
|
1022101022101022,
|
|
1020102210202010,
|
|
1022101022101022,
|
|
1022101030303030,
|
|
0022101022101022,
|
|
1020102210201010,
|
|
1122101122101120,
|
|
4
|
|
#SCROLL 1.33
|
|
4
|
|
#SCROLL 1.66
|
|
4
|
|
#SCROLL 2
|
|
4,
|
|
#SCROLL 1
|
|
1011101010101011,
|
|
1010101110101010,
|
|
1010101110101011,
|
|
1011111030303030,
|
|
0011101010101011,
|
|
1011101110101010,
|
|
1111201112101122,
|
|
1
|
|
#SCROLL 1.08
|
|
1
|
|
#SCROLL 1.17
|
|
1
|
|
#SCROLL 1.25
|
|
1
|
|
#SCROLL 1.33
|
|
1
|
|
#SCROLL 1.41
|
|
1
|
|
#SCROLL 1.5
|
|
1
|
|
#SCROLL 1.58
|
|
1
|
|
#SCROLL 1.66
|
|
1
|
|
#SCROLL 1.74
|
|
1
|
|
#SCROLL 1.83
|
|
1
|
|
#SCROLL 1.91
|
|
1
|
|
#SCROLL 2
|
|
1
|
|
#SCROLL 2.08
|
|
1
|
|
#SCROLL 2.17
|
|
1
|
|
#SCROLL 2.25
|
|
1,
|
|
|
|
#GOGOSTART
|
|
#SCROLL 1
|
|
0000102210022021,
|
|
0000102201021010,
|
|
0102021002220100,
|
|
1021010000101022,
|
|
0101000021001020,
|
|
1022000010022220,
|
|
2000102102201022,
|
|
0102202102202000,
|
|
1021002201020101,
|
|
0201022010101001,
|
|
0100001010102201,
|
|
0200020101020102,
|
|
1010021010201000,
|
|
|
|
#GOGOEND
|
|
10101111,
|
|
1111111111111110,
|
|
4
|
|
#SCROLL 1.33
|
|
4
|
|
#SCROLL 1.66
|
|
4
|
|
#SCROLL 2
|
|
4,
|
|
#SCROLL 1
|
|
1010120210220122,
|
|
1021012210121010,
|
|
1011121210221020,
|
|
100100100200101010100000300000300000300000300000,
|
|
0010120210220122,
|
|
1021012210121010,
|
|
1112111112121210,
|
|
4
|
|
#SCROLL 1.33
|
|
4
|
|
#SCROLL 1.66
|
|
4
|
|
#SCROLL 2
|
|
4,
|
|
#SCROLL 1
|
|
1012101012101121,
|
|
1011101110101010,
|
|
1012101210112110,
|
|
1011101030303030,
|
|
0012101012101121,
|
|
1011101110101010,
|
|
1121101121121120,
|
|
|
|
#GOGOSTART
|
|
#MEASURE 3/4
|
|
400210403010,
|
|
|
|
#GOGOEND
|
|
111122111120,
|
|
|
|
#GOGOSTART
|
|
#MEASURE 4/4
|
|
300120304000
|
|
#SCROLL 2
|
|
4000,
|
|
#MEASURE 3/4
|
|
#SCROLL 1
|
|
400210403010,
|
|
|
|
#GOGOEND
|
|
111122111120,
|
|
|
|
#GOGOSTART
|
|
#MEASURE 5/4
|
|
300120304000
|
|
|
|
#GOGOEND
|
|
11112220,
|
|
|
|
#GOGOSTART
|
|
#MEASURE 3/4
|
|
400210403010,
|
|
|
|
#GOGOEND
|
|
111122111120,
|
|
|
|
#GOGOSTART
|
|
#MEASURE 4/4
|
|
300120304000
|
|
#SCROLL 2
|
|
4000,
|
|
#MEASURE 3/4
|
|
#SCROLL 1
|
|
400210403010,
|
|
|
|
#GOGOEND
|
|
111122111120,
|
|
|
|
#GOGOSTART
|
|
#MEASURE 5/4
|
|
300120304000
|
|
|
|
#GOGOEND
|
|
11112220,
|
|
|
|
#GOGOSTART
|
|
#MEASURE 3/4
|
|
122212102010,
|
|
|
|
#GOGOEND
|
|
111122111120,
|
|
|
|
#GOGOSTART
|
|
#MEASURE 4/4
|
|
122122111210
|
|
#SCROLL 2
|
|
4000,
|
|
#MEASURE 3/4
|
|
#SCROLL 1
|
|
122212122120,
|
|
|
|
#GOGOEND
|
|
111122111120,
|
|
|
|
#GOGOSTART
|
|
#MEASURE 4/4
|
|
10101210202020201010121020202020,
|
|
|
|
#GOGOEND
|
|
22112210
|
|
#SCROLL 2
|
|
40000000,
|
|
#SCROLL 1
|
|
20202022,
|
|
22202022,
|
|
20202022,
|
|
22202022,
|
|
12102212,
|
|
12102121,
|
|
1111111111111111,
|
|
2121212170000000,
|
|
#MEASURE 3/4
|
|
008,
|
|
#MEASURE 4/4
|
|
1022121022101122,
|
|
1020102212202210,
|
|
1022121022101122,
|
|
1022111030303030,
|
|
02102112,
|
|
1022100010201010,
|
|
1122111122111120,
|
|
4
|
|
#SCROLL 1.33
|
|
4
|
|
#SCROLL 1.66
|
|
4
|
|
#SCROLL 2
|
|
4,
|
|
#MEASURE 2/4
|
|
#BPMCHANGE 56
|
|
#SCROLL 4
|
|
3,
|
|
#MEASURE 4/4
|
|
#BPMCHANGE 224
|
|
#SCROLL 1
|
|
1111,
|
|
|
|
#GOGOSTART
|
|
2101010021002101,
|
|
0202100102000220,
|
|
2220002220100220,
|
|
2102202102200022,
|
|
0102000010022220,
|
|
2000210101001010,
|
|
1001010010101001,
|
|
0200021010202021,
|
|
0202201010100102,
|
|
2001101121011210,
|
|
1010122210101121,
|
|
1001101211012102,
|
|
1110
|
|
#SCROLL 2
|
|
40
|
|
#SCROLL 1
|
|
1111111110,
|
|
|
|
#GOGOEND
|
|
33,
|
|
,
|
|
,
|
|
|
|
#GOGOSTART
|
|
#SCROLL 2
|
|
,
|
|
0000
|
|
#SCROLL 1.5
|
|
2
|
|
#SCROLL 1.36
|
|
2
|
|
#SCROLL 1.22
|
|
2
|
|
#SCROLL 1.07
|
|
2
|
|
#SCROLL 0.93
|
|
2
|
|
#SCROLL 0.79
|
|
2
|
|
#SCROLL 0.64
|
|
2
|
|
#SCROLL 0.5
|
|
20000,
|
|
|
|
#GOGOEND
|
|
#SCROLL 2
|
|
4,
|
|
|
|
|
|
#END
|
|
|
|
|
|
COURSE:Hard
|
|
LEVEL:8
|
|
BALLOON:4
|
|
SCOREINIT:1800
|
|
SCOREDIFF:0
|
|
|
|
|
|
#START
|
|
|
|
|
|
#MEASURE 8/4
|
|
#SCROLL 0.5
|
|
300000000000000000000000300000000000000000000000300000000000
|
|
#SCROLL 1
|
|
400000000000000000000000000000000000,
|
|
#SCROLL 0.5
|
|
300000000000000000000000000000000000300000000000000000000000300000000000000000000000000000000000,
|
|
300000000000000000000000300000000000000000000000300000000000
|
|
#SCROLL 1
|
|
400000000000000000000000000000000000,
|
|
#SCROLL 0.5
|
|
300000000000000000000000000000000000300000000000000000000000300000000000000000000000000000000000,
|
|
#MEASURE 4/4
|
|
#SCROLL 1
|
|
300000200000000000200000300000200000000000200000,
|
|
300000000000400000000000200000200000200000200000,
|
|
300000200000000000200000200000200000300000200000,
|
|
000000200000300000000000200000200000200000200000,
|
|
300000000000100000000000300000000000100000000000,
|
|
300000000000400000000000100000100000100000100000,
|
|
600000000000000000000000000000000000000008000000,
|
|
400000000000400000000000400000000000400000000000,
|
|
100000200000100000000000200000100000200000200000,
|
|
100000200000100000000000100000200000200000100000,
|
|
100000200000100000000000200000100000100000200000,
|
|
100000200000100000000000300000300000300000300000,
|
|
000000200000100000000000200000100000100000200000,
|
|
100000200000100000000000100000200000100000000000,
|
|
100100100000100000100100100000100000100000000000,
|
|
400000000000400000000000400000000000400000000000,
|
|
100000100000100000000000100000100000100000100000,
|
|
100000100000100000100000100000100000100000000000,
|
|
100000100000100000000000100000100000100000000000,
|
|
100000100100100000000000700000000000000000800000,
|
|
000000100000100000000000100000100000100000100000,
|
|
100000100000100000100000100000100000100000100000,
|
|
500000000000000000000000000000000000000000000000,
|
|
000000000000000000000000000800000000000000000000,
|
|
|
|
#GOGOSTART
|
|
300000000000200000000000300000000000200000000000,
|
|
300000000000400000000000200200200000200000000000,
|
|
300000000000200200200000200000000000300000000000,
|
|
200200200000300000000000200000200000200000000000,
|
|
300000000000200000000000300000000000200000000000,
|
|
300000000000400000000000200000200000200000000000,
|
|
300000000000000000000000200000000000300000000000,
|
|
000000000000300000000000200000200000200000000000,
|
|
300000000000200000000000300000000000200000000000,
|
|
300000000000400000000000200000200000200000000000,
|
|
300000000000000000000000200000000000300000000000,
|
|
000000000000300000000000200000200000200000000000,
|
|
300000000000200000000000300000000000200000000000,
|
|
|
|
#GOGOEND
|
|
300000000000400000000000200000200000200000000000,
|
|
300000000000000000000000300000000000000000000000,
|
|
400000000000400000000000400000000000400000000000,
|
|
100000100000100000000000200000100000100000200000,
|
|
100000200000100000000000200000100000100000200000,
|
|
100000100000100100100000100000000000200000200000,
|
|
100000100000100000000000300000300000300000300000,
|
|
000000100000100000000000200000100000100000200000,
|
|
100000200000100000000000200000100000100000200000,
|
|
100100100000100000100000100100100000100000000000,
|
|
400000000000400000000000400000000000400000000000,
|
|
100000100000100000000000100000100000000000100000,
|
|
500000000000000000000000000000000008000000000000,
|
|
100000200000100000100000200000100000200000100000,
|
|
200000000000200000000000300000300000300000300000,
|
|
000000100000100000000000100000100000000000100000,
|
|
500000000000000000000000000000000008000000000000,
|
|
100000200000100000100000200000100000200000100000,
|
|
|
|
#GOGOSTART
|
|
#MEASURE 3/4
|
|
400000000000100000400000300000000000,
|
|
|
|
#GOGOEND
|
|
500000000000000000000008000000000000,
|
|
|
|
#GOGOSTART
|
|
#MEASURE 4/4
|
|
300000000000200000300000400000000000
|
|
#SCROLL 2
|
|
400000000000,
|
|
#MEASURE 3/4
|
|
#SCROLL 1
|
|
400000000000100000400000300000000000,
|
|
|
|
#GOGOEND
|
|
500000000000000000000008000000000000,
|
|
|
|
#GOGOSTART
|
|
#MEASURE 5/4
|
|
300000000000200000300000400000000000
|
|
|
|
#GOGOEND
|
|
100100100000100000000000,
|
|
|
|
#GOGOSTART
|
|
#MEASURE 3/4
|
|
400000000000100000400000300000000000,
|
|
|
|
#GOGOEND
|
|
500000000000000000000008000000000000,
|
|
|
|
#GOGOSTART
|
|
#MEASURE 4/4
|
|
300000000000200000300000400000000000
|
|
#SCROLL 2
|
|
400000000000,
|
|
#MEASURE 3/4
|
|
#SCROLL 1
|
|
400000000000100000400000300000000000,
|
|
|
|
#GOGOEND
|
|
500000000000000000000008000000000000,
|
|
|
|
#GOGOSTART
|
|
#MEASURE 5/4
|
|
300000000000200000300000400000000000
|
|
|
|
#GOGOEND
|
|
100100100000100000000000,
|
|
|
|
#GOGOSTART
|
|
#MEASURE 3/4
|
|
100000100000100000100000100000000000,
|
|
|
|
#GOGOEND
|
|
500000000000000000000008000000000000,
|
|
|
|
#GOGOSTART
|
|
#MEASURE 4/4
|
|
100100100000100000100000100000000000
|
|
#SCROLL 2
|
|
400000000000,
|
|
#MEASURE 3/4
|
|
#SCROLL 1
|
|
100100100000100100100000100000000000,
|
|
|
|
#GOGOEND
|
|
500000000000000000000008000000000000,
|
|
|
|
#GOGOSTART
|
|
#MEASURE 4/4
|
|
100100100000100000100100100000100000100100100000,
|
|
|
|
#GOGOEND
|
|
100000000000100000000000
|
|
#SCROLL 2
|
|
400000000000000000000000,
|
|
#SCROLL 1
|
|
200000000000200000000000200000000000200000200000,
|
|
200000200000200000000000200000000000200000000000,
|
|
200000000000200000000000200000000000200000200000,
|
|
200000200000200000000000200000000000200000000000,
|
|
100000000000100000000000100000200000100000200000,
|
|
100000000000100000000000100000200000100000200000,
|
|
500000000000000000000000000000000000000000000000,
|
|
000000000000000000000000000000000000000000000000,
|
|
#MEASURE 3/4
|
|
000000000000000800000000000000000000,
|
|
#MEASURE 4/4
|
|
100000200000100000000000200000100100100000200000,
|
|
100000200000100000000000200000200000100000200000,
|
|
100000200000100000100000100000100000100000200000,
|
|
100000000000100000000000300000300000300000300000,
|
|
000000200000100000000000200000000000100000200000,
|
|
100000000000100000000000100000200000100000000000,
|
|
100100100000100000100000100100100000100000000000,
|
|
400000000000400000000000400000000000400000000000,
|
|
#MEASURE 2/4
|
|
#BPMCHANGE 56
|
|
#SCROLL 4
|
|
300000000000000000000000,
|
|
#MEASURE 4/4
|
|
#BPMCHANGE 224
|
|
#SCROLL 1
|
|
300000000000100000000000300000000000100000000000,
|
|
|
|
#GOGOSTART
|
|
300000000000400000000000100100100000100000100000,
|
|
300000000000100100100000100000100000300000000000,
|
|
100100100000300000000000100000100000100000100000,
|
|
300000000000100000000000300000000000100000000000,
|
|
300000000000400000000000100100100000100000000000,
|
|
300000000000100100100000100000000000300000000000,
|
|
100100100000300000000000100000100000100000100000,
|
|
300000000000100000000000300000000000100000000000,
|
|
300000000000400000000000200200200000200000000000,
|
|
300000000000200200200000200000000000300000000000,
|
|
200000000000300000000000200200200000200000200000,
|
|
300000000000200000000000300000000000200000000000,
|
|
300000000000400000000000100100100000100100100000,
|
|
|
|
#GOGOEND
|
|
300000000000000000000000300000000000000000000000,
|
|
000000000000000000000000000000000000000000000000,
|
|
000000000000000000000000000000000000000000000000,
|
|
|
|
#GOGOSTART
|
|
#SCROLL 2
|
|
000000000000000000000000000000000000000000000000,
|
|
000000000000500000000000000000008000000000000000,
|
|
|
|
#GOGOEND
|
|
400000000000000000000000000000000000000000000000,
|
|
|
|
|
|
#END
|
|
|
|
|
|
COURSE:Normal
|
|
LEVEL:7
|
|
BALLOON:6,4,6,4,6,4,6,4,4,6
|
|
SCOREINIT:2740
|
|
SCOREDIFF:0
|
|
|
|
|
|
#START
|
|
|
|
|
|
#MEASURE 8/4
|
|
#SCROLL 0.5
|
|
300000000000000000000000300000000000000000000000300000000000400000000000000000000000000000000000,
|
|
300000000000000000000000000000000000300000000000000000000000300000000000000000000000000000000000,
|
|
300000000000000000000000300000000000000000000000300000000000400000000000000000000000000000000000,
|
|
300000000000000000000000000000000000300000000000000000000000300000000000000000000000000000000000,
|
|
#MEASURE 4/4
|
|
#SCROLL 1
|
|
300000000000000000000000300000000000000000000000,
|
|
300000000000400000000000000000000000000000000000,
|
|
300000000000000000000000000000000000300000000000,
|
|
000000000000300000000000000000000000000000000000,
|
|
300000000000100000000000300000000000100000000000,
|
|
300000000000400000000000100000000000100000000000,
|
|
600000000000000000000000000000000000000008000000,
|
|
700000000000000000000000000000000000800000000000,
|
|
100000000000100000000000200000000000200000000000,
|
|
100000000000100000000000200000200000200000000000,
|
|
100000000000100000000000200000000000200000000000,
|
|
100000000000100000000000700000000000000000800000,
|
|
000000000000100000000000200000000000200000000000,
|
|
100000000000100000000000200000200000200000000000,
|
|
100000000000100000000000200000000000200000000000,
|
|
700000000000000000000000000000000000800000000000,
|
|
100000000000100000000000100000100000100000000000,
|
|
100000000000100000000000100000000000100000000000,
|
|
100000000000100000000000100000100000100000000000,
|
|
100000000000100000000000700000000000000000800000,
|
|
000000000000100000000000100000100000100000000000,
|
|
100000000000100000000000100000000000100000000000,
|
|
500000000000000000000000000000000000000000000000,
|
|
000000000000000000000000000800000000000000000000,
|
|
|
|
#GOGOSTART
|
|
300000000000200000000000300000000000200000000000,
|
|
300000000000400000000000200000200000200000000000,
|
|
300000000000000000000000200000000000300000000000,
|
|
000000000000300000000000200000200000200000000000,
|
|
300000000000200000000000300000000000200000000000,
|
|
300000000000400000000000200000200000200000000000,
|
|
300000000000000000000000200000000000300000000000,
|
|
000000000000300000000000200000200000200000000000,
|
|
300000000000200000000000300000000000200000000000,
|
|
300000000000400000000000200000200000200000000000,
|
|
300000000000000000000000200000000000300000000000,
|
|
000000000000300000000000200000200000200000000000,
|
|
300000000000200000000000300000000000200000000000,
|
|
|
|
#GOGOEND
|
|
300000000000400000000000200000200000200000000000,
|
|
300000000000000000000000300000000000000000000000,
|
|
700000000000000000000000000000000000800000000000,
|
|
100000000000200000200000100000000000200000000000,
|
|
100000000000100000000000200000200000200000000000,
|
|
100000000000200000200000100000000000200000000000,
|
|
100000000000100000000000700000000000000000800000,
|
|
000000000000200000200000100000000000200000000000,
|
|
100000000000100000000000200000200000200000000000,
|
|
100000000000200000200000100000000000200000000000,
|
|
700000000000000000000000000000000000800000000000,
|
|
100000000000100000100000100000000000100000100000,
|
|
500000000000000000000000000000000008000000000000,
|
|
100000000000100000100000100000000000100000000000,
|
|
200000000000200000000000700000000000000000800000,
|
|
000000000000100000100000100000000000100000100000,
|
|
500000000000000000000000000000000008000000000000,
|
|
100000000000100000100000100000000000100000000000,
|
|
|
|
#GOGOSTART
|
|
#MEASURE 3/4
|
|
400000000000000000300000000000000000,
|
|
|
|
#GOGOEND
|
|
500000000000000000000008000000000000,
|
|
|
|
#GOGOSTART
|
|
#MEASURE 4/4
|
|
300000000000000000400000000000000000000000000000,
|
|
#MEASURE 3/4
|
|
400000000000000000300000000000000000,
|
|
|
|
#GOGOEND
|
|
500000000000000000000008000000000000,
|
|
|
|
#GOGOSTART
|
|
#MEASURE 5/4
|
|
300000000000000000400000000000000000
|
|
|
|
#GOGOEND
|
|
100000100000100000000000,
|
|
|
|
#GOGOSTART
|
|
#MEASURE 3/4
|
|
400000000000000000300000000000000000,
|
|
|
|
#GOGOEND
|
|
500000000000000000000008000000000000,
|
|
|
|
#GOGOSTART
|
|
#MEASURE 4/4
|
|
300000000000000000400000000000000000000000000000,
|
|
#MEASURE 3/4
|
|
400000000000000000300000000000000000,
|
|
|
|
#GOGOEND
|
|
500000000000000000000008000000000000,
|
|
|
|
#GOGOSTART
|
|
#MEASURE 5/4
|
|
300000000000000000400000000000000000
|
|
|
|
#GOGOEND
|
|
100000100000100000000000,
|
|
|
|
#GOGOSTART
|
|
#MEASURE 3/4
|
|
100000000000100000000000100000000000,
|
|
|
|
#GOGOEND
|
|
500000000000000000000008000000000000,
|
|
|
|
#GOGOSTART
|
|
#MEASURE 4/4
|
|
100000000000100000100000100000000000400000000000,
|
|
#MEASURE 3/4
|
|
100000100000100000100000100000000000,
|
|
|
|
#GOGOEND
|
|
500000000000000000000008000000000000,
|
|
|
|
#GOGOSTART
|
|
#MEASURE 4/4
|
|
100000100000100000100000100000100000100000000000,
|
|
|
|
#GOGOEND
|
|
100000000000100000000000400000000000000000000000,
|
|
200000000000000000000000200000000000000000000000,
|
|
200000000000000000000000200000000000200000000000,
|
|
200000000000000000000000200000000000000000000000,
|
|
200000000000000000000000200000000000200000000000,
|
|
100000000000100000000000100000100000100000000000,
|
|
100000000000100000000000100000100000100000000000,
|
|
500000000000000000000000000000000000000000000000,
|
|
000000000000000000000000000000000000000000000000,
|
|
#MEASURE 3/4
|
|
000000000000000800000000000000000000,
|
|
#MEASURE 4/4
|
|
100000000000100000000000100000100000100000000000,
|
|
100000000000200000200000100000000000200000000000,
|
|
100000000000100000000000100000100000100000000000,
|
|
100000000000100000000000700000000000000000800000,
|
|
000000000000200000000000200000200000100000000000,
|
|
200000000000200000200000200000000000200000000000,
|
|
100000000000100000100000100000000000100000100000,
|
|
700000000000000000000000000000000000800000000000,
|
|
#MEASURE 2/4
|
|
#BPMCHANGE 56
|
|
#SCROLL 4
|
|
300000000000000000000000,
|
|
#MEASURE 4/4
|
|
#BPMCHANGE 224
|
|
#SCROLL 1
|
|
300000000000100000000000300000000000100000000000,
|
|
|
|
#GOGOSTART
|
|
300000000000400000000000100000100000100000000000,
|
|
300000000000100000100000100000000000300000000000,
|
|
100000000000300000000000100000100000100000000000,
|
|
300000000000100000000000300000000000100000000000,
|
|
300000000000400000000000100000100000100000000000,
|
|
300000000000100000100000100000000000300000000000,
|
|
100000000000300000000000100000100000100000000000,
|
|
300000000000100000000000300000000000100000000000,
|
|
300000000000400000000000200000200000200000000000,
|
|
300000000000200000200000200000000000300000000000,
|
|
200000000000300000000000200000200000200000000000,
|
|
300000000000200000000000300000000000200000000000,
|
|
300000000000400000000000100000100000100000100000,
|
|
|
|
#GOGOEND
|
|
300000000000000000000000300000000000000000000000,
|
|
000000000000000000000000000000000000000000000000,
|
|
000000000000000000000000000000000000000000000000,
|
|
|
|
#GOGOSTART
|
|
#SCROLL 2
|
|
000000000000000000000000000000000000000000000000,
|
|
000000000000500000000000000000008000000000000000,
|
|
|
|
#GOGOEND
|
|
400000000000000000000000000000000000000000000000,
|
|
|
|
|
|
#END
|
|
|
|
|
|
COURSE:Easy
|
|
LEVEL:5
|
|
BALLOON:4,3,4,3,4,3,4,3,3,4
|
|
SCOREINIT:4230
|
|
SCOREDIFF:0
|
|
|
|
|
|
#START
|
|
|
|
|
|
#MEASURE 8/4
|
|
#SCROLL 0.5
|
|
300000000000000000000000300000000000000000000000300000000000400000000000000000000000000000000000,
|
|
300000000000000000000000000000000000300000000000000000000000300000000000000000000000000000000000,
|
|
300000000000000000000000300000000000000000000000300000000000400000000000000000000000000000000000,
|
|
300000000000000000000000000000000000300000000000000000000000300000000000000000000000000000000000,
|
|
#MEASURE 4/4
|
|
#SCROLL 1
|
|
300000000000000000000000300000000000000000000000,
|
|
300000000000400000000000000000000000000000000000,
|
|
300000000000000000000000000000000000300000000000,
|
|
000000000000300000000000000000000000000000000000,
|
|
300000000000000000000000300000000000000000000000,
|
|
300000000000400000000000000000000000000000000000,
|
|
600000000000000000000000000000000000000008000000,
|
|
700000000000000000000000000000000000800000000000,
|
|
100000000000100000000000100000000000000000000000,
|
|
200000000000200000000000200000000000200000000000,
|
|
100000000000100000000000100000000000000000000000,
|
|
100000000000100000000000700000000000000000800000,
|
|
000000000000100000000000100000000000000000000000,
|
|
200000000000200000000000200000000000200000000000,
|
|
100000000000100000000000100000000000000000000000,
|
|
700000000000000000000000000000000000800000000000,
|
|
100000000000100000000000100000000000000000000000,
|
|
100000000000100000000000100000000000100000000000,
|
|
100000000000100000000000100000000000000000000000,
|
|
100000000000100000000000700000000000000000800000,
|
|
000000000000100000000000100000000000000000000000,
|
|
100000000000100000000000100000000000100000000000,
|
|
500000000000000000000000000000000000000000000000,
|
|
000000000000000000000000000800000000000000000000,
|
|
|
|
#GOGOSTART
|
|
300000000000000000000000300000000000000000000000,
|
|
300000000000400000000000000000000000000000000000,
|
|
300000000000000000000000000000000000300000000000,
|
|
000000000000300000000000000000000000000000000000,
|
|
300000000000000000000000300000000000000000000000,
|
|
300000000000400000000000000000000000000000000000,
|
|
300000000000000000000000000000000000300000000000,
|
|
000000000000300000000000000000000000000000000000,
|
|
300000000000000000000000300000000000000000000000,
|
|
300000000000400000000000000000000000000000000000,
|
|
300000000000000000000000000000000000300000000000,
|
|
000000000000300000000000000000000000000000000000,
|
|
300000000000000000000000300000000000000000000000,
|
|
|
|
#GOGOEND
|
|
300000000000400000000000000000000000000000000000,
|
|
300000000000000000000000300000000000000000000000,
|
|
700000000000000000000000000000000000800000000000,
|
|
100000000000200000000000100000000000200000000000,
|
|
100000000000100000000000200000000000200000000000,
|
|
100000000000200000000000100000000000200000000000,
|
|
100000000000100000000000700000000000000000800000,
|
|
000000000000200000000000100000000000200000000000,
|
|
100000000000100000000000200000000000200000000000,
|
|
100000000000200000000000100000000000200000000000,
|
|
700000000000000000000000000000000000800000000000,
|
|
100000000000100000000000100000000000100000000000,
|
|
500000000000000000000008000000000000000000000000,
|
|
100000000000100000000000100000000000100000000000,
|
|
200000000000200000000000700000000000000000800000,
|
|
000000000000100000000000100000000000100000000000,
|
|
500000000000000000000008000000000000000000000000,
|
|
100000000000100000000000100000000000100000000000,
|
|
|
|
#GOGOSTART
|
|
#MEASURE 3/4
|
|
400000000000000000400000000000000000,
|
|
|
|
#GOGOEND
|
|
500000000000000000000008000000000000,
|
|
|
|
#GOGOSTART
|
|
#MEASURE 4/4
|
|
300000000000000000300000000000000000000000000000,
|
|
#MEASURE 3/4
|
|
400000000000000000400000000000000000,
|
|
|
|
#GOGOEND
|
|
500000000000000000000008000000000000,
|
|
|
|
#GOGOSTART
|
|
#MEASURE 5/4
|
|
300000000000000000300000000000000000
|
|
|
|
#GOGOEND
|
|
000000000000000000000000,
|
|
|
|
#GOGOSTART
|
|
#MEASURE 3/4
|
|
400000000000000000400000000000000000,
|
|
|
|
#GOGOEND
|
|
500000000000000000000008000000000000,
|
|
|
|
#GOGOSTART
|
|
#MEASURE 4/4
|
|
300000000000000000300000000000000000000000000000,
|
|
#MEASURE 3/4
|
|
400000000000000000400000000000000000,
|
|
|
|
#GOGOEND
|
|
500000000000000000000008000000000000,
|
|
|
|
#GOGOSTART
|
|
#MEASURE 5/4
|
|
300000000000000000300000000000000000
|
|
|
|
#GOGOEND
|
|
000000000000000000000000,
|
|
|
|
#GOGOSTART
|
|
#MEASURE 3/4
|
|
100000000000100000000000100000000000,
|
|
|
|
#GOGOEND
|
|
500000000000000000000008000000000000,
|
|
|
|
#GOGOSTART
|
|
#MEASURE 4/4
|
|
100000000000100000000000100000000000000000000000,
|
|
#MEASURE 3/4
|
|
100000000000100000000000100000000000,
|
|
|
|
#GOGOEND
|
|
500000000000000000000008000000000000,
|
|
|
|
#GOGOSTART
|
|
#MEASURE 4/4
|
|
100000000000100000000000100000000000000000000000,
|
|
|
|
#GOGOEND
|
|
100000000000100000000000400000000000000000000000,
|
|
200000000000000000000000000000000000000000000000,
|
|
200000000000000000000000000000000000000000000000,
|
|
200000000000000000000000000000000000000000000000,
|
|
200000000000000000000000000000000000000000000000,
|
|
100000000000100000000000100000000000000000000000,
|
|
100000000000100000000000100000000000000000000000,
|
|
500000000000000000000000000000000000000000000000,
|
|
000000000000000000000000000000000000000000000000,
|
|
#MEASURE 3/4
|
|
000000000000000800000000000000000000,
|
|
#MEASURE 4/4
|
|
100000000000100000000000100000000000000000000000,
|
|
100000000000200000000000100000000000200000000000,
|
|
100000000000100000000000100000000000000000000000,
|
|
100000000000100000000000700000000000000000800000,
|
|
000000000000200000000000200000000000000000000000,
|
|
200000000000200000000000200000000000200000000000,
|
|
100000000000100000000000100000000000100000000000,
|
|
700000000000000000000000000000000000800000000000,
|
|
#MEASURE 2/4
|
|
#BPMCHANGE 56
|
|
#SCROLL 4
|
|
300000000000000000000000,
|
|
#MEASURE 4/4
|
|
#BPMCHANGE 224
|
|
#SCROLL 1
|
|
300000000000100000000000300000000000000000000000,
|
|
|
|
#GOGOSTART
|
|
300000000000400000000000000000000000100000000000,
|
|
300000000000000000000000100000000000300000000000,
|
|
000000000000300000000000000000000000000000000000,
|
|
300000000000100000000000300000000000000000000000,
|
|
300000000000400000000000000000000000100000000000,
|
|
300000000000000000000000100000000000300000000000,
|
|
000000000000300000000000000000000000000000000000,
|
|
300000000000100000000000300000000000000000000000,
|
|
300000000000400000000000000000000000200000000000,
|
|
300000000000000000000000200000000000300000000000,
|
|
000000000000300000000000000000000000000000000000,
|
|
300000000000100000000000300000000000000000000000,
|
|
300000000000400000000000000000000000000000000000,
|
|
|
|
#GOGOEND
|
|
300000000000000000000000300000000000000000000000,
|
|
000000000000000000000000000000000000000000000000,
|
|
000000000000000000000000000000000000000000000000,
|
|
|
|
#GOGOSTART
|
|
#SCROLL 2
|
|
000000000000000000000000000000000000000000000000,
|
|
000000000000500000000000000000000000000000000008,
|
|
|
|
#GOGOEND
|
|
|
|
|
|
#END
|
|
|