2000 lines
21 KiB
Plaintext
2000 lines
21 KiB
Plaintext
//TJADB Project
|
|
TITLE:The Future of the Taiko Drum
|
|
TITLEJA:The Future of the 太鼓ドラム
|
|
SUBTITLE:--Camellia
|
|
SUBTITLEJA:太鼓 de タイムトラベル2765 / かめりあ
|
|
BPM:276.5
|
|
WAVE:The Future of the Taiko Drum.ogg
|
|
OFFSET:-0.921
|
|
DEMOSTART:35.638
|
|
|
|
COURSE:Edit
|
|
LEVEL:10
|
|
BALLOON:12,12
|
|
SCOREINIT:710
|
|
SCOREDIFF:0
|
|
|
|
|
|
#START
|
|
|
|
|
|
1111,
|
|
1111,
|
|
1111,
|
|
100100111111,
|
|
111111111111,
|
|
111111101010,
|
|
3,
|
|
000000000000000000000000500000000000000008000000,
|
|
1020002020122212,
|
|
1112100020111122,
|
|
100000100200000010001000100000200000200200200200,
|
|
100010000000100200200000100200100000200000200200,
|
|
1010201022201022,
|
|
100100200200100200200200200200100000200020001000,
|
|
100000100000200020001000200200200200100000200000,
|
|
2211200020002000,
|
|
100000200000100020002000100020001000000001000100,
|
|
2211112210201112,
|
|
100000200000500008000000100200200100000010000000,
|
|
000020002000100010002000200100100200100010001000,
|
|
10201022,
|
|
1020202010202022,
|
|
10221222,
|
|
1020202210202222,
|
|
1020000020222010,
|
|
2210112220100022,
|
|
1000101120020220,
|
|
200000000100000200100000200200002000500008000000,
|
|
100000200200200200100500000000000008000000100000,
|
|
0220222210102020,
|
|
100000200000100010002000200200100000200000100000,
|
|
0220200020002000,
|
|
1000000000000022,
|
|
2000111012110110,
|
|
1101101020102020,
|
|
100200000100200000100100200200500000000008000000,
|
|
1111,
|
|
1111,
|
|
111111111111,
|
|
7008,
|
|
1020112010221020,
|
|
1122102011201000,
|
|
1022102011201022,
|
|
1120102210201010,
|
|
1020112010221020,
|
|
1122102011201010,
|
|
1022102011201022,
|
|
1120102210200020,
|
|
1010112010221020,
|
|
1122102011201000,
|
|
1022102011201022,
|
|
1120102210201120,
|
|
1020112010221020,
|
|
1020112010221020,
|
|
1120001000100100,
|
|
2010222020221020,
|
|
|
|
#GOGOSTART
|
|
500000000008000000200200500000000000000000000008,
|
|
0010112010201120,
|
|
1000112210001222,
|
|
100000500000000008000000200000200000100000500008,
|
|
000000200200100200200200100000200000100000500008,
|
|
0022112110202022,
|
|
100100100100100000000000100010001000100000000000,
|
|
1011222200000000,
|
|
|
|
#GOGOEND
|
|
2222222222222222,
|
|
1000000011111111,
|
|
1111111111111111,
|
|
200000200200000101000000,
|
|
2222222222222222,
|
|
1000200011111111,
|
|
1111111111111111,
|
|
2000202210202020,
|
|
#BPMCHANGE 260
|
|
3,
|
|
#MEASURE 1/16
|
|
#BPMCHANGE 245
|
|
#SCROLL 1.18
|
|
,
|
|
#SCROLL 1.24
|
|
,
|
|
#SCROLL 1.31
|
|
,
|
|
#SCROLL 1.39
|
|
,
|
|
#SCROLL 1.47
|
|
,
|
|
#SCROLL 1.55
|
|
,
|
|
#SCROLL 1.64
|
|
,
|
|
#SCROLL 1.74
|
|
,
|
|
#SCROLL 1.84
|
|
,
|
|
#SCROLL 1.94
|
|
,
|
|
#SCROLL 2.05
|
|
,
|
|
#SCROLL 2.17
|
|
,
|
|
#SCROLL 2.3
|
|
,
|
|
#SCROLL 2.43
|
|
,
|
|
#SCROLL 2.57
|
|
,
|
|
#SCROLL 2.72
|
|
,
|
|
#BPMCHANGE 230
|
|
#SCROLL 3.06
|
|
,
|
|
#SCROLL 3.24
|
|
,
|
|
#SCROLL 3.42
|
|
,
|
|
#SCROLL 3.65
|
|
,
|
|
#SCROLL 3.83
|
|
,
|
|
#SCROLL 4.05
|
|
,
|
|
#SCROLL 4.28
|
|
,
|
|
#SCROLL 4.52
|
|
,
|
|
#SCROLL 4.78
|
|
,
|
|
#SCROLL 5.06
|
|
,
|
|
#SCROLL 5.35
|
|
,
|
|
#SCROLL 5.66
|
|
,
|
|
#SCROLL 5.98
|
|
,
|
|
#SCROLL 6.33
|
|
,
|
|
#SCROLL 6.69
|
|
,
|
|
#SCROLL 7.07
|
|
,
|
|
#BPMCHANGE 220
|
|
#SCROLL 7.82
|
|
,
|
|
#SCROLL 8.25
|
|
,
|
|
#SCROLL 8.71
|
|
,
|
|
#SCROLL 9.19
|
|
,
|
|
#SCROLL 9.69
|
|
,
|
|
#SCROLL 10.23
|
|
,
|
|
#SCROLL 10.79
|
|
,
|
|
#SCROLL 11.39
|
|
,
|
|
#SCROLL 12.02
|
|
,
|
|
#SCROLL 12.68
|
|
,
|
|
#SCROLL 13.38
|
|
,
|
|
#SCROLL 14.12
|
|
,
|
|
#SCROLL 14.9
|
|
,
|
|
#SCROLL 15.72
|
|
,
|
|
#SCROLL 16.59
|
|
,
|
|
#SCROLL 17.5
|
|
,
|
|
#BPMCHANGE 210
|
|
#SCROLL 19.35
|
|
,
|
|
#SCROLL 20.39
|
|
,
|
|
#SCROLL 21.49
|
|
,
|
|
#SCROLL 22.65
|
|
,
|
|
#SCROLL 23.87
|
|
,
|
|
#SCROLL 25.15
|
|
,
|
|
#SCROLL 26.51
|
|
,
|
|
#SCROLL 27.94
|
|
,
|
|
#SCROLL 29.44
|
|
,
|
|
#SCROLL 31.03
|
|
,
|
|
#SCROLL 32.7
|
|
,
|
|
,
|
|
#BARLINEOFF
|
|
#MEASURE 1/4
|
|
#SCROLL 2
|
|
4,
|
|
#BARLINEON
|
|
#MEASURE 4/4
|
|
#SCROLL 1
|
|
100000200000200200202020200000200000100000200000,
|
|
221222
|
|
#SCROLL 2
|
|
40,
|
|
#BPMCHANGE 200
|
|
#SCROLL 1
|
|
1020102011201022,
|
|
102010221120
|
|
#SCROLL 2
|
|
4000,
|
|
#BPMCHANGE 190
|
|
#SCROLL 1
|
|
1110102010221122,
|
|
111010221101
|
|
#SCROLL 2
|
|
4000,
|
|
#BPMCHANGE 180
|
|
#SCROLL 1
|
|
11012011,
|
|
011021
|
|
#SCROLL 2
|
|
40,
|
|
#BPMCHANGE 170
|
|
#SCROLL 1
|
|
10201121,
|
|
012110
|
|
#SCROLL 2
|
|
40,
|
|
#BPMCHANGE 160
|
|
#SCROLL 1
|
|
11221220,
|
|
222220200020
|
|
#SCROLL 2
|
|
4000,
|
|
#BPMCHANGE 87
|
|
#SCROLL 2
|
|
12212121
|
|
122112
|
|
#SCROLL 4
|
|
40,
|
|
#BPMCHANGE 79
|
|
#SCROLL 2
|
|
10102020
|
|
021020
|
|
#SCROLL 4
|
|
40,
|
|
#BPMCHANGE 276.5
|
|
#SCROLL 0.5
|
|
3,
|
|
#BARLINEOFF
|
|
,
|
|
000000000000000000000000200002000020000200002000,
|
|
020000200000020000000000000000000000000000000000,
|
|
#BARLINEON
|
|
#SCROLL 1
|
|
10101011,
|
|
100100111
|
|
#SCROLL 2
|
|
400,
|
|
#SCROLL 1
|
|
10101011,
|
|
100100111
|
|
#SCROLL 2
|
|
400,
|
|
#SCROLL 1
|
|
111111111111,
|
|
111111111111,
|
|
,
|
|
7008,
|
|
30040030,
|
|
0040000011112000,
|
|
|
|
#GOGOSTART
|
|
1020112211221020,
|
|
1022102011201022,
|
|
1020102011201020,
|
|
1120112211221222,
|
|
1020201022201020,
|
|
2010221022221111,
|
|
1020112010221122,
|
|
122122122111,
|
|
1020112010221020,
|
|
1022112211221122,
|
|
1020102010221110,
|
|
1002001002001110,
|
|
1020102210201020,
|
|
1122102211201020,
|
|
1020201120201111,
|
|
1022101022102212,
|
|
1020112211221222,
|
|
1122112211221222,
|
|
100102010102,
|
|
001000100020001000100200,
|
|
0020112211221222,
|
|
1122112211221210,
|
|
1001002001001002,
|
|
0020201122222211,
|
|
1020112010221020,
|
|
1120102210201122,
|
|
1022102011201022,
|
|
1022112211221111,
|
|
1020112010221020,
|
|
1022102011221020,
|
|
100000200000100100200200100020001000200010002000,
|
|
211211211211,
|
|
|
|
#GOGOEND
|
|
100000100000100000100100200000500000000008000000,
|
|
100000100100100100200200200200200200100010001000,
|
|
1000000010201120,
|
|
2022112210112220,
|
|
|
|
#GOGOSTART
|
|
1120201120201120,
|
|
200000500000000008000000200000200000100000500008,
|
|
0022112111221121,
|
|
100200200100500000000000000000000000000008000000,
|
|
|
|
#GOGOEND
|
|
100100200100202010202010,
|
|
100100100200100200102000,
|
|
1020000010002222,
|
|
100100200200100100200100500000000000000008000000,
|
|
|
|
#GOGOSTART
|
|
102020112112,
|
|
100020005000000000000000000000000008000000000000,
|
|
|
|
#GOGOEND
|
|
#BPMCHANGE 285
|
|
2222222222222222,
|
|
#BPMCHANGE 290
|
|
1000000011111111,
|
|
#BPMCHANGE 295
|
|
1111111111111111,
|
|
#BPMCHANGE 305
|
|
200000200200000101000000,
|
|
#BPMCHANGE 310
|
|
2222222222222222,
|
|
#BPMCHANGE 320
|
|
1000200011111111,
|
|
#BPMCHANGE 330
|
|
1111111111111111,
|
|
#BPMCHANGE 340
|
|
1111111111111111,
|
|
#MEASURE 8/4
|
|
#BPMCHANGE 350
|
|
500000000000000000000008000000000000000000000000000000000000000000000000000000000000000000000000,
|
|
#MEASURE 1/8
|
|
#SCROLL 19.28
|
|
,
|
|
#SCROLL 13.976
|
|
,
|
|
#SCROLL 31.36
|
|
,
|
|
#SCROLL 22.72
|
|
,
|
|
#SCROLL 27.92
|
|
,
|
|
#SCROLL 20.234
|
|
,
|
|
#SCROLL 23.486
|
|
,
|
|
#SCROLL 14.635
|
|
,
|
|
#SCROLL 19.04
|
|
,
|
|
#SCROLL 9.04
|
|
,
|
|
#SCROLL 12.8
|
|
,
|
|
#SCROLL 7.6
|
|
,
|
|
#SCROLL 11.84
|
|
,
|
|
#SCROLL 15.25
|
|
,
|
|
#SCROLL 23.185
|
|
,
|
|
#SCROLL 32.343
|
|
,
|
|
|
|
|
|
#END
|
|
|
|
|
|
COURSE:Oni
|
|
LEVEL:10
|
|
BALLOON:10,11
|
|
SCOREINIT:1010
|
|
SCOREDIFF:0
|
|
|
|
|
|
#START
|
|
|
|
|
|
1111,
|
|
1111,
|
|
1111,
|
|
100100101010,
|
|
5,
|
|
000000000000000000000000000000000000000008000000,
|
|
3,
|
|
,
|
|
1000000020222010,
|
|
1110100020111020,
|
|
11001222,
|
|
10101122,
|
|
1010201022201020,
|
|
11112120,
|
|
1010200022201020,
|
|
2022200020002000,
|
|
100000000000100010001000100010001000000001000500,
|
|
000000000000000000000000008000000000100000100000,
|
|
1020100011010000,
|
|
000020002000200000000000200200200000100000000000,
|
|
10201022,
|
|
12221222,
|
|
10201222,
|
|
12221222,
|
|
1000000020222010,
|
|
1110100020100020,
|
|
1000101020020200,
|
|
200000000100000100000000200020002000000000000000,
|
|
100000200200200000500000000000000008000000100000,
|
|
0020222010102020,
|
|
12102221,
|
|
0222,
|
|
1000000000000022,
|
|
2000100010100100,
|
|
1001001020102020,
|
|
100000000100000000100100100000500000000008000000,
|
|
1111,
|
|
1111,
|
|
500000000000000000000000000000000000000008000000,
|
|
3,
|
|
|
|
1020102010201110,
|
|
1020102011101000,
|
|
1020102011102010,
|
|
1110201010201000,
|
|
1020102010201110,
|
|
1020102011101000,
|
|
1020102011102010,
|
|
1110201010200020,
|
|
|
|
1020102010201110,
|
|
1020102011101000,
|
|
1020102011102010,
|
|
1110201010201000,
|
|
1020102010201110,
|
|
1020102011101000,
|
|
1020001000100100,
|
|
0000222020202020,
|
|
|
|
#GOGOSTART
|
|
500000000008000000200000500000000000000000000008,
|
|
01121212,
|
|
1000112010001120,
|
|
200000500000000008000000200000200000200000100000,
|
|
0022202010201010,
|
|
0022202010202020,
|
|
11,
|
|
1011200000000000,
|
|
#GOGOEND
|
|
|
|
2220202020202020,
|
|
1000000011101010,
|
|
11111111,
|
|
2,
|
|
2220202020202020,
|
|
1000000011101010,
|
|
11111111,
|
|
20221222,
|
|
|
|
#BPMCHANGE 260
|
|
3,
|
|
#BPMCHANGE 245
|
|
#MEASURE 1/16
|
|
#SCROLL 1.18
|
|
,
|
|
#SCROLL 1.24
|
|
,
|
|
#SCROLL 1.31
|
|
,
|
|
#SCROLL 1.39
|
|
,
|
|
#SCROLL 1.47
|
|
,
|
|
#SCROLL 1.55
|
|
,
|
|
#SCROLL 1.64
|
|
,
|
|
#SCROLL 1.74
|
|
,
|
|
#SCROLL 1.84
|
|
,
|
|
#SCROLL 1.94
|
|
,
|
|
#SCROLL 2.05
|
|
,
|
|
#SCROLL 2.17
|
|
,
|
|
#SCROLL 2.3
|
|
,
|
|
#SCROLL 2.43
|
|
,
|
|
#SCROLL 2.57
|
|
,
|
|
#SCROLL 2.72
|
|
,
|
|
#BPMCHANGE 230
|
|
#SCROLL 3.06
|
|
,
|
|
#SCROLL 3.24
|
|
,
|
|
#SCROLL 3.42
|
|
,
|
|
#SCROLL 3.65
|
|
,
|
|
#SCROLL 3.83
|
|
,
|
|
#SCROLL 4.05
|
|
,
|
|
#SCROLL 4.28
|
|
,
|
|
#SCROLL 4.52
|
|
,
|
|
#SCROLL 4.78
|
|
,
|
|
#SCROLL 5.06
|
|
,
|
|
#SCROLL 5.35
|
|
,
|
|
#SCROLL 5.66
|
|
,
|
|
#SCROLL 5.98
|
|
,
|
|
#SCROLL 6.33
|
|
,
|
|
#SCROLL 6.69
|
|
,
|
|
#SCROLL 7.07
|
|
,
|
|
#BPMCHANGE 220
|
|
#SCROLL 7.82
|
|
,
|
|
#SCROLL 8.25
|
|
,
|
|
#SCROLL 8.71
|
|
,
|
|
#SCROLL 9.19
|
|
,
|
|
#SCROLL 9.69
|
|
,
|
|
#SCROLL 10.23
|
|
,
|
|
#SCROLL 10.79
|
|
,
|
|
#SCROLL 11.39
|
|
,
|
|
#SCROLL 12.02
|
|
,
|
|
#SCROLL 12.68
|
|
,
|
|
#SCROLL 13.38
|
|
,
|
|
#SCROLL 14.12
|
|
,
|
|
#SCROLL 14.9
|
|
,
|
|
#SCROLL 15.72
|
|
,
|
|
#SCROLL 16.59
|
|
,
|
|
#SCROLL 17.5
|
|
,
|
|
#BPMCHANGE 210
|
|
#SCROLL 19.35
|
|
,
|
|
#SCROLL 20.39
|
|
,
|
|
#SCROLL 21.49
|
|
,
|
|
#SCROLL 22.65
|
|
,
|
|
#SCROLL 23.87
|
|
,
|
|
#SCROLL 25.15
|
|
,
|
|
#SCROLL 26.51
|
|
,
|
|
#SCROLL 27.94
|
|
,
|
|
#SCROLL 29.44
|
|
,
|
|
#SCROLL 31.03
|
|
,
|
|
#SCROLL 32.7
|
|
,
|
|
,
|
|
#BARLINEOFF
|
|
#MEASURE 1/4
|
|
#SCROLL 2
|
|
4,
|
|
|
|
#BARLINEON
|
|
#MEASURE 4/4
|
|
#SCROLL 1
|
|
1020222020201020,
|
|
221222
|
|
#SCROLL 2
|
|
40,
|
|
#BPMCHANGE 200
|
|
#SCROLL 1
|
|
1020102011201022,
|
|
102010201120
|
|
#SCROLL 2
|
|
4000,
|
|
#BPMCHANGE 190
|
|
#SCROLL 1
|
|
1110102010201122,
|
|
111010221101
|
|
#SCROLL 2
|
|
4000,
|
|
#BPMCHANGE 180
|
|
#SCROLL 1
|
|
11012011,
|
|
011021
|
|
#SCROLL 2
|
|
40,
|
|
|
|
#BPMCHANGE 170
|
|
#SCROLL 1
|
|
10201121,
|
|
012110
|
|
#SCROLL 2
|
|
40,
|
|
#BPMCHANGE 160
|
|
#SCROLL 1
|
|
11221220,
|
|
222220200020
|
|
#SCROLL 2
|
|
4000,
|
|
#BPMCHANGE 87
|
|
#SCROLL 2
|
|
12212121
|
|
122112
|
|
#SCROLL 4
|
|
40,
|
|
#BPMCHANGE 79
|
|
#SCROLL 2
|
|
10102020
|
|
021020
|
|
#SCROLL 4
|
|
40,
|
|
|
|
#BPMCHANGE 276.5
|
|
#SCROLL 0.5
|
|
3,
|
|
#BARLINEOFF
|
|
,
|
|
000000000000000000000000200002000020000200002000,
|
|
020000200000020000000000000000000000000000000000,
|
|
|
|
#BARLINEON
|
|
#SCROLL 1
|
|
10101011,
|
|
111
|
|
#SCROLL 2
|
|
4,
|
|
#SCROLL 1
|
|
10101011,
|
|
111
|
|
#SCROLL 2
|
|
4,
|
|
#SCROLL 1
|
|
5,
|
|
000000000000000000000000000000000000000008000000,
|
|
3,
|
|
7008,
|
|
|
|
30040030,
|
|
0040000011112000,
|
|
|
|
#GOGOSTART
|
|
1020102010201110,
|
|
1020102011101000,
|
|
1020102011102010,
|
|
1110201010201000,
|
|
1020102010201110,
|
|
1020102011101000,
|
|
1020102011102010,
|
|
1110201010201000,
|
|
|
|
1020102010201110,
|
|
1020102011101000,
|
|
1020102011102010,
|
|
1110201010201000,
|
|
1020102010201110,
|
|
1020102011101000,
|
|
1110201110201010,
|
|
500000000000000000000000000000000000000008000000,
|
|
|
|
1020102010201110,
|
|
1020102011101000,
|
|
100102010102,
|
|
001000100020001000100200,
|
|
0020102010201110,
|
|
1020102011101000,
|
|
1001002001001002,
|
|
000000200000200000500000000000000000000008000000,
|
|
|
|
1020102010201110,
|
|
1020102011101010,
|
|
1020102011102010,
|
|
1110201010201110,
|
|
1020102010201110,
|
|
100000200000100000200000500000000000000008000000,
|
|
111111111111,
|
|
70000008,
|
|
#GOGOEND
|
|
|
|
100000000000000000100100200000500000000008000000,
|
|
100000100000100000200000200200200000100010001000,
|
|
1000000010201110,
|
|
2020111010002000,
|
|
#GOGOSTART
|
|
1110201110201110,
|
|
200000500000000008000000200000200000100000200000,
|
|
0020111010201110,
|
|
100000200000500000000000000000000000000008000000,
|
|
#GOGOEND
|
|
|
|
100100200100202020202000,
|
|
11121210,
|
|
10001022,
|
|
100100100000100100100000500000000000000008000000,
|
|
#GOGOSTART
|
|
102020111122,
|
|
200020005000000000000000000000000008000000000000,
|
|
#GOGOEND
|
|
|
|
#BPMCHANGE 285
|
|
2220202020202020,
|
|
#BPMCHANGE 290
|
|
1000000011101010,
|
|
#BPMCHANGE 295
|
|
11111111,
|
|
#BPMCHANGE 305
|
|
2,
|
|
#BPMCHANGE 310
|
|
2220202020202020,
|
|
#BPMCHANGE 320
|
|
1000000011101010,
|
|
#BPMCHANGE 330
|
|
11111111,
|
|
#BPMCHANGE 340
|
|
11111111,
|
|
|
|
#BPMCHANGE 350
|
|
#MEASURE 8/4
|
|
500000000000000000000008000000000000000000000000000000000000000000000000000000000000000000000000,
|
|
#MEASURE 1/8
|
|
#SCROLL 19.28
|
|
,
|
|
#SCROLL 13.976
|
|
,
|
|
#SCROLL 31.36
|
|
,
|
|
#SCROLL 22.72
|
|
,
|
|
#SCROLL 27.92
|
|
,
|
|
#SCROLL 20.234
|
|
,
|
|
#SCROLL 23.486
|
|
,
|
|
#SCROLL 14.635
|
|
,
|
|
#SCROLL 19.04
|
|
,
|
|
#SCROLL 9.04
|
|
,
|
|
#SCROLL 12.8
|
|
,
|
|
#SCROLL 7.6
|
|
,
|
|
#SCROLL 11.84
|
|
,
|
|
#SCROLL 15.25
|
|
,
|
|
#SCROLL 23.185
|
|
,
|
|
#SCROLL 32.343
|
|
,
|
|
|
|
|
|
#END
|
|
|
|
|
|
COURSE:Hard
|
|
LEVEL:8
|
|
BALLOON:20,15,17,7
|
|
SCOREINIT:1510
|
|
SCOREDIFF:0
|
|
|
|
|
|
#START
|
|
|
|
|
|
1111,
|
|
1111,
|
|
1111,
|
|
1110,
|
|
5,
|
|
000000000000000000000000000000000000000008000000,
|
|
3,
|
|
,
|
|
|
|
10002220,
|
|
11012020,
|
|
10001222,
|
|
10101122,
|
|
10002220,
|
|
11012020,
|
|
11202210,
|
|
0222,
|
|
|
|
10002220,
|
|
11012020,
|
|
10101110,
|
|
00101122,
|
|
1212,
|
|
10221022,
|
|
1212,
|
|
10221022,
|
|
|
|
10002220,
|
|
11012020,
|
|
10001222,
|
|
10001122,
|
|
10002220,
|
|
11012020,
|
|
11202210,
|
|
0222,
|
|
|
|
10000002,
|
|
2170,
|
|
,
|
|
0008,
|
|
1111,
|
|
1111,
|
|
500000000000000000000000000000000000000008000000,
|
|
3,
|
|
|
|
10101212,
|
|
10101110,
|
|
10101212,
|
|
10101120,
|
|
10101212,
|
|
10101110,
|
|
10101122,
|
|
11201120,
|
|
|
|
10101212,
|
|
10101110,
|
|
10101212,
|
|
10101120,
|
|
10101212,
|
|
10101212,
|
|
500000000000000000000000000000000000000008000000,
|
|
00202220,
|
|
|
|
#GOGOSTART
|
|
500000000000000000000000000000000000000000000008,
|
|
01102211,
|
|
20112011,
|
|
22002211,
|
|
02211221,
|
|
02211221,
|
|
11,
|
|
11200000,
|
|
#GOGOEND
|
|
|
|
22222222,
|
|
20001111,
|
|
11111111,
|
|
1,
|
|
22222222,
|
|
20001111,
|
|
11111111,
|
|
1,
|
|
|
|
#BPMCHANGE 260
|
|
3,
|
|
#BPMCHANGE 245
|
|
#MEASURE 1/16
|
|
#SCROLL 1.18
|
|
,
|
|
#SCROLL 1.24
|
|
,
|
|
#SCROLL 1.31
|
|
,
|
|
#SCROLL 1.39
|
|
,
|
|
#SCROLL 1.47
|
|
,
|
|
#SCROLL 1.55
|
|
,
|
|
#SCROLL 1.64
|
|
,
|
|
#SCROLL 1.74
|
|
,
|
|
#SCROLL 1.84
|
|
,
|
|
#SCROLL 1.94
|
|
,
|
|
#SCROLL 2.05
|
|
,
|
|
#SCROLL 2.17
|
|
,
|
|
#SCROLL 2.3
|
|
,
|
|
#SCROLL 2.43
|
|
,
|
|
#SCROLL 2.57
|
|
,
|
|
#SCROLL 2.72
|
|
,
|
|
#BPMCHANGE 230
|
|
#SCROLL 3.06
|
|
,
|
|
#SCROLL 3.24
|
|
,
|
|
#SCROLL 3.42
|
|
,
|
|
#SCROLL 3.65
|
|
,
|
|
#SCROLL 3.83
|
|
,
|
|
#SCROLL 4.05
|
|
,
|
|
#SCROLL 4.28
|
|
,
|
|
#SCROLL 4.52
|
|
,
|
|
#SCROLL 4.78
|
|
,
|
|
#SCROLL 5.06
|
|
,
|
|
#SCROLL 5.35
|
|
,
|
|
#SCROLL 5.66
|
|
,
|
|
#SCROLL 5.98
|
|
,
|
|
#SCROLL 6.33
|
|
,
|
|
#SCROLL 6.69
|
|
,
|
|
#SCROLL 7.07
|
|
,
|
|
#BPMCHANGE 220
|
|
#SCROLL 7.82
|
|
,
|
|
#SCROLL 8.25
|
|
,
|
|
#SCROLL 8.71
|
|
,
|
|
#SCROLL 9.19
|
|
,
|
|
#SCROLL 9.69
|
|
,
|
|
#SCROLL 10.23
|
|
,
|
|
#SCROLL 10.79
|
|
,
|
|
#SCROLL 11.39
|
|
,
|
|
#SCROLL 12.02
|
|
,
|
|
#SCROLL 12.68
|
|
,
|
|
#SCROLL 13.38
|
|
,
|
|
#SCROLL 14.12
|
|
,
|
|
#SCROLL 14.9
|
|
,
|
|
#SCROLL 15.72
|
|
,
|
|
#SCROLL 16.59
|
|
,
|
|
#SCROLL 17.5
|
|
,
|
|
#BPMCHANGE 210
|
|
#SCROLL 19.35
|
|
,
|
|
#SCROLL 20.39
|
|
,
|
|
#SCROLL 21.49
|
|
,
|
|
#SCROLL 22.65
|
|
,
|
|
#SCROLL 23.87
|
|
,
|
|
#SCROLL 25.15
|
|
,
|
|
#SCROLL 26.51
|
|
,
|
|
#SCROLL 27.94
|
|
,
|
|
#SCROLL 29.44
|
|
,
|
|
#SCROLL 31.03
|
|
,
|
|
#SCROLL 32.7
|
|
,
|
|
,
|
|
#BARLINEOFF
|
|
#MEASURE 1/4
|
|
#SCROLL 1
|
|
4,
|
|
|
|
#BARLINEON
|
|
#MEASURE 4/4
|
|
10222010,
|
|
22122040,
|
|
#BPMCHANGE 200
|
|
10101012,
|
|
12121040,
|
|
#BPMCHANGE 190
|
|
1110101010002000,
|
|
1110101010004000,
|
|
#BPMCHANGE 180
|
|
11012011,
|
|
01102140,
|
|
|
|
#BPMCHANGE 170
|
|
10201121,
|
|
01211040,
|
|
#BPMCHANGE 160
|
|
11221220,
|
|
2220202000204000,
|
|
#BPMCHANGE 87
|
|
#SCROLL 2
|
|
11212120
|
|
11211240,
|
|
#BPMCHANGE 79
|
|
10102020
|
|
02102040,
|
|
|
|
#BPMCHANGE 276.5
|
|
#SCROLL 0.5
|
|
3,
|
|
#BARLINEOFF
|
|
,
|
|
,
|
|
,
|
|
|
|
#BARLINEON
|
|
#SCROLL 1
|
|
10101011,
|
|
1114,
|
|
10101011,
|
|
1114,
|
|
5,
|
|
000000000000000000000000000000000000000008000000,
|
|
3,
|
|
,
|
|
|
|
30040030,
|
|
04001120,
|
|
|
|
#GOGOSTART
|
|
10101212,
|
|
10101110,
|
|
10101212,
|
|
10101120,
|
|
10101212,
|
|
10101110,
|
|
10101122,
|
|
11201120,
|
|
|
|
10101212,
|
|
10101110,
|
|
10101212,
|
|
10101120,
|
|
10101212,
|
|
10101110,
|
|
12012011,
|
|
500000000000000000000000000000000000000008000000,
|
|
|
|
10101212,
|
|
10101110,
|
|
1700,
|
|
0008,
|
|
00101212,
|
|
10101110,
|
|
7,
|
|
0008,
|
|
|
|
10101212,
|
|
10101110,
|
|
10101212,
|
|
10101120,
|
|
10101212,
|
|
1150,
|
|
000000000000000000000000000000000000000008000000,
|
|
70000008,
|
|
#GOGOEND
|
|
|
|
32,
|
|
32,
|
|
3022,
|
|
2022,
|
|
#GOGOSTART
|
|
11221122,
|
|
12002211,
|
|
05000000,
|
|
000000000000000000000000000000000000000008000000,
|
|
#GOGOEND
|
|
|
|
32,
|
|
32,
|
|
3022,
|
|
2022,
|
|
#GOGOSTART
|
|
1012,
|
|
200000005000000000000000000000000008000000000000,
|
|
#GOGOEND
|
|
|
|
#BPMCHANGE 285
|
|
22222222,
|
|
#BPMCHANGE 290
|
|
20001111,
|
|
#BPMCHANGE 295
|
|
11111111,
|
|
#BPMCHANGE 305
|
|
1,
|
|
#BPMCHANGE 310
|
|
22222222,
|
|
#BPMCHANGE 320
|
|
20001111,
|
|
#BPMCHANGE 330
|
|
11111111,
|
|
#BPMCHANGE 340
|
|
11111111,
|
|
|
|
#BPMCHANGE 350
|
|
#MEASURE 8/4
|
|
500000000000000000000008000000000000000000000000000000000000000000000000000000000000000000000000,
|
|
#MEASURE 1/8
|
|
#SCROLL 19.28
|
|
,
|
|
#SCROLL 13.976
|
|
,
|
|
#SCROLL 31.36
|
|
,
|
|
#SCROLL 22.72
|
|
,
|
|
#SCROLL 27.92
|
|
,
|
|
#SCROLL 20.234
|
|
,
|
|
#SCROLL 23.486
|
|
,
|
|
#SCROLL 14.635
|
|
,
|
|
#SCROLL 19.04
|
|
,
|
|
#SCROLL 9.04
|
|
,
|
|
#SCROLL 12.8
|
|
,
|
|
#SCROLL 7.6
|
|
,
|
|
#SCROLL 11.84
|
|
,
|
|
#SCROLL 15.25
|
|
,
|
|
#SCROLL 23.185
|
|
,
|
|
#SCROLL 32.343
|
|
,
|
|
|
|
|
|
#END
|
|
|
|
|
|
COURSE:Normal
|
|
LEVEL:7
|
|
BALLOON:12,10,11,10,5
|
|
SCOREINIT:2530
|
|
SCOREDIFF:0
|
|
|
|
|
|
#START
|
|
|
|
|
|
11,
|
|
11,
|
|
11,
|
|
11,
|
|
5,
|
|
000000000000000000000000000000000008000000000000,
|
|
3,
|
|
,
|
|
|
|
1022,
|
|
10010010,
|
|
1012,
|
|
1022,
|
|
1022,
|
|
10010010,
|
|
1021,
|
|
0222,
|
|
|
|
1022,
|
|
10010010,
|
|
1012,
|
|
1022,
|
|
11,
|
|
1012,
|
|
11,
|
|
1212,
|
|
|
|
1022,
|
|
10010010,
|
|
1012,
|
|
1022,
|
|
1022,
|
|
10010010,
|
|
1021,
|
|
0222,
|
|
|
|
1,
|
|
1170,
|
|
,
|
|
0008,
|
|
1111,
|
|
1111,
|
|
500000000000000000000000000000000008000000000000,
|
|
3,
|
|
|
|
10101110,
|
|
1110,
|
|
10101110,
|
|
1110,
|
|
10101110,
|
|
1110,
|
|
20202220,
|
|
2220,
|
|
|
|
10101110,
|
|
1110,
|
|
10101110,
|
|
1110,
|
|
10101110,
|
|
10101110,
|
|
500000000000000000000000000000000000000008000000,
|
|
,
|
|
|
|
#GOGOSTART
|
|
11,
|
|
01101010,
|
|
11,
|
|
20001011,
|
|
05000000,
|
|
000000000000000000000000000000000008000000000000,
|
|
11,
|
|
22200000,
|
|
#GOGOEND
|
|
|
|
500000000000000000000000000000000000000000000008,
|
|
05,
|
|
000000000000000000000000000000000000000000000008,
|
|
,
|
|
500000000000000000000000000000000000000000000008,
|
|
05,
|
|
000000000000000000000000000000000000000000000008,
|
|
,
|
|
|
|
#BPMCHANGE 260
|
|
3,
|
|
#BPMCHANGE 245
|
|
#MEASURE 1/16
|
|
#SCROLL 1.18
|
|
,
|
|
#SCROLL 1.24
|
|
,
|
|
#SCROLL 1.31
|
|
,
|
|
#SCROLL 1.39
|
|
,
|
|
#SCROLL 1.47
|
|
,
|
|
#SCROLL 1.55
|
|
,
|
|
#SCROLL 1.64
|
|
,
|
|
#SCROLL 1.74
|
|
,
|
|
#SCROLL 1.84
|
|
,
|
|
#SCROLL 1.94
|
|
,
|
|
#SCROLL 2.05
|
|
,
|
|
#SCROLL 2.17
|
|
,
|
|
#SCROLL 2.3
|
|
,
|
|
#SCROLL 2.43
|
|
,
|
|
#SCROLL 2.57
|
|
,
|
|
#SCROLL 2.72
|
|
,
|
|
#BPMCHANGE 230
|
|
#SCROLL 3.06
|
|
,
|
|
#SCROLL 3.24
|
|
,
|
|
#SCROLL 3.42
|
|
,
|
|
#SCROLL 3.65
|
|
,
|
|
#SCROLL 3.83
|
|
,
|
|
#SCROLL 4.05
|
|
,
|
|
#SCROLL 4.28
|
|
,
|
|
#SCROLL 4.52
|
|
,
|
|
#SCROLL 4.78
|
|
,
|
|
#SCROLL 5.06
|
|
,
|
|
#SCROLL 5.35
|
|
,
|
|
#SCROLL 5.66
|
|
,
|
|
#SCROLL 5.98
|
|
,
|
|
#SCROLL 6.33
|
|
,
|
|
#SCROLL 6.69
|
|
,
|
|
#SCROLL 7.07
|
|
,
|
|
#BPMCHANGE 220
|
|
#SCROLL 7.82
|
|
,
|
|
#SCROLL 8.25
|
|
,
|
|
#SCROLL 8.71
|
|
,
|
|
#SCROLL 9.19
|
|
,
|
|
#SCROLL 9.69
|
|
,
|
|
#SCROLL 10.23
|
|
,
|
|
#SCROLL 10.79
|
|
,
|
|
#SCROLL 11.39
|
|
,
|
|
#SCROLL 12.02
|
|
,
|
|
#SCROLL 12.68
|
|
,
|
|
#SCROLL 13.38
|
|
,
|
|
#SCROLL 14.12
|
|
,
|
|
#SCROLL 14.9
|
|
,
|
|
#SCROLL 15.72
|
|
,
|
|
#SCROLL 16.59
|
|
,
|
|
#SCROLL 17.5
|
|
,
|
|
#BPMCHANGE 210
|
|
#SCROLL 19.35
|
|
,
|
|
#SCROLL 20.39
|
|
,
|
|
#SCROLL 21.49
|
|
,
|
|
#SCROLL 22.65
|
|
,
|
|
#SCROLL 23.87
|
|
,
|
|
#SCROLL 25.15
|
|
,
|
|
#SCROLL 26.51
|
|
,
|
|
#SCROLL 27.94
|
|
,
|
|
#SCROLL 29.44
|
|
,
|
|
#SCROLL 31.03
|
|
,
|
|
#SCROLL 32.7
|
|
,
|
|
,
|
|
#BARLINEOFF
|
|
#MEASURE 1/4
|
|
#SCROLL 1
|
|
4,
|
|
|
|
#BARLINEON
|
|
#MEASURE 4/4
|
|
10222010,
|
|
2124,
|
|
#BPMCHANGE 200
|
|
10101012,
|
|
10121040,
|
|
#BPMCHANGE 190
|
|
10111020,
|
|
10111040,
|
|
#BPMCHANGE 180
|
|
10012011,
|
|
01102040,
|
|
|
|
#BPMCHANGE 170
|
|
10201201,
|
|
01021040,
|
|
#BPMCHANGE 160
|
|
11201200,
|
|
22220040,
|
|
#BPMCHANGE 87
|
|
#SCROLL 2
|
|
10202220
|
|
12201240,
|
|
#BPMCHANGE 79
|
|
1122
|
|
0124,
|
|
|
|
#BPMCHANGE 276.5
|
|
#SCROLL 0.5
|
|
3,
|
|
#BARLINEOFF
|
|
,
|
|
,
|
|
,
|
|
|
|
#BARLINEON
|
|
#SCROLL 1
|
|
1111,
|
|
1114,
|
|
1111,
|
|
1114,
|
|
5,
|
|
000000000000000000000000000000000008000000000000,
|
|
3,
|
|
,
|
|
|
|
30030030,
|
|
03003000,
|
|
|
|
#GOGOSTART
|
|
10101110,
|
|
1110,
|
|
10101110,
|
|
1110,
|
|
10101110,
|
|
1110,
|
|
20202220,
|
|
2220,
|
|
|
|
10101110,
|
|
1110,
|
|
10101110,
|
|
1110,
|
|
10101110,
|
|
1110,
|
|
5,
|
|
000000000000000000000000000000000008000000000000,
|
|
|
|
10101110,
|
|
1110,
|
|
1700,
|
|
0008,
|
|
00101110,
|
|
1110,
|
|
7,
|
|
0008,
|
|
|
|
10101110,
|
|
1110,
|
|
20202220,
|
|
2220,
|
|
10101110,
|
|
1150,
|
|
000000000000000000000000000000000000000000000008,
|
|
,
|
|
#GOGOEND
|
|
|
|
32,
|
|
32,
|
|
32,
|
|
22,
|
|
#GOGOSTART
|
|
10010010,
|
|
01001011,
|
|
07000000,
|
|
0008,
|
|
#GOGOEND
|
|
|
|
32,
|
|
32,
|
|
32,
|
|
22,
|
|
#GOGOSTART
|
|
1012,
|
|
7008,
|
|
#GOGOEND
|
|
|
|
#BPMCHANGE 285
|
|
500000000000000000000000000000000000000000000008,
|
|
#BPMCHANGE 290
|
|
05,
|
|
#BPMCHANGE 295
|
|
000000000000000000000000000000000000000000000008,
|
|
#BPMCHANGE 305
|
|
,
|
|
#BPMCHANGE 310
|
|
500000000000000000000000000000000000000000000008,
|
|
#BPMCHANGE 320
|
|
05,
|
|
#BPMCHANGE 330
|
|
,
|
|
#BPMCHANGE 340
|
|
,
|
|
|
|
#BPMCHANGE 350
|
|
#MEASURE 8/4
|
|
000000000000000000000008000000000000000000000000000000000000000000000000000000000000000000000000,
|
|
#MEASURE 1/8
|
|
#SCROLL 19.28
|
|
,
|
|
#SCROLL 13.976
|
|
,
|
|
#SCROLL 31.36
|
|
,
|
|
#SCROLL 22.72
|
|
,
|
|
#SCROLL 27.92
|
|
,
|
|
#SCROLL 20.234
|
|
,
|
|
#SCROLL 23.486
|
|
,
|
|
#SCROLL 14.635
|
|
,
|
|
#SCROLL 19.04
|
|
,
|
|
#SCROLL 9.04
|
|
,
|
|
#SCROLL 12.8
|
|
,
|
|
#SCROLL 7.6
|
|
,
|
|
#SCROLL 11.84
|
|
,
|
|
#SCROLL 15.25
|
|
,
|
|
#SCROLL 23.185
|
|
,
|
|
#SCROLL 32.343
|
|
,
|
|
|
|
|
|
#END
|
|
|
|
|
|
COURSE:Easy
|
|
LEVEL:5
|
|
BALLOON:10,8,8,18,4
|
|
SCOREINIT:3270
|
|
SCOREDIFF:0
|
|
|
|
|
|
#START
|
|
|
|
|
|
1,
|
|
1,
|
|
1,
|
|
1,
|
|
5,
|
|
000000000000000000000000000080000000000000000000,
|
|
3,
|
|
,
|
|
|
|
12,
|
|
10010010,
|
|
1011,
|
|
12,
|
|
12,
|
|
10010010,
|
|
1011,
|
|
0111,
|
|
|
|
12,
|
|
10010010,
|
|
1011,
|
|
12,
|
|
11,
|
|
1011,
|
|
11,
|
|
1011,
|
|
|
|
12,
|
|
10010010,
|
|
1011,
|
|
12,
|
|
12,
|
|
10010010,
|
|
1011,
|
|
0111,
|
|
|
|
1,
|
|
1170,
|
|
,
|
|
0008,
|
|
1111,
|
|
1111,
|
|
500000000000000000000000000080000000000000000000,
|
|
3,
|
|
|
|
1111,
|
|
1110,
|
|
1111,
|
|
1110,
|
|
1111,
|
|
1110,
|
|
2222,
|
|
2220,
|
|
|
|
1111,
|
|
1110,
|
|
1111,
|
|
1110,
|
|
1111,
|
|
1111,
|
|
500000000000000000000000000000000000000008000000,
|
|
,
|
|
|
|
#GOGOSTART
|
|
11,
|
|
000000500000000000000000000008000000000000000000,
|
|
11,
|
|
22,
|
|
05000000,
|
|
000000000000000000000000000080000000000000000000,
|
|
11,
|
|
2200,
|
|
#GOGOEND
|
|
|
|
500000000000000000000000000000000000000000000008,
|
|
05,
|
|
000000000000000000000000000000000000000000000008,
|
|
,
|
|
500000000000000000000000000000000000000000000008,
|
|
05,
|
|
000000000000000000000000000000000000000000000008,
|
|
,
|
|
|
|
#BPMCHANGE 260
|
|
3,
|
|
#BPMCHANGE 245
|
|
#MEASURE 1/16
|
|
#SCROLL 1.18
|
|
,
|
|
#SCROLL 1.24
|
|
,
|
|
#SCROLL 1.31
|
|
,
|
|
#SCROLL 1.39
|
|
,
|
|
#SCROLL 1.47
|
|
,
|
|
#SCROLL 1.55
|
|
,
|
|
#SCROLL 1.64
|
|
,
|
|
#SCROLL 1.74
|
|
,
|
|
#SCROLL 1.84
|
|
,
|
|
#SCROLL 1.94
|
|
,
|
|
#SCROLL 2.05
|
|
,
|
|
#SCROLL 2.17
|
|
,
|
|
#SCROLL 2.3
|
|
,
|
|
#SCROLL 2.43
|
|
,
|
|
#SCROLL 2.57
|
|
,
|
|
#SCROLL 2.72
|
|
,
|
|
#BPMCHANGE 230
|
|
#SCROLL 3.06
|
|
,
|
|
#SCROLL 3.24
|
|
,
|
|
#SCROLL 3.42
|
|
,
|
|
#SCROLL 3.65
|
|
,
|
|
#SCROLL 3.83
|
|
,
|
|
#SCROLL 4.05
|
|
,
|
|
#SCROLL 4.28
|
|
,
|
|
#SCROLL 4.52
|
|
,
|
|
#SCROLL 4.78
|
|
,
|
|
#SCROLL 5.06
|
|
,
|
|
#SCROLL 5.35
|
|
,
|
|
#SCROLL 5.66
|
|
,
|
|
#SCROLL 5.98
|
|
,
|
|
#SCROLL 6.33
|
|
,
|
|
#SCROLL 6.69
|
|
,
|
|
#SCROLL 7.07
|
|
,
|
|
#BPMCHANGE 220
|
|
#SCROLL 7.82
|
|
,
|
|
#SCROLL 8.25
|
|
,
|
|
#SCROLL 8.71
|
|
,
|
|
#SCROLL 9.19
|
|
,
|
|
#SCROLL 9.69
|
|
,
|
|
#SCROLL 10.23
|
|
,
|
|
#SCROLL 10.79
|
|
,
|
|
#SCROLL 11.39
|
|
,
|
|
#SCROLL 12.02
|
|
,
|
|
#SCROLL 12.68
|
|
,
|
|
#SCROLL 13.38
|
|
,
|
|
#SCROLL 14.12
|
|
,
|
|
#SCROLL 14.9
|
|
,
|
|
#SCROLL 15.72
|
|
,
|
|
#SCROLL 16.59
|
|
,
|
|
#SCROLL 17.5
|
|
,
|
|
#BPMCHANGE 210
|
|
#SCROLL 19.35
|
|
,
|
|
#SCROLL 20.39
|
|
,
|
|
#SCROLL 21.49
|
|
,
|
|
#SCROLL 22.65
|
|
,
|
|
#SCROLL 23.87
|
|
,
|
|
#SCROLL 25.15
|
|
,
|
|
#SCROLL 26.51
|
|
,
|
|
#SCROLL 27.94
|
|
,
|
|
#SCROLL 29.44
|
|
,
|
|
#SCROLL 31.03
|
|
,
|
|
#SCROLL 32.7
|
|
,
|
|
,
|
|
#BARLINEOFF
|
|
#MEASURE 1/4
|
|
#SCROLL 1
|
|
4,
|
|
|
|
#BARLINEON
|
|
#MEASURE 4/4
|
|
11,
|
|
2024,
|
|
#BPMCHANGE 200
|
|
11,
|
|
1014,
|
|
#BPMCHANGE 190
|
|
11,
|
|
1114,
|
|
#BPMCHANGE 180
|
|
12,
|
|
0124,
|
|
|
|
#BPMCHANGE 170
|
|
1202,
|
|
0204,
|
|
#BPMCHANGE 160
|
|
10200200,
|
|
500000000000000008000000000000000000400000000000,
|
|
#BPMCHANGE 87
|
|
#SCROLL 2
|
|
1020
|
|
1114,
|
|
#BPMCHANGE 79
|
|
1020
|
|
0124,
|
|
|
|
#BPMCHANGE 276.5
|
|
#SCROLL 0.5
|
|
3,
|
|
#BARLINEOFF
|
|
,
|
|
,
|
|
,
|
|
|
|
#BARLINEON
|
|
#SCROLL 1
|
|
11,
|
|
1014,
|
|
11,
|
|
1014,
|
|
5,
|
|
000000000000000000000000000080000000000000000000,
|
|
3,
|
|
,
|
|
|
|
30030030,
|
|
03003000,
|
|
|
|
#GOGOSTART
|
|
1111,
|
|
1110,
|
|
1111,
|
|
1110,
|
|
1111,
|
|
1110,
|
|
2222,
|
|
2220,
|
|
|
|
1111,
|
|
1110,
|
|
1111,
|
|
1110,
|
|
1111,
|
|
1110,
|
|
5,
|
|
000000000000000000000000000080000000000000000000,
|
|
|
|
1111,
|
|
1110,
|
|
1700,
|
|
0008,
|
|
0111,
|
|
1110,
|
|
7,
|
|
0008,
|
|
|
|
1111,
|
|
1110,
|
|
2222,
|
|
2220,
|
|
1111,
|
|
1150,
|
|
000000000000000000000000000000000000000000000008,
|
|
,
|
|
#GOGOEND
|
|
|
|
32,
|
|
32,
|
|
32,
|
|
22,
|
|
#GOGOSTART
|
|
7,
|
|
,
|
|
,
|
|
0008,
|
|
#GOGOEND
|
|
|
|
32,
|
|
32,
|
|
32,
|
|
22,
|
|
#GOGOSTART
|
|
1011,
|
|
7008,
|
|
#GOGOEND
|
|
|
|
#BPMCHANGE 285
|
|
500000000000000000000000000000000000000000000008,
|
|
#BPMCHANGE 290
|
|
05,
|
|
#BPMCHANGE 295
|
|
000000000000000000000000000000000000000000000008,
|
|
#BPMCHANGE 305
|
|
,
|
|
#BPMCHANGE 310
|
|
500000000000000000000000000000000000000000000008,
|
|
#BPMCHANGE 320
|
|
05,
|
|
#BPMCHANGE 330
|
|
,
|
|
#BPMCHANGE 340
|
|
,
|
|
|
|
#BPMCHANGE 350
|
|
#MEASURE 8/4
|
|
000000000000000000000008000000000000000000000000000000000000000000000000000000000000000000000000,
|
|
#MEASURE 1/8
|
|
#SCROLL 19.28
|
|
,
|
|
#SCROLL 13.976
|
|
,
|
|
#SCROLL 31.36
|
|
,
|
|
#SCROLL 22.72
|
|
,
|
|
#SCROLL 27.92
|
|
,
|
|
#SCROLL 20.234
|
|
,
|
|
#SCROLL 23.486
|
|
,
|
|
#SCROLL 14.635
|
|
,
|
|
#SCROLL 19.04
|
|
,
|
|
#SCROLL 9.04
|
|
,
|
|
#SCROLL 12.8
|
|
,
|
|
#SCROLL 7.6
|
|
,
|
|
#SCROLL 11.84
|
|
,
|
|
#SCROLL 15.25
|
|
,
|
|
#SCROLL 23.185
|
|
,
|
|
#SCROLL 32.343
|
|
,
|
|
|
|
|
|
#END
|
|
|