Files
TJA-by-song-no/tja/1075.tja
2026-03-04 23:59:27 +09:00

305 lines
10 KiB
Plaintext

//TJADB Project
TITLE:Sugar
TITLEJA:Sugar
SUBTITLE:--Maroon 5
BPM:120
WAVE:Sugar.ogg
OFFSET:-2.333
DEMOSTART:39.562
COURSE:Oni
LEVEL:7
BALLOON:8,6,25
SCOREINIT:2420
SCOREDIFF:0
#START
,
,
,
100000200000100000100000200000000000100000200000,
100000200000100000100000200000000000200000000000,
100000200000100000100000200000100000000000100000,
100000200000100000100000200000200000200000000000,
100000200000100000100000200000100000200000000000,
100000200000100000100000200000000000200000000000,
100000200000100000100000200000100000200000100000,
100000200000100000100000200000000000200000000000,
100000100100200100100000100000100000200000200000,
100000100100200100100000200000100000100000200000,
100000100100200100200000100000100000200000700000,
00800122,
100000100100200100100000100000100000200000200000,
100000100100200100100000200000100000100000200000,
100000100100200100200000100000100000100000200000,
7803,
#GOGOSTART
300000000000200000100000200000100000300000000000,
300000000000200000100000200000100100200000100000,
200000100000100100200000200000100100200000100000,
200000100000200000100000000000000000300000000000,
300000000000200000100000200000100000300000000000,
300000000000200000100000200000100100200000100000,
200000100000100100200000200000100100200000100000,
200000100000200000100000000000100100200000100000,
100000200000100000100100100000200000000000100000,
100000200000100000200200200000000000200000100000,
100000200000100000100100100000200000000000100000,
100000100000200200200000000000000000300000000000,
300000000000200000100000200000100000300000000000,
300000000000200000100000200000100100200000100000,
200000100000100100200000200000100100200000100000,
200000100000200000100200100000100000300000200000,
300000100100200100100000200000100000300000200000,
300000100100200100100000200000100100200000200200,
200000100000100100200000200000100100200000100000,
200000100100200000500000000008000000300000200000,
300000100100200100100000200000100000300000200000,
300000100100200100100000200000100100200000200200,
200000100000100100200000200000100100200000100000,
200000100100200000100100200000100100200000100100,
200000200000100100100100100000200000200000100100,
200000200000100100100100200000100000200000100100,
200000200000100100100100100000200000200000100100,
200000100100200200200000200000100000300000200000,
300000100100200100100000200000100000300000200000,
300000100100200100100000200000100100200000700000,
,
800000200000100000200000000000200000100000200000,
#GOGOEND
100000100000200000100000000000000000400000000000,
100000100000200000100000000000000000200000000000,
200000200000100000200000000000000000100000000000,
100000100000200000100000000000000000200000000000,
#END
COURSE:Hard
LEVEL:4
BALLOON:6,3,20
SCOREINIT:3960
SCOREDIFF:0
#START
,
,
,
100000000000100000100000200000000000100000000000,
100000000000100000100000200000000000200000000000,
100000000000100000100000200000100000000000100000,
100000000000100000100000200000200000200000000000,
100000000000100000100000200000100000000000000000,
100000000000100000100000200000000000200000000000,
100000000000100000100000200000100000000000100000,
100000000000100000100000200000000000200000000000,
100000100100100000100000100000000000200000000000,
100000200200200000200000200000000000200000000000,
100000100100100000200000100000100000100000700000,
00800220,
100000100100100000100000100000000000200000000000,
100000200200200000200000200000000000200000000000,
100000100100100000200000100000100000100000000000,
7803,
#GOGOSTART
300000000000200000100000200000000000300000000000,
300000000000200000100000200000100000100000100000,
000000100000100000000000200000100000000000500000,
000000000008000000000000000000000000300000000000,
300000000000200000100000200000000000300000000000,
300000000000200000100000200000100000100000100000,
000000100000100000000000200000100000000000500000,
000000000008000000000000000000100000200000100000,
000000200000100000000000100000200000000000100000,
000000200000100000000000200000000000000000100000,
000000200000100000000000100000200000000000100000,
000000100000200000200000000000000000300000000000,
300000000000200000100000200000000000300000000000,
300000000000200000100000200000100000100000100000,
000000100000100000000000200000100000000000500000,
000000000008000000000000000000000000300000000000,
300000000000200000100000200000000000300000000000,
300000000000200000100000200000100000100000100000,
000000100000100000000000200000100000000000600000,
000000000008000000000000000000000000300000000000,
300000000000200000100000200000000000300000000000,
300000000000200000100000200000100000100000100000,
000000100000100000000000200000100000000000200000,
000000100000200000100000200000100000200000100000,
000000200000100000000000100000200000000000100000,
000000200000100000000000200000000000000000100000,
000000200000100000000000100000200000000000100000,
000000100000200000200000000000000000300000000000,
300000000000200000100000200000000000300000000000,
300000000000200000100000200000100000100000900000,
,
8,
#GOGOEND
100000100000200000100000000000000000400000000000,
100000100000200000100000000000000000200000000000,
200000200000100000200000000000000000100000000000,
100000100000200000100000000000000000200000000000,
#END
COURSE:Normal
LEVEL:3
BALLOON:8,8,13
SCOREINIT:7530
SCOREDIFF:0
#START
,
,
,
100000000000000000000000100000000000000000000000,
100000000000000000000000200000000000000000000000,
100000000000100000000000200000000000000000000000,
200000000000100000000000100000000000000000000000,
100000000000000000000000100000000000000000000000,
100000000000000000000000200000000000000000000000,
100000000000100000000000200000000000000000000000,
200000000000100000000000100000000000000000000000,
100000000000000000000000100000000000200000000000,
100000000000000000000000200000000000200000000000,
100000000000000000000000100000100000100000000000,
100000000000000000000000000000000000000000000000,
100000000000000000000000100000000000200000000000,
100000000000000000000000200000000000200000000000,
100000000000000000000000100000100000100000000000,
100000000000000000000000000000000000300000000000,
#GOGOSTART
300000000000000000000000000000000000300000000000,
300000000000000000000000000000000000000000100000,
000000100000100000000000200000200000000000500000,
000000000008000000000000000000000000300000000000,
300000000000000000000000000000000000300000000000,
300000000000000000000000000000000000000000100000,
000000100000100000000000200000200000000000500000,
000000000008000000000000000000000000000000100000,
000000100000100000000000100000100000000000100000,
000000100000100000000000200000000000000000100000,
000000100000100000000000100000100000000000700000,
0083,
300000000000000000000000000000000000300000000000,
300000000000000000000000000000000000000000100000,
000000100000100000000000200000200000000000500000,
000000000008000000000000000000000000300000000000,
300000000000000000000000000000000000300000000000,
300000000000000000000000000000000000000000100000,
000000100000100000000000200000200000000000600000,
000000000008000000000000000000000000300000000000,
300000000000000000000000000000000000300000000000,
300000000000000000000000000000000000000000100000,
000000100000100000000000200000200000000000600000,
000000000008000000000000000000000000000000100000,
000000100000100000000000100000100000000000100000,
000000100000100000000000200000000000000000100000,
000000100000100000000000100000100000000000700000,
0083,
300000000000000000000000000000000000300000000000,
300000000000000000000000000000000000000000900000,
,
8,
#GOGOEND
100000100000000000100000000000000000400000000000,
100000100000000000100000000000000000000000000000,
200000200000000000200000000000000000000000000000,
100000100000000000100000000000000000000000000000,
#END
COURSE:Easy
LEVEL:1
BALLOON:6,6,11
SCOREINIT:14980
SCOREDIFF:0
#START
,
,
,
100000000000000000000000000000000000000000000000,
100000000000000000000000000000000000000000000000,
100000000000000000000000200000000000000000000000,
200000000000000000000000100000000000000000000000,
100000000000000000000000000000000000000000000000,
100000000000000000000000000000000000000000000000,
100000000000000000000000200000000000000000000000,
200000000000000000000000100000000000000000000000,
100000000000000000000000100000000000000000000000,
100000000000000000000000200000000000000000000000,
100000000000000000000000100000000000100000000000,
100000000000000000000000000000000000000000000000,
100000000000000000000000100000000000000000000000,
100000000000000000000000200000000000000000000000,
100000000000000000000000100000000000100000000000,
100000000000000000000000000000000000000000000000,
#GOGOSTART
300000000000000000000000000000000000000000000000,
300000000000000000000000000000000000000000500000,
000000000000000000000000000000000000000000000000,
000000000008000000000000000000000000000000000000,
300000000000000000000000000000000000000000000000,
300000000000000000000000000000000000000000500000,
000000000000000000000000000000000000000000000000,
000000000008000000000000000000000000000000100000,
000000000000100000000000100000000000000000100000,
000000000000100000000000100000000000000000100000,
000000000000100000000000100000000000000000700000,
08,
300000000000000000000000000000000000000000000000,
300000000000000000000000000000000000000000500000,
000000000000000000000000000000000000000000000000,
000000000008000000000000000000000000000000000000,
300000000000000000000000000000000000000000000000,
300000000000000000000000000000000000000000600000,
000000000000000000000000000000000000000000000000,
000000000008000000000000000000000000000000000000,
300000000000000000000000000000000000000000000000,
300000000000000000000000000000000000000000600000,
000000000000000000000000000000000000000000000000,
000000000008000000000000000000000000000000100000,
000000000000100000000000100000000000000000100000,
000000000000100000000000100000000000000000100000,
000000000000100000000000100000000000000000700000,
08,
300000000000000000000000000000000000000000000000,
300000000000000000000000000000000000000000900000,
,
8,
#GOGOEND
100000000000000000100000000000000000000000000000,
100000000000000000100000000000000000000000000000,
200000000000000000200000000000000000000000000000,
100000000000000000100000000000000000000000000000,
#END