742 lines
7.8 KiB
Plaintext
742 lines
7.8 KiB
Plaintext
//TJADB Project
|
||
TITLE:Player’s High
|
||
TITLEJA:Player's High
|
||
SUBTITLE:--K.key
|
||
SUBTITLEJA:K.key
|
||
BPM:255
|
||
WAVE:Players High.ogg
|
||
OFFSET:-3.760
|
||
DEMOSTART:45.166
|
||
|
||
COURSE:Oni
|
||
LEVEL:10
|
||
BALLOON:8
|
||
SCOREINIT:1090
|
||
SCOREDIFF:0
|
||
|
||
|
||
#START
|
||
|
||
|
||
10212221,
|
||
01012212,
|
||
00102221,
|
||
00101100,
|
||
|
||
#GOGOSTART
|
||
30030060,
|
||
000000000000000000000000000000000000000008000000,
|
||
12212121,
|
||
222222100000,
|
||
|
||
#GOGOEND
|
||
1020002010222010,
|
||
0010202210002000,
|
||
1000201110201000,
|
||
1110100022202000,
|
||
10202003,
|
||
0040004000222020,
|
||
1000111120111010,
|
||
1022102012121212,
|
||
1010202011102010,
|
||
0011201120112000,
|
||
1000202010102121,
|
||
2121212120102000,
|
||
1110201000112020,
|
||
1110201110102000,
|
||
12212212,
|
||
30001222,
|
||
10012101,
|
||
02102021,
|
||
05000000,
|
||
000000000008000000000000100000100000200000200000,
|
||
10012101,
|
||
02102012,
|
||
000000500000000000000000000000000000000008000000,
|
||
3000000011102020,
|
||
1000201012102012,
|
||
2010201022212010,
|
||
0001200120102110,
|
||
0010400030001110,
|
||
2210221022102020,
|
||
0011101010201010,
|
||
10212121,
|
||
1120201000221020,
|
||
21212121,
|
||
100010001000200100100100200020001000100100100100,
|
||
7008,
|
||
20202122,
|
||
|
||
#GOGOSTART
|
||
1110201000102020,
|
||
11212122,
|
||
1110201000102010,
|
||
1020001000221000,
|
||
1000222010102010,
|
||
01212121,
|
||
1022201022201022,
|
||
2010222012201220,
|
||
|
||
#GOGOEND
|
||
101010100000
|
||
|
||
#GOGOSTART
|
||
200000000000100000200000100000200000,
|
||
1110201110102220,
|
||
|
||
#GOGOEND
|
||
1111
|
||
|
||
#GOGOSTART
|
||
200020111020,
|
||
1022221000102000,
|
||
30230260,
|
||
000000000000000000000000000000000000000008000000,
|
||
2,
|
||
1010101011101000,
|
||
|
||
#GOGOEND
|
||
11102120,
|
||
10212120,
|
||
1022202010202010,
|
||
000100200100100222200200,
|
||
11102120,
|
||
10212120,
|
||
1022201020100030,
|
||
0011202011202020,
|
||
1210101012101010,
|
||
0020002000221010,
|
||
0011201011202030,
|
||
00404300,
|
||
3022203022203000,
|
||
122222222222,
|
||
3022203022203000,
|
||
122222211111,
|
||
3022203022203000,
|
||
122112122121,
|
||
3022203022203020,
|
||
30202122,
|
||
1,
|
||
21,
|
||
33030444,
|
||
300000300000000000600000000000000000000000000008,
|
||
0000
|
||
|
||
#GOGOSTART
|
||
300011102010,
|
||
11212121,
|
||
1022201022201022,
|
||
2010222012201220,
|
||
|
||
#GOGOEND
|
||
101010100000
|
||
|
||
#GOGOSTART
|
||
200000000000100000200000100000200000,
|
||
1110201110102220,
|
||
|
||
#GOGOEND
|
||
1111
|
||
|
||
#GOGOSTART
|
||
200020111020,
|
||
1022221000102020,
|
||
30230260,
|
||
000000000000000000000000000000000000000008000000,
|
||
2,
|
||
1010101011101010,
|
||
1110202010121020,
|
||
1110211021102222,
|
||
1110202010121020,
|
||
1120201210112000,
|
||
1000111120201020,
|
||
1022102210112210,
|
||
1022221022221022,
|
||
2210222212212210,
|
||
|
||
#GOGOEND
|
||
101010100000
|
||
|
||
#GOGOSTART
|
||
200000200200100000200000100000200000,
|
||
1110201110102222,
|
||
|
||
#GOGOEND
|
||
1111
|
||
|
||
#GOGOSTART
|
||
201120111020,
|
||
1022221000112020,
|
||
3022203022203000,
|
||
111111222222,
|
||
500000000000000000000000000000000008000000000000,
|
||
1110101011101010,
|
||
3022203022203000,
|
||
111222111222,
|
||
2,
|
||
31113111,
|
||
112112112112,
|
||
122122122122,
|
||
#SCROLL 1.25
|
||
300000000000
|
||
#SCROLL 1
|
||
100100100100
|
||
#SCROLL 1.5
|
||
300000000000
|
||
#SCROLL 1
|
||
101010101010,
|
||
#SCROLL 2
|
||
3,
|
||
|
||
#GOGOEND
|
||
|
||
|
||
#END
|
||
|
||
|
||
COURSE:Hard
|
||
LEVEL:8
|
||
BALLOON:5,12,14,15,9
|
||
SCOREINIT:2370
|
||
SCOREDIFF:0
|
||
|
||
|
||
#START
|
||
|
||
|
||
10001001,
|
||
01011001,
|
||
00101101,
|
||
00101100,
|
||
|
||
#GOGOSTART
|
||
30030060,
|
||
000000000000000000000000000000000000000008000000,
|
||
10101110,
|
||
78,
|
||
|
||
#GOGOEND
|
||
11010101,
|
||
0112,
|
||
10010110,
|
||
1122,
|
||
10202003,
|
||
04040220,
|
||
10111011,
|
||
100000000000100000500000000000000000000008000000,
|
||
10201111,
|
||
01202020,
|
||
1015,
|
||
000000000000000000000008000000000000200000000000,
|
||
10070000,
|
||
0008,
|
||
10110110,
|
||
32,
|
||
10001101,
|
||
00102021,
|
||
05000000,
|
||
000000000008000000000000100000100000100000000000,
|
||
10001101,
|
||
00102022,
|
||
000000500000000000000000000000000000000008000000,
|
||
32,
|
||
10101111,
|
||
01010111,
|
||
00202111,
|
||
01403000,
|
||
21212122,
|
||
00101110,
|
||
1222,
|
||
11010010,
|
||
21212121,
|
||
100100111100,
|
||
7,
|
||
0008,
|
||
|
||
#GOGOSTART
|
||
11010220,
|
||
1222,
|
||
11010220,
|
||
11010010,
|
||
10001101,
|
||
01202020,
|
||
10210210,
|
||
21021010,
|
||
|
||
#GOGOEND
|
||
00
|
||
|
||
#GOGOSTART
|
||
101101,
|
||
10210222,
|
||
|
||
#GOGOEND
|
||
00
|
||
|
||
#GOGOSTART
|
||
101101,
|
||
30010010,
|
||
30030060,
|
||
000000000000000000000000000000000000000008000000,
|
||
2,
|
||
11,
|
||
|
||
#GOGOEND
|
||
1122,
|
||
1222,
|
||
10222221,
|
||
0120,
|
||
1122,
|
||
1222,
|
||
10101106,
|
||
000000000000000000000000000000000008000000000000,
|
||
11111111,
|
||
02020221,
|
||
01101103,
|
||
00404300,
|
||
30030050,
|
||
000000000000000000000000000000000000000008000000,
|
||
30030050,
|
||
000000000000000000000000000000000000000008000000,
|
||
30030060,
|
||
000000000000000000000000000000000000000008000000,
|
||
30030030,
|
||
3,
|
||
1,
|
||
21,
|
||
33030444,
|
||
300000300000000000600000000000000000000000000008,
|
||
00
|
||
|
||
#GOGOSTART
|
||
301101,
|
||
01202020,
|
||
10210210,
|
||
21021010,
|
||
|
||
#GOGOEND
|
||
00
|
||
|
||
#GOGOSTART
|
||
101101,
|
||
10210222,
|
||
|
||
#GOGOEND
|
||
00
|
||
|
||
#GOGOSTART
|
||
101101,
|
||
30010010,
|
||
30030060,
|
||
000000000000000000000000000000000000000008000000,
|
||
2,
|
||
11,
|
||
11220222,
|
||
10212120,
|
||
11220222,
|
||
11210110,
|
||
10112201,
|
||
01202020,
|
||
10210210,
|
||
21021010,
|
||
|
||
#GOGOEND
|
||
11
|
||
|
||
#GOGOSTART
|
||
101101,
|
||
10210222,
|
||
|
||
#GOGOEND
|
||
11
|
||
|
||
#GOGOSTART
|
||
102102,
|
||
30210222,
|
||
30030070,
|
||
,
|
||
8,
|
||
11101110,
|
||
30030070,
|
||
0008,
|
||
2,
|
||
33,
|
||
1111,
|
||
111100111100,
|
||
#SCROLL 1.25
|
||
3
|
||
#SCROLL 1.38
|
||
3,
|
||
#SCROLL 1.5
|
||
3,
|
||
|
||
#GOGOEND
|
||
|
||
|
||
#END
|
||
|
||
|
||
COURSE:Normal
|
||
LEVEL:7
|
||
BALLOON:5,11,8,9,9,9
|
||
SCOREINIT:3980
|
||
SCOREDIFF:0
|
||
|
||
|
||
#START
|
||
|
||
|
||
10001001,
|
||
00000001,
|
||
00001002,
|
||
0220,
|
||
|
||
#GOGOSTART
|
||
30030060,
|
||
000000000000000000000000000008000000000000000000,
|
||
1011,
|
||
78,
|
||
|
||
#GOGOEND
|
||
20000002,
|
||
0220,
|
||
10010000,
|
||
2222,
|
||
7,
|
||
0008,
|
||
1110,
|
||
100000000000500000000000000000000008000000000000,
|
||
10101001,
|
||
0110,
|
||
1015,
|
||
000000000000000000000008000000000000000000000000,
|
||
10070000,
|
||
0008,
|
||
10010010,
|
||
32,
|
||
10001001,
|
||
00002001,
|
||
05000000,
|
||
000000000008000000000000200000000000000000000000,
|
||
10001001,
|
||
00002002,
|
||
000000500000000000000000000000000000000000000008,
|
||
02,
|
||
10001001,
|
||
01010101,
|
||
00202001,
|
||
0330,
|
||
2222,
|
||
0110,
|
||
1111,
|
||
10010010,
|
||
2222,
|
||
1110,
|
||
7,
|
||
0008,
|
||
|
||
#GOGOSTART
|
||
10010020,
|
||
1212,
|
||
10010020,
|
||
10010000,
|
||
30001001,
|
||
0110,
|
||
20020020,
|
||
02002020,
|
||
|
||
#GOGOEND
|
||
0
|
||
|
||
#GOGOSTART
|
||
110,
|
||
1101,
|
||
|
||
#GOGOEND
|
||
00
|
||
|
||
#GOGOSTART
|
||
300300,
|
||
3,
|
||
30030060,
|
||
000000000000000000000000000008000000000000000000,
|
||
2,
|
||
11,
|
||
|
||
#GOGOEND
|
||
12,
|
||
12,
|
||
10101001,
|
||
0120,
|
||
12,
|
||
12,
|
||
10101006,
|
||
000000000000000000000000000000000008000000000000,
|
||
10001001,
|
||
01010101,
|
||
00202001,
|
||
0330,
|
||
30030050,
|
||
000000000000000000000000000008000000000000000000,
|
||
30030050,
|
||
000000000000000000000000000008000000000000000000,
|
||
30030060,
|
||
000000000000000000000000000008000000000000000000,
|
||
30030030,
|
||
3,
|
||
1,
|
||
2,
|
||
30030040,
|
||
300000000000000000600000000000000000000000000008,
|
||
00
|
||
|
||
#GOGOSTART
|
||
101001,
|
||
0110,
|
||
20020020,
|
||
02002020,
|
||
|
||
#GOGOEND
|
||
0
|
||
|
||
#GOGOSTART
|
||
110,
|
||
1101,
|
||
|
||
#GOGOEND
|
||
00
|
||
|
||
#GOGOSTART
|
||
300300,
|
||
3,
|
||
30030060,
|
||
000000000000000000000000000008000000000000000000,
|
||
2,
|
||
11,
|
||
10110020,
|
||
1212,
|
||
10110020,
|
||
11010000,
|
||
10001001,
|
||
0222,
|
||
20020020,
|
||
02002220,
|
||
|
||
#GOGOEND
|
||
00
|
||
|
||
#GOGOSTART
|
||
101100,
|
||
10110020,
|
||
|
||
#GOGOEND
|
||
00
|
||
|
||
#GOGOSTART
|
||
300300,
|
||
30020020,
|
||
30030070,
|
||
,
|
||
8,
|
||
1110,
|
||
30030070,
|
||
,
|
||
8,
|
||
33,
|
||
11,
|
||
1111,
|
||
#SCROLL 1.25
|
||
3
|
||
#SCROLL 1.38
|
||
3,
|
||
#SCROLL 1.5
|
||
3,
|
||
|
||
#GOGOEND
|
||
|
||
|
||
#END
|
||
|
||
|
||
COURSE:Easy
|
||
LEVEL:5
|
||
BALLOON:3,8,6,7,18,8,8
|
||
SCOREINIT:7520
|
||
SCOREDIFF:0
|
||
|
||
|
||
#START
|
||
|
||
|
||
10000001,
|
||
00000001,
|
||
00000002,
|
||
02,
|
||
|
||
#GOGOSTART
|
||
30030060,
|
||
000000000000000000000000000008000000000000000000,
|
||
11,
|
||
78,
|
||
|
||
#GOGOEND
|
||
20000002,
|
||
02,
|
||
1,
|
||
22,
|
||
7,
|
||
0008,
|
||
11,
|
||
500000000000000000000000000008000000000000000000,
|
||
10000001,
|
||
01,
|
||
15,
|
||
000000000000000000000008000000000000000000000000,
|
||
10070000,
|
||
0008,
|
||
10010000,
|
||
3,
|
||
10000001,
|
||
00002005,
|
||
,
|
||
000000000008000000000000000000000000000000000000,
|
||
10000001,
|
||
00002005,
|
||
0000000000000000000000000000000000000000000000008,
|
||
,
|
||
10000001,
|
||
00000001,
|
||
00001001,
|
||
0330,
|
||
2222,
|
||
0220,
|
||
11,
|
||
10010000,
|
||
22,
|
||
11,
|
||
7,
|
||
0008,
|
||
|
||
#GOGOSTART
|
||
1,
|
||
11,
|
||
1,
|
||
2,
|
||
30000001,
|
||
01,
|
||
5,
|
||
000000000000000000000000000000000008000000000000,
|
||
|
||
#GOGOEND
|
||
0
|
||
|
||
#GOGOSTART
|
||
010,
|
||
1,
|
||
|
||
#GOGOEND
|
||
00
|
||
|
||
#GOGOSTART
|
||
300300,
|
||
3,
|
||
30030060,
|
||
000000000000000000000000000008000000000000000000,
|
||
2,
|
||
1,
|
||
|
||
#GOGOEND
|
||
1,
|
||
1,
|
||
11,
|
||
02,
|
||
1,
|
||
1,
|
||
10001006,
|
||
000000000000000000000000000000000008000000000000,
|
||
7,
|
||
,
|
||
,
|
||
08,
|
||
30030050,
|
||
000000000000000000000000000008000000000000000000,
|
||
30030050,
|
||
000000000000000000000000000008000000000000000000,
|
||
30030060,
|
||
000000000000000000000000000008000000000000000000,
|
||
30030000,
|
||
3,
|
||
,
|
||
,
|
||
30030000,
|
||
300000000000000000600000000000000000000000000008,
|
||
00
|
||
|
||
#GOGOSTART
|
||
000001,
|
||
01,
|
||
5,
|
||
000000000000000000000000000000000008000000000000,
|
||
|
||
#GOGOEND
|
||
0
|
||
|
||
#GOGOSTART
|
||
1,
|
||
1,
|
||
|
||
#GOGOEND
|
||
00
|
||
|
||
#GOGOSTART
|
||
300300,
|
||
3,
|
||
30030060,
|
||
000000000000000000000000000008000000000000000000,
|
||
,
|
||
1,
|
||
10010000,
|
||
11,
|
||
10010000,
|
||
20020000,
|
||
10000001,
|
||
01,
|
||
5,
|
||
000000000000000000000000000000000008000000000000,
|
||
|
||
#GOGOEND
|
||
0
|
||
|
||
#GOGOSTART
|
||
010,
|
||
10010000,
|
||
|
||
#GOGOEND
|
||
00
|
||
|
||
#GOGOSTART
|
||
300300,
|
||
3,
|
||
30030070,
|
||
,
|
||
8,
|
||
11,
|
||
30030070,
|
||
,
|
||
8,
|
||
33,
|
||
1,
|
||
11,
|
||
#SCROLL 1.25
|
||
3
|
||
#SCROLL 1.38
|
||
3,
|
||
#SCROLL 1.5
|
||
3,
|
||
|
||
#GOGOEND
|
||
|
||
|
||
#END
|
||
|