Files
TJA-by-song-no/tja/1095.tja
2026-03-04 23:59:27 +09:00

357 lines
4.3 KiB
Plaintext

//TJADB Project
TITLE:Mao-u
TITLEJA:まおぅ
SUBTITLE:--Rio Hamamoto feat. Yuu (pLumsonic!)
SUBTITLEJA:feat.結羽(プラムソニック)
BPM:140
WAVE:Mao-u.ogg
OFFSET:-3.531
DEMOSTART:5.250
COURSE:Oni
LEVEL:8
BALLOON:11,11
SCOREINIT:680,2110
SCOREDIFF:185
#START
33,
100000100000101110101010,
111222100100,
100000100000101110101010,
112112101010,
100000100000101110101010,
122122100100,
100000100000101110101010,
111101400000,
101020101020001110101020,
111222101220,
101020101020001110101020,
111222303030,
301020101020001110101020,
111202100200,
101020101020001110101020,
222111221201,
1212,
100200100202,
1212,
100200120200,
300000222020100000200000,
100200100202,
100200120200,
202111201200,
#GOGOSTART
201020102010202220102010,
201020102010202220102010,
102010102010102220102010,
201010201010202220100000,
#GOGOEND
12,
101100202100,
12,
101100202100,
20002002,
22202020,
33,
100000100000101110101010,
111222110101,
100000100000101110101010,
112112101010,
100000100000101110101010,
122122110100,
100000100000101110101010,
14,
101020101020001110101020,
111100100200,
101020101020001110101020,
111102020202,
220000000000,
111111100200,
101020101020001110101020,
111101202020,
0002,
500000000000000000000008000000000000100000000000,
7081,
500000000000000000000008000000000000100000000000,
7081,
#GOGOSTART
201020102010101110101010,
201020102010202220101020,
201010201010101110201010,
201010201010201110201010,
#GOGOEND
12,
2202,
33,
303,
0,
#END
COURSE:Hard
LEVEL:7
BALLOON:5,5,5,5,2
SCOREINIT:800,3050
SCOREDIFF:225
#START
33,
100100101100,
111101100100,
100100101100,
111101101010,
100100101100,
111101100100,
100100101100,
111100400000,
1222,
111101100200,
1222,
111101104040,
4222,
111101100200,
1222,
111100222200,
101100201100,
500000000008000000000000100000001000100000000000,
101100201100,
500000000008000000000000100000001000100000000000,
300222200100,
500000000008000000000000100000001000100000000000,
500000000000000000000000000000000008000000000000,
101100201100,
#GOGOSTART
111111100200,
111111100200,
111111100100,
101111100200,
#GOGOEND
70081000,
2202,
70081000,
2202,
22,
2220,
33,
300100101100,
111101110101,
100100101100,
111101101010,
100100101100,
101101110100,
100100101100,
14,
100101010100,
111100100200,
100101010100,
111101010101,
110000000000,
111101100200,
100101010100,
111100202020,
001102220100,
102202200100,
102202200100,
102202201101,
102202200100,
#GOGOSTART
111111100101,
10700810,
111111100101,
10700810,
#GOGOEND
22,
2202,
33,
300000000000000070000800,
0,
#END
COURSE:Normal
LEVEL:5
BALLOON:10,6,6,6,6,2
SCOREINIT:1250,6890
SCOREDIFF:495
#START
33,
1,
1221,
1,
100200101010,
1,
1122,
1,
1120,
1,
1112,
1,
100100303030,
3,
1112,
1,
2222,
1212,
500000000000000000000008000000000000100000000000,
1212,
500000000000000000000000000000000008000000000000,
3001,
1011,
9009,
8,
#GOGOSTART
500000000000000000000008000000000000100000000000,
7081,
500000000000000000000008000000000000100000000000,
78,
#GOGOEND
11,
2202,
11,
2202,
22,
2220,
33,
1,
1221,
1,
100200101010,
1,
1122,
1,
12,
1,
1112,
1,
100101010101,
010000000000,
1112,
1,
100100202020,
,
500000000000000000000008000000000000100000000000,
7081,
500000000000000000000008000000000000100000000000,
78,
#GOGOSTART
1111,
2202,
1111,
2202,
#GOGOEND
12,
2202,
33,
300000000000000070000800,
0,
#END
COURSE:Easy
LEVEL:3
BALLOON:10,5,5,5,5,2
SCOREINIT:980,9450
SCOREDIFF:465
#START
33,
1,
1011,
1,
11,
1,
1011,
1,
12,
1,
1110,
1,
1110,
1,
1110,
1,
1110,
11,
500000000000000000000008000000000000000000000000,
11,
500000000000000000000008000000000000000000000000,
3001,
11,
9009,
8,
#GOGOSTART
500000000000000000000008000000000000000000000000,
78,
500000000000000000000000000000000008000000000000,
78,
#GOGOEND
12,
1101,
12,
1101,
12,
2220,
33,
3,
1111,
1,
1110,
1,
1111,
1,
12,
1,
1111,
1,
500000000000000000000000000000000000000000000008,
,
1111,
1,
1100,
,
500000000000000000000008000000000000000000000000,
78,
500000000000000000000000000000000008000000000000,
78,
#GOGOSTART
1001,
1101,
11,
2201,
#GOGOEND
11,
2201,
33,
300000000000000070000800,
0,
#END