861 lines
8.3 KiB
Plaintext
861 lines
8.3 KiB
Plaintext
//TJADB Project
|
|
TITLE:Megamina Sekai Ⅱ
|
|
TITLEJA:女神な世界 Ⅱ
|
|
SUBTITLE:--Hisui feat. Yura Hatsuki
|
|
SUBTITLEJA:翡翠&祇羽 feat. 葉月ゆら
|
|
BPM:168
|
|
WAVE:Megamina Sekai II.ogg
|
|
OFFSET:-1.803
|
|
DEMOSTART:30.195
|
|
|
|
//Shinuchi: 3880/2500/1730/1230
|
|
|
|
|
|
COURSE:Oni
|
|
LEVEL:8
|
|
BALLOON:50
|
|
SCOREINIT:420,1280
|
|
SCOREDIFF:103
|
|
|
|
#START
|
|
#MEASURE 3/4
|
|
#SCROLL 1.5
|
|
#GOGOSTART
|
|
122112,
|
|
#SCROLL 1.2
|
|
112112122,
|
|
#SCROLL 0.9
|
|
2121,
|
|
#MEASURE 5/8
|
|
#SCROLL 0.7
|
|
2001001112,
|
|
#MEASURE 3/4
|
|
#SCROLL 3
|
|
1, //5
|
|
#GOGOEND
|
|
|
|
#SCROLL 1
|
|
101022,
|
|
101022,
|
|
101022112020, //8
|
|
|
|
300030001111,
|
|
211112,
|
|
300030001112,
|
|
111121,
|
|
|
|
300030001121,
|
|
111211,
|
|
300030001211,
|
|
112111, //16
|
|
|
|
300030001112,
|
|
211122,
|
|
300030001122,
|
|
111221,
|
|
|
|
300030001221,
|
|
112211,
|
|
300030001122,
|
|
111221222, //24
|
|
|
|
#MEASURE 4/4
|
|
22022022,
|
|
0020200020112000, //26
|
|
|
|
1000201110102010,
|
|
1020001022102210,
|
|
1000201110102010,
|
|
1220221022101220,
|
|
|
|
1000201110102010,
|
|
1020001022102210,
|
|
1000201110102010,
|
|
1010201122102211, //34
|
|
|
|
1000201110102010,
|
|
1020001022102210,
|
|
1000201110102010,
|
|
1022021020120210,
|
|
|
|
1000201110102010,
|
|
1020001022102210,
|
|
1000201110102010,
|
|
1020001122102211, //42
|
|
|
|
#MEASURE 3/4
|
|
122100,
|
|
#MEASURE 2/4
|
|
21,
|
|
#MEASURE 3/4
|
|
122100,
|
|
221,
|
|
|
|
122100,
|
|
#MEASURE 2/4
|
|
21,
|
|
#MEASURE 3/4
|
|
122100,
|
|
201221, //50
|
|
|
|
122100,
|
|
#MEASURE 2/4
|
|
2021,
|
|
#MEASURE 3/4
|
|
122100,
|
|
202021,
|
|
|
|
122100,
|
|
#MEASURE 2/4
|
|
2021,
|
|
#MEASURE 3/4
|
|
122100,
|
|
201221, //58
|
|
|
|
#MEASURE 4/4
|
|
3000100010101120,
|
|
2000112020002000,
|
|
1000100010102210,
|
|
2000221020002000,
|
|
|
|
1000100010101120,
|
|
1000112010002000,
|
|
100200100000200020002000,
|
|
200000200000200200202020, //66
|
|
|
|
#MEASURE 3/4
|
|
100100111,
|
|
200000222,
|
|
110110,
|
|
#MEASURE 2/4
|
|
200222,
|
|
|
|
#MEASURE 3/4
|
|
100100111,
|
|
200000112000,
|
|
101011,
|
|
#MEASURE 2/4
|
|
22, //74
|
|
|
|
#MEASURE 3/4
|
|
100101,
|
|
#MEASURE 5/8
|
|
2210221010,
|
|
#MEASURE 3/4
|
|
100010200120,
|
|
101020012210,
|
|
|
|
100101,
|
|
#MEASURE 5/8
|
|
1120112020,
|
|
#MEASURE 3/4
|
|
100010200120,
|
|
201022012210, //82
|
|
|
|
#MEASURE 4/4
|
|
#GOGOSTART
|
|
1110201110102012,
|
|
1011201110102000,
|
|
1110201110102012,
|
|
1120221011202210,
|
|
|
|
1110201110102012,
|
|
1011201110102000,
|
|
1110201110102012,
|
|
1011020202201120, //90
|
|
#GOGOEND
|
|
|
|
30000022,
|
|
2,
|
|
100222,
|
|
200202202101,
|
|
|
|
102201202200,
|
|
102222202200,
|
|
102201202120,
|
|
100020001010200011200000,
|
|
|
|
111211212200,
|
|
112211221200,
|
|
112111101211,
|
|
102011221212, //102
|
|
|
|
#MEASURE 5/4
|
|
#BPMCHANGE 252
|
|
#SCROLL 0.67
|
|
3001011020,
|
|
1012011222,
|
|
1021022020,
|
|
1021022020,
|
|
|
|
1021022020,
|
|
#MEASURE 3/4
|
|
102102,
|
|
#MEASURE 5/4
|
|
2022022010, //109
|
|
|
|
#GOGOSTART
|
|
1121112020,
|
|
2212221010,
|
|
1211212020,
|
|
#MEASURE 3/4
|
|
211211,
|
|
#MEASURE 5/4
|
|
20002020002010112000, //114
|
|
#GOGOEND
|
|
|
|
#MEASURE 2/4
|
|
#BPMCHANGE 112
|
|
#SCROLL 1
|
|
300000111111,
|
|
|
|
#MEASURE 5/8
|
|
#BPMCHANGE 84
|
|
#SCROLL 1
|
|
2001011010,
|
|
1010111012,
|
|
#MEASURE 3/4
|
|
101011101012,
|
|
#MEASURE 5/8
|
|
1010111210,
|
|
#MEASURE 4/4
|
|
1010111010100000, //120
|
|
|
|
#BPMCHANGE 61
|
|
70000008,
|
|
3,
|
|
#BARLINEOFF
|
|
0, //123
|
|
#END
|
|
|
|
|
|
COURSE:Hard
|
|
LEVEL:7
|
|
BALLOON:
|
|
SCOREINIT:460,1790
|
|
SCOREDIFF:123
|
|
|
|
#START
|
|
#MEASURE 3/4
|
|
#GOGOSTART
|
|
122112,
|
|
111111111,
|
|
2121,
|
|
#MEASURE 5/8
|
|
2001001110,
|
|
#MEASURE 3/4
|
|
3, //5
|
|
#GOGOEND
|
|
|
|
112,
|
|
112,
|
|
112122,
|
|
|
|
100000000000100000000000500000000008,
|
|
001120,
|
|
100000000000100000000000500000000008,
|
|
001120,
|
|
|
|
100000000000100000000000500000000008,
|
|
001220,
|
|
122,
|
|
500000000000000000000008000000000000,
|
|
|
|
100000000000100000000000500000000008,
|
|
001120,
|
|
100000000000100000000000500000000008,
|
|
001120,
|
|
|
|
100000000000100000000000500000000008,
|
|
001220,
|
|
111,
|
|
111, //24
|
|
|
|
#MEASURE 4/4
|
|
11022022,
|
|
02202040, //26
|
|
|
|
10210120,
|
|
12012120,
|
|
10210120,
|
|
12211220,
|
|
|
|
10210120,
|
|
12012120,
|
|
10210120,
|
|
11212120,
|
|
|
|
10210120,
|
|
12012120,
|
|
10210120,
|
|
11211120,
|
|
|
|
10210120,
|
|
12010120,
|
|
10210120,
|
|
1020201022202020, //42
|
|
|
|
#MEASURE 3/4
|
|
100000111000,
|
|
#MEASURE 2/4
|
|
22,
|
|
#MEASURE 3/4
|
|
100000111000,
|
|
222,
|
|
|
|
100000111000,
|
|
#MEASURE 2/4
|
|
22,
|
|
#MEASURE 3/4
|
|
100000111000,
|
|
201120,
|
|
|
|
100000111000,
|
|
#MEASURE 2/4
|
|
22,
|
|
#MEASURE 3/4
|
|
100000111000,
|
|
222,
|
|
|
|
100000111000,
|
|
#MEASURE 2/4
|
|
22,
|
|
#MEASURE 3/4
|
|
100000111000,
|
|
202221, //58
|
|
|
|
#MEASURE 4/4
|
|
3000100020101110,
|
|
1010111020001000,
|
|
1000100020101110,
|
|
1010111020002000,
|
|
|
|
1000100020101110,
|
|
1010111020001000,
|
|
10102110,
|
|
1110101022202000, //66
|
|
|
|
#MEASURE 3/4
|
|
101,
|
|
202,
|
|
110110,
|
|
#MEASURE 2/4
|
|
22,
|
|
|
|
#MEASURE 3/4
|
|
101,
|
|
202,
|
|
101111,
|
|
#MEASURE 2/4
|
|
22, //74
|
|
|
|
#MEASURE 3/4
|
|
300101,
|
|
#MEASURE 5/8
|
|
1110102000,
|
|
#MEASURE 3/4
|
|
300101,
|
|
222020002000,
|
|
|
|
300101,
|
|
#MEASURE 5/8
|
|
1110101020,
|
|
#MEASURE 3/4
|
|
300101,
|
|
400022201010, //82
|
|
|
|
#MEASURE 4/4
|
|
#GOGOSTART
|
|
1000201110102000,
|
|
0010201110102000,
|
|
1000201110102000,
|
|
1110200011102000,
|
|
|
|
1000201110102000,
|
|
0010201110102000,
|
|
1000201110102000,
|
|
1011010101002000, //90
|
|
#GOGOEND
|
|
|
|
3,
|
|
0,
|
|
2,
|
|
000202202200,
|
|
|
|
101101100200,
|
|
101101100200,
|
|
101101100200,
|
|
101101100200,
|
|
|
|
111102200200,
|
|
111102200200,
|
|
111102200200,
|
|
222202200200, //102
|
|
|
|
#MEASURE 5/4
|
|
#BPMCHANGE 252
|
|
#SCROLL 0.67
|
|
600000000000000000000000000000000000000008000000000000000000,
|
|
1011010202,
|
|
1011012020,
|
|
1011012020,
|
|
1011012020,
|
|
#MEASURE 3/4
|
|
101101,
|
|
#MEASURE 5/4
|
|
2022022010, //109
|
|
|
|
#GOGOSTART
|
|
3011012020,
|
|
1011012020,
|
|
3011012020,
|
|
#MEASURE 3/4
|
|
301101,
|
|
#MEASURE 5/4
|
|
2022022010, //114
|
|
#GOGOEND
|
|
|
|
#MEASURE 2/4
|
|
#BPMCHANGE 112
|
|
#SCROLL 1
|
|
3,
|
|
|
|
#MEASURE 5/8
|
|
#BPMCHANGE 84
|
|
2022022010,
|
|
3010111010,
|
|
#MEASURE 3/4
|
|
301011101010,
|
|
#MEASURE 5/8
|
|
3010111010,
|
|
#MEASURE 4/4
|
|
3010111010100000, //120
|
|
|
|
#BPMCHANGE 61
|
|
500000000000000000000000000000000000000008000000,
|
|
3,
|
|
#BARLINEOFF
|
|
0, //123
|
|
#END
|
|
|
|
|
|
COURSE:Normal
|
|
LEVEL:6
|
|
BALLOON:26
|
|
SCOREINIT:530,2630
|
|
SCOREDIFF:145
|
|
|
|
#START
|
|
#MEASURE 3/4
|
|
#GOGOSTART
|
|
302220,
|
|
401110,
|
|
2121,
|
|
#MEASURE 5/8
|
|
2001002000,
|
|
#MEASURE 3/4
|
|
3,//5
|
|
#GOGOEND
|
|
|
|
111000,
|
|
110,
|
|
110220, //8
|
|
|
|
111,
|
|
011010,
|
|
111,
|
|
011000,
|
|
|
|
111,
|
|
011010,
|
|
111,
|
|
500000000000000000000008000000000000,
|
|
|
|
111,
|
|
011010,
|
|
111,
|
|
022,
|
|
|
|
111,
|
|
011010,
|
|
111,
|
|
221, //24
|
|
|
|
#MEASURE 4/4
|
|
22022022,
|
|
02202020, //26
|
|
|
|
10010010,
|
|
01001010,
|
|
10010010,
|
|
22202020,
|
|
|
|
10010010,
|
|
01001110,
|
|
10010010,
|
|
22202020,
|
|
|
|
10010010,
|
|
01001010,
|
|
10010010,
|
|
22022202,
|
|
|
|
10010010,
|
|
01001010,
|
|
10010010,
|
|
500000000000000000000000000000000008000000000000, //42
|
|
|
|
#MEASURE 3/4
|
|
31,
|
|
#MEASURE 2/4
|
|
22,
|
|
#MEASURE 3/4
|
|
11,
|
|
222,
|
|
|
|
11,
|
|
#MEASURE 2/4
|
|
22,
|
|
#MEASURE 3/4
|
|
11,
|
|
222,
|
|
|
|
12,
|
|
#MEASURE 2/4
|
|
12,
|
|
#MEASURE 3/4
|
|
12,
|
|
112,
|
|
|
|
12,
|
|
#MEASURE 2/4
|
|
12,
|
|
#MEASURE 3/4
|
|
12,
|
|
112, //58
|
|
|
|
#MEASURE 4/4
|
|
10101110,
|
|
22202020,
|
|
10101110,
|
|
22202020,
|
|
|
|
10101110,
|
|
22202020,
|
|
10101110,
|
|
20202220, //66
|
|
|
|
#MEASURE 3/4
|
|
301,
|
|
201,
|
|
100110,
|
|
#MEASURE 2/4
|
|
2,
|
|
|
|
#MEASURE 3/4
|
|
301,
|
|
202,
|
|
111,
|
|
#MEASURE 2/4
|
|
22, //74
|
|
|
|
#MEASURE 3/4
|
|
100101,
|
|
#MEASURE 5/8
|
|
10201,
|
|
#MEASURE 3/4
|
|
100101,
|
|
022,
|
|
|
|
100101,
|
|
#MEASURE 5/8
|
|
10201,
|
|
#MEASURE 3/4
|
|
100105,
|
|
000000000000000000000008000000000000, //82
|
|
|
|
#MEASURE 4/4
|
|
#GOGOSTART
|
|
1212,
|
|
10220110,
|
|
1212,
|
|
22201110,
|
|
|
|
1212,
|
|
10202220,
|
|
1212,
|
|
2000020200002000, //90
|
|
#GOGOEND
|
|
|
|
3,
|
|
0,
|
|
2,
|
|
0222,
|
|
|
|
1222,
|
|
1222,
|
|
1222,
|
|
1222,
|
|
|
|
1221,
|
|
1221,
|
|
1221,
|
|
500000000000000008000000000000000000100000000000, //102
|
|
|
|
#MEASURE 5/4
|
|
#BPMCHANGE 252
|
|
#SCROLL 0.67
|
|
500000000000000000000000000000000000000000000008000000000000,
|
|
0,
|
|
1001002020,
|
|
1001002020,
|
|
1001002020,
|
|
#MEASURE 3/4
|
|
11,
|
|
#MEASURE 5/4
|
|
2002002020, //109
|
|
|
|
#GOGOSTART
|
|
1001002020,
|
|
1001002020,
|
|
1001002020,
|
|
#MEASURE 3/4
|
|
11,
|
|
#MEASURE 5/4
|
|
2002002000, //114
|
|
#GOGOEND
|
|
|
|
#MEASURE 2/4
|
|
#BPMCHANGE 112
|
|
#SCROLL 1
|
|
3,
|
|
|
|
#MEASURE 5/8
|
|
#BPMCHANGE 84
|
|
2002002020,
|
|
3010111010,
|
|
#MEASURE 3/4
|
|
301011101010,
|
|
#MEASURE 5/8
|
|
3010111010,
|
|
#MEASURE 4/4
|
|
31133300, //120
|
|
|
|
#BPMCHANGE 61
|
|
7,
|
|
8,
|
|
#BARLINEOFF
|
|
0, //123
|
|
#END
|
|
|
|
|
|
COURSE:Easy
|
|
LEVEL:4
|
|
BALLOON:6,6,4,4,20
|
|
SCOREINIT:470,4760
|
|
SCOREDIFF:123
|
|
|
|
#START
|
|
#MEASURE 3/4
|
|
#GOGOSTART
|
|
3,
|
|
3,
|
|
22,
|
|
#MEASURE 5/8
|
|
2,
|
|
#MEASURE 3/4
|
|
3, //5
|
|
#GOGOEND
|
|
|
|
1,
|
|
1,
|
|
1, //8
|
|
|
|
111,
|
|
010,
|
|
111,
|
|
020,
|
|
|
|
111,
|
|
010,
|
|
111,
|
|
0,
|
|
|
|
111,
|
|
010,
|
|
111,
|
|
020,
|
|
|
|
111,
|
|
010,
|
|
111,
|
|
022, //24
|
|
|
|
#MEASURE 4/4
|
|
40040040,
|
|
04004000, //26
|
|
|
|
10010010,
|
|
01,
|
|
10010010,
|
|
0220,
|
|
|
|
10010010,
|
|
01,
|
|
10010010,
|
|
0220,
|
|
|
|
10010010,
|
|
01,
|
|
10010010,
|
|
0220,
|
|
|
|
10010010,
|
|
01,
|
|
10010050,
|
|
000000000000000000000000000000000008000000000000, //42
|
|
|
|
#MEASURE 3/4
|
|
31,
|
|
#MEASURE 2/4
|
|
1,
|
|
#MEASURE 3/4
|
|
22,
|
|
2,
|
|
|
|
11,
|
|
#MEASURE 2/4
|
|
1,
|
|
#MEASURE 3/4
|
|
22,
|
|
2,
|
|
|
|
11,
|
|
#MEASURE 2/4
|
|
1,
|
|
#MEASURE 3/4
|
|
22,
|
|
2,
|
|
|
|
11,
|
|
#MEASURE 2/4
|
|
1,
|
|
#MEASURE 3/4
|
|
22,
|
|
2, //58
|
|
|
|
#MEASURE 4/4
|
|
1110,
|
|
22,
|
|
1110,
|
|
22,
|
|
|
|
1110,
|
|
22,
|
|
1110,
|
|
22, //66
|
|
|
|
#MEASURE 3/4
|
|
3,
|
|
4,
|
|
3,
|
|
#MEASURE 2/4
|
|
4,
|
|
|
|
#MEASURE 3/4
|
|
3,
|
|
4,
|
|
3,
|
|
#MEASURE 2/4
|
|
4, //74
|
|
|
|
#MEASURE 3/4
|
|
11,
|
|
#MEASURE 5/8
|
|
0,
|
|
#MEASURE 3/4
|
|
11,
|
|
0,
|
|
|
|
11,
|
|
#MEASURE 5/8
|
|
0,
|
|
#MEASURE 3/4
|
|
11,
|
|
0, //82
|
|
|
|
#MEASURE 4/4
|
|
#GOGOSTART
|
|
10010050,
|
|
000000000008000000000000100000000000100000000000,
|
|
10010070,
|
|
08,
|
|
|
|
10010050,
|
|
000000000008000000000000100000000000100000000000,
|
|
10010070,
|
|
08, //90
|
|
#GOGOEND
|
|
|
|
3,
|
|
0,
|
|
2,
|
|
0220,
|
|
|
|
12,
|
|
12,
|
|
12,
|
|
78,
|
|
|
|
12,
|
|
12,
|
|
12,
|
|
78, //102
|
|
|
|
#MEASURE 5/4
|
|
#BPMCHANGE 252
|
|
#SCROLL 0.67
|
|
3,
|
|
0,
|
|
|
|
1001001000,
|
|
2002002000,
|
|
1001001000,
|
|
#MEASURE 3/4
|
|
22,
|
|
#MEASURE 5/4
|
|
2002002000, //109
|
|
|
|
#GOGOSTART
|
|
3003003000,
|
|
3003003000,
|
|
3003003000,
|
|
#MEASURE 3/4
|
|
33,
|
|
#MEASURE 5/4
|
|
3, //114
|
|
#GOGOEND
|
|
|
|
#MEASURE 2/4
|
|
#BPMCHANGE 112
|
|
#SCROLL 1
|
|
4,
|
|
|
|
#MEASURE 5/8
|
|
#BPMCHANGE 84
|
|
2002002000,
|
|
30100,
|
|
#MEASURE 3/4
|
|
311,
|
|
#MEASURE 5/8
|
|
30100,
|
|
#MEASURE 4/4
|
|
30033300, //120
|
|
|
|
#BPMCHANGE 61
|
|
7,
|
|
8,
|
|
#BARLINEOFF
|
|
0, //123
|
|
#END
|