1275 lines
14 KiB
Plaintext
1275 lines
14 KiB
Plaintext
//TJADB Project
|
||
TITLE:Dragon of Divinity ~Shinryu~
|
||
TITLEJA:神竜 ~Shinryu~
|
||
SUBTITLE:--Azu♪ & Masahiro “Godspeed” Aoki
|
||
SUBTITLEJA:Azu♪ & Masahiro “Godspeed” Aoki
|
||
BPM:300
|
||
WAVE:Dragon of Divinity Shinryu.ogg
|
||
OFFSET:-3.737
|
||
DEMOSTART:21.331
|
||
|
||
COURSE:Edit
|
||
LEVEL:10
|
||
SCOREINIT:740
|
||
SCOREDIFF:0
|
||
|
||
|
||
#START
|
||
|
||
|
||
#MEASURE 7/4
|
||
11211211212121,
|
||
#MEASURE 4/4
|
||
11211211,
|
||
12321222,
|
||
#MEASURE 7/4
|
||
11211411412121,
|
||
#MEASURE 4/4
|
||
2210221010401040,
|
||
14141414,
|
||
#MEASURE 6/4
|
||
112112321121,
|
||
112112321212,
|
||
112111412121,
|
||
403040304030403040301111,
|
||
100000202020102020300200100200100200,
|
||
101010202020102020300200100200100200,
|
||
100000200010001020300200100200100200,
|
||
#MEASURE 4/4
|
||
1111111022201000,
|
||
1012111040000000,
|
||
1000221000201020,
|
||
1020001011202020,
|
||
100000000000200020002000200000200000100100100000,
|
||
1020202210002020,
|
||
1020112020102011,
|
||
2011111022111022,
|
||
2020101120201020,
|
||
1010202210201010,
|
||
2210101020101110,
|
||
200200100000100200200000200200100010001000100000,
|
||
3000112000201111,
|
||
1010202010102210,
|
||
2220104010401040,
|
||
100400100000101010202020,
|
||
10211414,
|
||
1011101022101000,
|
||
3000102010203022,
|
||
12223011,
|
||
2222112211221020,
|
||
|
||
#GOGOSTART
|
||
#MEASURE 6/4
|
||
300202300212,
|
||
300000212020300000202020,
|
||
300122301200,
|
||
321202300311,
|
||
400211400121,
|
||
404040414140,
|
||
300122300400,
|
||
111010201021101010201020,
|
||
111010201020111111221120,
|
||
|
||
#GOGOEND
|
||
#MEASURE 15/16
|
||
3,
|
||
#SCROLL 2
|
||
#MEASURE 1/4
|
||
,
|
||
,
|
||
,
|
||
,
|
||
,
|
||
#MEASURE 13/16
|
||
4,
|
||
#MEASURE 6/4
|
||
#BPMCHANGE 273
|
||
#SCROLL 0.5
|
||
102020122210,
|
||
102020122212,
|
||
102020122210,
|
||
100200200100222100,
|
||
#MEASURE 8/4
|
||
#SCROLL 0.86
|
||
1022020101021020,
|
||
10002220002000100010102010102011,
|
||
10002220002000100010002010002000,
|
||
10002210002022100011201120201000,
|
||
#MEASURE 6/4
|
||
#SCROLL 1
|
||
100000100200100000102020100000100000,
|
||
100122122112112112,
|
||
100000100200100000102020100000100000,
|
||
100121212122122100,
|
||
#MEASURE 8/4
|
||
#SCROLL 0.75
|
||
22112211221122112121212121212121,
|
||
#MEASURE 1/16
|
||
#BPMCHANGE 8.53125
|
||
#SCROLL 32
|
||
600000000000000000000000000000000000000000000000000000000000000000000008000000000000000000000000,
|
||
|
||
#BPMCHANGE 300
|
||
#MEASURE 15/8
|
||
#SCROLL 1
|
||
211000211000211000112010201010,
|
||
#MEASURE 13/8
|
||
10102010001020001020221020,
|
||
#MEASURE 15/8
|
||
211000211000211000112010201010,
|
||
#MEASURE 4/4
|
||
11121121,
|
||
1120111012221010,
|
||
#MEASURE 5/4
|
||
100000000000100010001000200000200000100100200200100000200000,
|
||
#MEASURE 9/8
|
||
111010201020111122,
|
||
#MEASURE 5/4
|
||
100000000000100010001000200000200200100000100000200200200000,
|
||
#MEASURE 7/8
|
||
3212121,
|
||
30201120201020,
|
||
#MEASURE 5/4
|
||
300000000000100010001000200000200000100100200200100000200000,
|
||
#MEASURE 9/8
|
||
111010201020111122,
|
||
#MEASURE 5/4
|
||
100000000000100010001000200000200200100000100000200200200000,
|
||
#MEASURE 7/8
|
||
30201020102012,
|
||
10201120201020,
|
||
#MEASURE 4/4
|
||
31122111,
|
||
2020202210201020,
|
||
22122112,
|
||
#MEASURE 7/8
|
||
20101120101020,
|
||
#MEASURE 4/4
|
||
31221111,
|
||
2020202210101020,
|
||
12221221,
|
||
#MEASURE 7/8
|
||
20101120201020,
|
||
#MEASURE 4/4
|
||
31122111,
|
||
2020202210201020,
|
||
22122112,
|
||
2010112010102010,
|
||
31221111,
|
||
2020202210101020,
|
||
12221221,
|
||
2010112020101010,
|
||
#MEASURE 7/4
|
||
#SCROLL 0.75
|
||
4000201010200010200020111000,
|
||
#MEASURE 5/4
|
||
1021020112,
|
||
#MEASURE 7/4
|
||
4000201010200010200020111000,
|
||
100000200100000200000100201010201010200000,
|
||
4000221010200011201022111000,
|
||
#MEASURE 5/4
|
||
10201210002000101110,
|
||
#MEASURE 7/4
|
||
4000221010200011201022111000,
|
||
#MEASURE 4/4
|
||
1020121000201010,
|
||
122122100200,
|
||
#SCROLL 1
|
||
3000101111201020,
|
||
1010201010111110,
|
||
2010201111201020,
|
||
1010201010102011,
|
||
1110201020102020,
|
||
1011112010201020,
|
||
33030304,
|
||
#MEASURE 3/4
|
||
000000400000400000000000
|
||
#SCROLL 6
|
||
600008000000,
|
||
|
||
#GOGOSTART
|
||
#SCROLL 1
|
||
100020001111,
|
||
201121,
|
||
101120202210,
|
||
200020102022,
|
||
101020101011,
|
||
222211102010,
|
||
111020101010,
|
||
200000000000100010001000200100100000,
|
||
412011,
|
||
200000100100100000100000200020002000,
|
||
101120001010,
|
||
221022102011,
|
||
100100200000101010,
|
||
201111112010,
|
||
100000100200100100100000200010001000,
|
||
100000100200100100100000200010001000,
|
||
100100100200100100100000200010001000,
|
||
100100100200100100100000200010001000,
|
||
100100100200100100100100200020002000,
|
||
100100100200100100100100200020002000,
|
||
111211121121,
|
||
#MEASURE 2/4
|
||
11221110,
|
||
#MEASURE 5/4
|
||
10102010201120112101,
|
||
20102210201120112101,
|
||
20102110221122111110,
|
||
100100000100200100100100200010002000100200100200100200100200,
|
||
|
||
#GOGOEND
|
||
#MEASURE 4/4
|
||
1,
|
||
#BARLINEOFF
|
||
,
|
||
,
|
||
,
|
||
|
||
#GOGOSTART
|
||
#BARLINEON
|
||
21121211,
|
||
#SCROLL 0.93
|
||
21212112,
|
||
#SCROLL 0.86
|
||
12112121,
|
||
#SCROLL 0.79
|
||
21121211,
|
||
#SCROLL 0.71
|
||
21212112,
|
||
#SCROLL 0.64
|
||
12112121,
|
||
#SCROLL 0.57
|
||
21121211,
|
||
#SCROLL 0.5
|
||
2010201021212120,
|
||
|
||
#GOGOEND
|
||
|
||
|
||
#END
|
||
|
||
|
||
COURSE:Oni
|
||
LEVEL:10
|
||
BALLOON:9
|
||
SCOREINIT:1030
|
||
SCOREDIFF:0
|
||
|
||
|
||
#START
|
||
|
||
|
||
#MEASURE 7/4
|
||
10111210212110,
|
||
#MEASURE 4/4
|
||
11121021,
|
||
20302222,
|
||
#MEASURE 7/4
|
||
10111210212110,
|
||
#MEASURE 4/4
|
||
20201404,
|
||
04140404,
|
||
|
||
#MEASURE 6/4
|
||
102112301020,
|
||
102112320202,
|
||
102111402020,
|
||
434343434340,
|
||
|
||
100222100300000200,
|
||
100222100300000100,
|
||
122302,
|
||
|
||
#MEASURE 4/4
|
||
1000111010001000,
|
||
11114000,
|
||
10020010,
|
||
02001022,
|
||
|
||
10111020,
|
||
0221,
|
||
20111111,
|
||
21102010,
|
||
20111120,
|
||
10201011,
|
||
10110110,
|
||
10221110,
|
||
|
||
10120211,
|
||
11201121,
|
||
20140404,
|
||
04011020,
|
||
10211404,
|
||
0011101020101000,
|
||
|
||
30121030,
|
||
12203011,
|
||
22121212,
|
||
|
||
#MEASURE 6/4
|
||
#GOGOSTART
|
||
300202300200,
|
||
300202300200,
|
||
300222300200,
|
||
322202300300,
|
||
400011400011,
|
||
444434,
|
||
|
||
300022300400,
|
||
111010100020111010100020,
|
||
111010100020111010202020,
|
||
#GOGOEND
|
||
#MEASURE 15/16
|
||
3,
|
||
#MEASURE 1/4
|
||
,
|
||
,
|
||
,
|
||
,
|
||
,
|
||
#MEASURE 13/16
|
||
4,
|
||
|
||
#BPMCHANGE 273
|
||
#SCROLL 0.5
|
||
#MEASURE 6/4
|
||
101120101120,
|
||
101120102210,
|
||
101120101120,
|
||
101120210120,
|
||
|
||
#SCROLL 0.86
|
||
#MEASURE 8/4
|
||
1021020101021020,
|
||
1012020101021020,
|
||
1021020101021020,
|
||
#MEASURE 4/4
|
||
10120207,
|
||
0008,
|
||
|
||
#SCROLL 1
|
||
#MEASURE 6/4
|
||
100200200122200200,
|
||
100222111222111212,
|
||
100200200122200200,
|
||
100111222111212100,
|
||
|
||
#SCROLL 0.75
|
||
#MEASURE 8/4
|
||
,
|
||
#SCROLL 32
|
||
#MEASURE 1/16
|
||
#BPMCHANGE 8.53125
|
||
600000000000000000000000000000000000000000000000000000000000000000000008000000000000000000000000,
|
||
|
||
#SCROLL 1
|
||
#MEASURE 15/8
|
||
#BPMCHANGE 300
|
||
201000201000201000112010100020,
|
||
#MEASURE 13/8
|
||
1011012012110,
|
||
#MEASURE 15/8
|
||
201000201000201000112010100020,
|
||
#MEASURE 4/4
|
||
10122120,
|
||
1110101010201000,
|
||
|
||
#MEASURE 5/4
|
||
1010221022,
|
||
#MEASURE 9/8
|
||
110202112,
|
||
#MEASURE 5/4
|
||
1010221022,
|
||
#MEASURE 7/8
|
||
3212121,
|
||
3212212,
|
||
|
||
#MEASURE 5/4
|
||
3010221022,
|
||
#MEASURE 9/8
|
||
110202112,
|
||
#MEASURE 5/4
|
||
1010221022,
|
||
#MEASURE 7/8
|
||
3212121,
|
||
3212212,
|
||
|
||
#MEASURE 4/4
|
||
30122110,
|
||
22221012,
|
||
22102112,
|
||
#MEASURE 7/8
|
||
2112110,
|
||
#MEASURE 4/4
|
||
30221110,
|
||
22221110,
|
||
12221021,
|
||
#MEASURE 7/8
|
||
2112210,
|
||
|
||
#MEASURE 4/4
|
||
30122111,
|
||
22221210,
|
||
22122112,
|
||
21121120,
|
||
30221111,
|
||
22221112,
|
||
12221221,
|
||
21122110,
|
||
|
||
#SCROLL 0.75
|
||
#MEASURE 7/4
|
||
40210201202010,
|
||
#MEASURE 5/4
|
||
1021020110,
|
||
#MEASURE 7/4
|
||
40210201202010,
|
||
100000200100000200000100100000101010100000,
|
||
40210201202010,
|
||
#MEASURE 5/4
|
||
1021020110,
|
||
#MEASURE 7/4
|
||
40210201212110,
|
||
#MEASURE 4/4
|
||
10210201,
|
||
100111100200,
|
||
|
||
#SCROLL 1
|
||
30111202,
|
||
11211011,
|
||
21211212,
|
||
11211121,
|
||
30212022,
|
||
11221212,
|
||
33030304,
|
||
#MEASURE 3/4
|
||
000000400000400000000000
|
||
#SCROLL 6
|
||
600008000000,
|
||
|
||
#GOGOSTART
|
||
#SCROLL 1
|
||
102011,
|
||
201121,
|
||
101120101010,
|
||
202120,
|
||
101020101011,
|
||
201120,
|
||
102111,
|
||
200000101010200100,
|
||
|
||
402011,
|
||
200100100000202020,
|
||
112011,
|
||
212120,
|
||
100100200000101010,
|
||
201110102000,
|
||
|
||
111010002000,
|
||
111010002000,
|
||
111010102000,
|
||
111010102000,
|
||
100100100000100000100000200010001000,
|
||
100100100000100000100000200010001000,
|
||
111010101110,
|
||
#MEASURE 2/4
|
||
10221010,
|
||
|
||
#MEASURE 5/4
|
||
10002010201020112010,
|
||
10002010201020112010,
|
||
20102010201120112010,
|
||
100000000000100100100000200020002000100000100000100200100200,
|
||
|
||
#MEASURE 4/4
|
||
#GOGOEND
|
||
1,
|
||
#BARLINEOFF
|
||
,
|
||
,
|
||
,
|
||
|
||
#BARLINEON
|
||
#GOGOSTART
|
||
#SCROLL 0.5
|
||
21121211,
|
||
21212112,
|
||
12112121,
|
||
21121211,
|
||
21212112,
|
||
12112121,
|
||
21121211,
|
||
2010201021212120,
|
||
|
||
#GOGOEND
|
||
|
||
|
||
#END
|
||
|
||
|
||
COURSE:Hard
|
||
LEVEL:8
|
||
BALLOON:7,10,72
|
||
SCOREINIT:1930
|
||
SCOREDIFF:0
|
||
|
||
|
||
#START
|
||
|
||
|
||
#MEASURE 7/4
|
||
1011221,
|
||
#MEASURE 4/4
|
||
0112,
|
||
2300,
|
||
#MEASURE 7/4
|
||
1011221,
|
||
#MEASURE 4/4
|
||
1160,
|
||
000000000000000000000000000008000000000000000000,
|
||
|
||
#MEASURE 6/4
|
||
111300,
|
||
111300,
|
||
111300,
|
||
444400,
|
||
|
||
101110300000,
|
||
101110300000,
|
||
101110300000,
|
||
|
||
#MEASURE 4/4
|
||
10111010,
|
||
11104000,
|
||
10020010,
|
||
02001000,
|
||
|
||
10111020,
|
||
0211,
|
||
20201110,
|
||
1100,
|
||
20111020,
|
||
0211,
|
||
10010010,
|
||
11101000,
|
||
|
||
10110010,
|
||
1211,
|
||
2500,
|
||
000000000000000000000000000008000000000000000000,
|
||
10200404,
|
||
0120,
|
||
|
||
3013,
|
||
0230,
|
||
10101110,
|
||
|
||
#MEASURE 6/4
|
||
#GOGOSTART
|
||
33,
|
||
3232,
|
||
3032,
|
||
3033,
|
||
44,
|
||
444434,
|
||
|
||
3034,
|
||
110100110100,
|
||
110100110100,
|
||
#GOGOEND
|
||
#MEASURE 15/16
|
||
3,
|
||
#MEASURE 1/4
|
||
,
|
||
,
|
||
,
|
||
,
|
||
,
|
||
#MEASURE 13/16
|
||
4,
|
||
|
||
#BPMCHANGE 273
|
||
#SCROLL 0.5
|
||
#MEASURE 6/4
|
||
122122,
|
||
102020102220,
|
||
122122,
|
||
102020102220,
|
||
|
||
#SCROLL 0.86
|
||
#MEASURE 8/4
|
||
1011010101011000,
|
||
1022020101022000,
|
||
1011010101011000,
|
||
1022020700000080,
|
||
|
||
#SCROLL 1
|
||
#MEASURE 6/4
|
||
122121,
|
||
122121,
|
||
122121,
|
||
122121,
|
||
|
||
#SCROLL 0.75
|
||
#MEASURE 8/4
|
||
,
|
||
#SCROLL 32
|
||
#MEASURE 1/16
|
||
#BPMCHANGE 8.53125
|
||
600000000000000000000000000000000000000000000000000000000000000000000008000000000000000000000000,
|
||
|
||
#SCROLL 1
|
||
#MEASURE 15/8
|
||
#BPMCHANGE 300
|
||
100110111010100,
|
||
#MEASURE 13/8
|
||
1011011011010,
|
||
#MEASURE 15/8
|
||
100110111010100,
|
||
#MEASURE 4/4
|
||
10110110,
|
||
11011010,
|
||
|
||
#MEASURE 5/4
|
||
11011,
|
||
#MEASURE 9/8
|
||
500000000000000000000000000000000000000008000000000000,
|
||
#MEASURE 5/4
|
||
11011,
|
||
#MEASURE 7/8
|
||
5,
|
||
000000000000000000008000000000000000000000,
|
||
|
||
#MEASURE 5/4
|
||
11211,
|
||
#MEASURE 9/8
|
||
500000000000000000000000000000000000000008000000000000,
|
||
#MEASURE 5/4
|
||
11211,
|
||
#MEASURE 7/8
|
||
5,
|
||
000000000000000000008000000000000000000000,
|
||
|
||
#MEASURE 4/4
|
||
30010010,
|
||
20011010,
|
||
10010010,
|
||
#MEASURE 7/8
|
||
2012011,
|
||
#MEASURE 4/4
|
||
30010010,
|
||
20011010,
|
||
10010010,
|
||
#MEASURE 7/8
|
||
2012200,
|
||
|
||
#MEASURE 4/4
|
||
30120010,
|
||
20011010,
|
||
10120010,
|
||
20120110,
|
||
30120010,
|
||
20011010,
|
||
10120220,
|
||
2220,
|
||
|
||
#SCROLL 0.75
|
||
#MEASURE 7/4
|
||
40220202202010,
|
||
#MEASURE 5/4
|
||
1011010110,
|
||
#MEASURE 7/4
|
||
40220202202010,
|
||
7000008,
|
||
40220202202010,
|
||
#MEASURE 5/4
|
||
1011010110,
|
||
#MEASURE 7/4
|
||
40220202202010,
|
||
#MEASURE 4/4
|
||
10110101,
|
||
1110,
|
||
|
||
#SCROLL 1
|
||
30101101,
|
||
01101011,
|
||
10111101,
|
||
01101110,
|
||
30111020,
|
||
11101110,
|
||
33030304,
|
||
#MEASURE 3/4
|
||
000000400000400000000000
|
||
#SCROLL 6
|
||
600008000000,
|
||
|
||
#GOGOSTART
|
||
#SCROLL 1
|
||
100011,
|
||
200021,
|
||
100202,
|
||
21,
|
||
100011,
|
||
21,
|
||
101102,
|
||
22,
|
||
|
||
400011,
|
||
202,
|
||
121,
|
||
212,
|
||
102,
|
||
22,
|
||
|
||
5,
|
||
,
|
||
,
|
||
,
|
||
,
|
||
,
|
||
,
|
||
#MEASURE 2/4
|
||
000000000008000000000000,
|
||
|
||
#MEASURE 5/4
|
||
1021202121,
|
||
1021202120,
|
||
2021212120,
|
||
1011101111,
|
||
|
||
#MEASURE 4/4
|
||
#GOGOEND
|
||
1,
|
||
#BARLINEOFF
|
||
,
|
||
,
|
||
,
|
||
|
||
#BARLINEON
|
||
#GOGOSTART
|
||
#SCROLL 0.5
|
||
7,
|
||
,
|
||
,
|
||
,
|
||
,
|
||
,
|
||
,
|
||
00000008,
|
||
|
||
#GOGOEND
|
||
|
||
|
||
#END
|
||
|
||
|
||
COURSE:Normal
|
||
LEVEL:7
|
||
BALLOON:9,5,8,8,46
|
||
SCOREINIT:2910
|
||
SCOREDIFF:0
|
||
|
||
|
||
#START
|
||
|
||
|
||
#MEASURE 7/4
|
||
1001111,
|
||
#MEASURE 4/4
|
||
0011,
|
||
1300,
|
||
#MEASURE 7/4
|
||
1001111,
|
||
#MEASURE 4/4
|
||
06,
|
||
000000000000000000000000000008000000000000000000,
|
||
|
||
#MEASURE 6/4
|
||
110300,
|
||
110300,
|
||
110300,
|
||
444400,
|
||
|
||
111300,
|
||
111300,
|
||
111300,
|
||
|
||
#MEASURE 4/4
|
||
7,
|
||
08,
|
||
10010010,
|
||
01001000,
|
||
|
||
1111,
|
||
,
|
||
11,
|
||
1100,
|
||
1111,
|
||
01,
|
||
10010010,
|
||
1,
|
||
|
||
10010010,
|
||
1011,
|
||
1500,
|
||
000000000000000000000000000008000000000000000000,
|
||
10000404,
|
||
02,
|
||
|
||
3003,
|
||
03,
|
||
0111,
|
||
|
||
#MEASURE 6/4
|
||
#GOGOSTART
|
||
33,
|
||
33,
|
||
33,
|
||
3033,
|
||
44,
|
||
444400,
|
||
|
||
33,
|
||
1111,
|
||
1111,
|
||
#GOGOEND
|
||
#MEASURE 15/16
|
||
3,
|
||
#MEASURE 1/4
|
||
,
|
||
,
|
||
,
|
||
,
|
||
,
|
||
#MEASURE 13/16
|
||
4,
|
||
|
||
#BPMCHANGE 273
|
||
#SCROLL 0.5
|
||
#MEASURE 6/4
|
||
101101,
|
||
101102,
|
||
101101,
|
||
101122,
|
||
|
||
#SCROLL 0.86
|
||
#MEASURE 8/4
|
||
1000200100102000,
|
||
1000200100102010,
|
||
1000200100102000,
|
||
1000200700000080,
|
||
|
||
#SCROLL 1
|
||
#MEASURE 6/4
|
||
101101,
|
||
101111,
|
||
101101,
|
||
101111,
|
||
|
||
#SCROLL 0.75
|
||
#MEASURE 8/4
|
||
,
|
||
#SCROLL 32
|
||
#MEASURE 1/16
|
||
#BPMCHANGE 8.53125
|
||
600000000000000000000000000000000000000000000000000000000000000000000008000000000000000000000000,
|
||
|
||
#SCROLL 1
|
||
#MEASURE 15/8
|
||
#BPMCHANGE 300
|
||
100110101000100,
|
||
#MEASURE 13/8
|
||
1001001001010,
|
||
#MEASURE 15/8
|
||
100110101000100,
|
||
#MEASURE 4/4
|
||
10010010,
|
||
01011010,
|
||
|
||
#MEASURE 5/4
|
||
11011,
|
||
#MEASURE 9/8
|
||
500000000000000000000000000000000000000008000000000000,
|
||
#MEASURE 5/4
|
||
11011,
|
||
#MEASURE 7/8
|
||
5,
|
||
000000000000000000008000000000000000000000,
|
||
|
||
#MEASURE 5/4
|
||
11011,
|
||
#MEASURE 9/8
|
||
500000000000000000000000000000000000000008000000000000,
|
||
#MEASURE 5/4
|
||
11011,
|
||
#MEASURE 7/8
|
||
5,
|
||
000000000000000000008000000000000000000000,
|
||
|
||
#MEASURE 4/4
|
||
30010010,
|
||
21,
|
||
10010010,
|
||
#MEASURE 7/8
|
||
2002000,
|
||
#MEASURE 4/4
|
||
30010010,
|
||
21,
|
||
10010010,
|
||
#MEASURE 7/8
|
||
2002200,
|
||
|
||
#MEASURE 4/4
|
||
30010010,
|
||
21,
|
||
10010010,
|
||
20020020,
|
||
30010010,
|
||
21,
|
||
10020020,
|
||
2220,
|
||
|
||
#SCROLL 0.75
|
||
#MEASURE 7/4
|
||
4010101,
|
||
#MEASURE 5/4
|
||
1001010010,
|
||
#MEASURE 7/4
|
||
4020202,
|
||
7000008,
|
||
4010101,
|
||
#MEASURE 5/4
|
||
1001010010,
|
||
#MEASURE 7/4
|
||
4020202,
|
||
#MEASURE 4/4
|
||
7,
|
||
08,
|
||
|
||
#SCROLL 1
|
||
3112,
|
||
1212,
|
||
1112,
|
||
1212,
|
||
3112,
|
||
1212,
|
||
6,
|
||
#MEASURE 3/4
|
||
000008000000000000,
|
||
|
||
#GOGOSTART
|
||
#SCROLL 1
|
||
1,
|
||
2,
|
||
12,
|
||
12,
|
||
1,
|
||
21,
|
||
11,
|
||
22,
|
||
|
||
4,
|
||
2,
|
||
111,
|
||
111,
|
||
1,
|
||
2,
|
||
|
||
5,
|
||
,
|
||
,
|
||
,
|
||
,
|
||
,
|
||
,
|
||
#MEASURE 2/4
|
||
000000000008000000000000,
|
||
|
||
#MEASURE 5/4
|
||
1011101010,
|
||
1011101020,
|
||
1011102020,
|
||
1011101110,
|
||
|
||
#MEASURE 4/4
|
||
#GOGOEND
|
||
1,
|
||
#BARLINEOFF
|
||
,
|
||
,
|
||
,
|
||
|
||
#BARLINEON
|
||
#GOGOSTART
|
||
#SCROLL 0.5
|
||
7,
|
||
,
|
||
,
|
||
,
|
||
,
|
||
,
|
||
,
|
||
00000008,
|
||
|
||
#GOGOEND
|
||
|
||
|
||
#END
|
||
|
||
|
||
COURSE:Easy
|
||
LEVEL:5
|
||
BALLOON:6,3,6,6,40
|
||
SCOREINIT:4320
|
||
SCOREDIFF:0
|
||
|
||
|
||
#START
|
||
|
||
|
||
#MEASURE 7/4
|
||
1001011,
|
||
#MEASURE 4/4
|
||
01,
|
||
1300,
|
||
#MEASURE 7/4
|
||
1001011,
|
||
#MEASURE 4/4
|
||
06,
|
||
000000000000000000000000000008000000000000000000,
|
||
|
||
#MEASURE 6/4
|
||
13,
|
||
13,
|
||
13,
|
||
600000000000000000000000000008000000000000000000000000000000000000000000,
|
||
|
||
13,
|
||
13,
|
||
13,
|
||
|
||
#MEASURE 4/4
|
||
7,
|
||
08,
|
||
,
|
||
,
|
||
|
||
1011,
|
||
,
|
||
11,
|
||
1100,
|
||
1011,
|
||
01,
|
||
1,
|
||
11,
|
||
|
||
1011,
|
||
01,
|
||
5,
|
||
000000000000000000000000000008000000000000000000,
|
||
10000404,
|
||
02,
|
||
|
||
3003,
|
||
03,
|
||
0300,
|
||
|
||
#MEASURE 6/4
|
||
#GOGOSTART
|
||
33,
|
||
3,
|
||
33,
|
||
3,
|
||
44,
|
||
44,
|
||
|
||
33,
|
||
1110,
|
||
1110,
|
||
#GOGOEND
|
||
#MEASURE 15/16
|
||
3,
|
||
#MEASURE 1/4
|
||
,
|
||
,
|
||
,
|
||
,
|
||
,
|
||
#MEASURE 13/16
|
||
4,
|
||
|
||
#BPMCHANGE 273
|
||
#SCROLL 0.5
|
||
#MEASURE 6/4
|
||
101100,
|
||
201100,
|
||
101100,
|
||
500000000000000000000000000000000000000000000008000000000000000000000000,
|
||
|
||
#SCROLL 0.86
|
||
#MEASURE 8/4
|
||
1202,
|
||
1202,
|
||
1202,
|
||
1000200700000080,
|
||
|
||
#SCROLL 1
|
||
#MEASURE 6/4
|
||
110110,
|
||
110110,
|
||
110110,
|
||
110110,
|
||
|
||
#SCROLL 0.75
|
||
#MEASURE 8/4
|
||
,
|
||
#SCROLL 32
|
||
#MEASURE 1/16
|
||
#BPMCHANGE 8.53125
|
||
600000000000000000000000000000000000000000000000000000000000000000000008000000000000000000000000,
|
||
|
||
#SCROLL 1
|
||
#MEASURE 15/8
|
||
#BPMCHANGE 300
|
||
100010001000000,
|
||
#MEASURE 13/8
|
||
1001001001010,
|
||
#MEASURE 15/8
|
||
100010001000000,
|
||
#MEASURE 4/4
|
||
10010010,
|
||
01001010,
|
||
|
||
#MEASURE 5/4
|
||
10010,
|
||
#MEASURE 9/8
|
||
500000000000000000000000000000000000000008000000000000,
|
||
#MEASURE 5/4
|
||
10010,
|
||
#MEASURE 7/8
|
||
5,
|
||
000000000000000000008000000000000000000000,
|
||
|
||
#MEASURE 5/4
|
||
10010,
|
||
#MEASURE 9/8
|
||
500000000000000000000000000000000000000008000000000000,
|
||
#MEASURE 5/4
|
||
10010,
|
||
#MEASURE 7/8
|
||
5,
|
||
000000000000000000008000000000000000000000,
|
||
|
||
#MEASURE 4/4
|
||
30010000,
|
||
21,
|
||
1,
|
||
#MEASURE 7/8
|
||
2,
|
||
#MEASURE 4/4
|
||
30010000,
|
||
2,
|
||
1,
|
||
#MEASURE 7/8
|
||
2000200,
|
||
|
||
#MEASURE 4/4
|
||
30010000,
|
||
21,
|
||
1,
|
||
2,
|
||
30010000,
|
||
21,
|
||
1,
|
||
2,
|
||
|
||
#SCROLL 0.75
|
||
#MEASURE 7/4
|
||
4000200,
|
||
#MEASURE 5/4
|
||
11,
|
||
#MEASURE 7/4
|
||
4000200,
|
||
7000008,
|
||
4000200,
|
||
#MEASURE 5/4
|
||
11,
|
||
#MEASURE 7/4
|
||
4000200,
|
||
#MEASURE 4/4
|
||
7,
|
||
08,
|
||
|
||
#SCROLL 1
|
||
3111,
|
||
1111,
|
||
1111,
|
||
1111,
|
||
3111,
|
||
1111,
|
||
6,
|
||
#MEASURE 3/4
|
||
000008000000000000,
|
||
|
||
#GOGOSTART
|
||
#SCROLL 1
|
||
1,
|
||
1,
|
||
11,
|
||
1,
|
||
1,
|
||
1,
|
||
11,
|
||
1,
|
||
|
||
4,
|
||
2,
|
||
101,
|
||
1,
|
||
1,
|
||
1,
|
||
|
||
5,
|
||
,
|
||
,
|
||
,
|
||
,
|
||
,
|
||
,
|
||
#MEASURE 2/4
|
||
000000000008000000000000,
|
||
|
||
#MEASURE 5/4
|
||
11111,
|
||
11111,
|
||
11111,
|
||
11111,
|
||
|
||
#MEASURE 4/4
|
||
#GOGOEND
|
||
1,
|
||
#BARLINEOFF
|
||
,
|
||
,
|
||
,
|
||
|
||
#BARLINEON
|
||
#GOGOSTART
|
||
#SCROLL 0.5
|
||
7,
|
||
,
|
||
,
|
||
,
|
||
,
|
||
,
|
||
,
|
||
00000008,
|
||
|
||
#GOGOEND
|
||
|
||
|
||
#END
|
||
|