647 lines
5.8 KiB
Plaintext
647 lines
5.8 KiB
Plaintext
//TJADB Project
|
|
TITLE:Doro no Bunzai de Watashi Dake no Taisetsu o Ubaouda Nante
|
|
TITLEJA:泥の分際で私だけの大切を奪おうだなんて
|
|
SUBTITLE:--TUYU
|
|
SUBTITLEJA:ツユ
|
|
BPM:225
|
|
WAVE:Doro no Bunzai de Watashi Dake no Taisetsu o Ubaouda Nante.ogg
|
|
OFFSET:-0.865
|
|
DEMOSTART:14.925
|
|
|
|
|
|
COURSE:Oni
|
|
LEVEL:9
|
|
BALLOON:6,9
|
|
SCOREINIT:1300
|
|
SCOREDIFF:0
|
|
|
|
#START
|
|
1222,
|
|
1222,
|
|
10222022,
|
|
2222,
|
|
|
|
1222,
|
|
1222,
|
|
10222022,
|
|
2222,
|
|
|
|
12221022,
|
|
12221220,
|
|
12221022,
|
|
12202022,
|
|
12221122,
|
|
78, //14
|
|
|
|
#GOGOSTART
|
|
1000200011102010,
|
|
11221021,
|
|
11213040,
|
|
3434,
|
|
|
|
1000200011102010,
|
|
11221021,
|
|
1110202011102010,
|
|
2000201000222010, //22
|
|
|
|
1000201110102010,
|
|
1000201110102020,
|
|
11221122,
|
|
11212212,
|
|
|
|
1000200011102000,
|
|
1010201010102022,
|
|
1010200011102000,
|
|
1010201010102022,
|
|
|
|
1010201011102020,
|
|
3434,
|
|
3430, //33
|
|
#GOGOEND
|
|
|
|
#BPMCHANGE 112.5
|
|
1000200010222020,
|
|
1022202010222020,
|
|
1011202010102020,
|
|
1020221040000000,
|
|
|
|
1211202010102020,
|
|
1221202010102020,
|
|
1211202010112020,
|
|
100200200100200000201010200000100000100200100100,
|
|
|
|
1211202210102220,
|
|
1221202210102220,
|
|
1211202210102220,
|
|
#MEASURE 2/4
|
|
12211010,
|
|
|
|
#BARLINEOFF
|
|
#MEASURE 4/4
|
|
#BPMCHANGE 225
|
|
500000000000000008000000200000000000200000000000, //46
|
|
|
|
#BARLINEON
|
|
1110201010202011,
|
|
1020102010002011,
|
|
11221122,
|
|
1120102010002000,
|
|
|
|
1110201020002000,
|
|
1110201020002000,
|
|
1110201020101011,
|
|
100000000000600000000000000000000000000008000000,
|
|
1120001220002220,
|
|
04, //56
|
|
|
|
1222,
|
|
1222,
|
|
10222022,
|
|
2222,
|
|
|
|
1222,
|
|
1222,
|
|
10222022,
|
|
2222, //64
|
|
|
|
12221022,
|
|
12221220,
|
|
12221022,
|
|
12202022,
|
|
|
|
12221122,
|
|
500000000000000000000008000000000000000000000000,
|
|
00700008, //71
|
|
|
|
#GOGOSTART
|
|
1000200011102010,
|
|
11221021,
|
|
11213040,
|
|
3434,
|
|
|
|
1000200011102010,
|
|
11221021,
|
|
1110202011102010,
|
|
2000201000222010,
|
|
|
|
1000201110102010,
|
|
1000201110102020,
|
|
11221122,
|
|
11212212,
|
|
1000202011102010,
|
|
2000300030003011, //85
|
|
|
|
1000200011102010,
|
|
11221021,
|
|
1110202011102020,
|
|
1110201111102000,
|
|
|
|
1000200010102011,
|
|
11221021,
|
|
1110202011102010,
|
|
2000221000222020,
|
|
|
|
1000201110102010,
|
|
1000201110102020,
|
|
1110202010102020,
|
|
1110201022201020,
|
|
|
|
1111200010102000,
|
|
1010201022201020,
|
|
2222100020201000,
|
|
11212212, //101
|
|
|
|
1111100011102020,
|
|
3434,
|
|
300000000000400000000000600000000000000008000000,
|
|
|
|
1000200010102220,
|
|
1010222010102000,
|
|
1110201110102010,
|
|
2000202011102010,
|
|
|
|
2000111011102020,
|
|
1000111011101111,
|
|
#GOGOEND
|
|
1,
|
|
0, //112
|
|
#END
|
|
|
|
|
|
|
|
COURSE:Hard
|
|
LEVEL:6
|
|
BALLOON:7,8,7
|
|
SCOREINIT:2320
|
|
SCOREDIFF:0
|
|
|
|
#START
|
|
2220,
|
|
2220,
|
|
20222020,
|
|
2220,
|
|
|
|
2220,
|
|
2220,
|
|
20222020,
|
|
2220,
|
|
|
|
1221,
|
|
1221,
|
|
10222000,
|
|
10202220,
|
|
1222,
|
|
700000000000000000000000000000000000000008000000, //14
|
|
|
|
#GOGOSTART
|
|
1212,
|
|
11101020,
|
|
3434,
|
|
3434,
|
|
|
|
1112,
|
|
10111020,
|
|
10201110,
|
|
10110110, //22
|
|
|
|
1212,
|
|
1212,
|
|
11101010,
|
|
11101010,
|
|
|
|
1210,
|
|
2122,
|
|
1210,
|
|
2122,
|
|
|
|
1210,
|
|
3333,
|
|
3330, //33
|
|
#GOGOEND
|
|
|
|
#BPMCHANGE 112.5
|
|
10201220,
|
|
12201220,
|
|
10201122,
|
|
12104000,
|
|
|
|
31201120,
|
|
1110200010102000,
|
|
11201120,
|
|
2220200010102020,
|
|
|
|
31201220,
|
|
1110200010202000,
|
|
11201220,
|
|
#MEASURE 2/4
|
|
22202070,
|
|
|
|
#BARLINEOFF
|
|
#BPMCHANGE 225
|
|
#MEASURE 4/4
|
|
000000000000000000000000000000000000080000000000, //46
|
|
|
|
#BARLINEON
|
|
1112,
|
|
11101020,
|
|
6,
|
|
000000000000000000000000000000000008000000000000,
|
|
|
|
1112,
|
|
10111020,
|
|
1222,
|
|
300000000000600000000000000000000000000008000000,
|
|
0,
|
|
04, //56
|
|
|
|
2220,
|
|
2220,
|
|
20222020,
|
|
2220,
|
|
|
|
2220,
|
|
2220,
|
|
20222020,
|
|
2220, //64
|
|
|
|
1221,
|
|
1221,
|
|
10222000,
|
|
10202220,
|
|
|
|
1222,
|
|
700000000000000000000000000000000000000008000000,
|
|
03, //71
|
|
|
|
#GOGOSTART
|
|
1212,
|
|
11101020,
|
|
3434,
|
|
3434,
|
|
|
|
1112,
|
|
10111020,
|
|
10201110,
|
|
10110110,
|
|
|
|
1212,
|
|
1212,
|
|
11101010,
|
|
11101020,
|
|
1211,
|
|
1333, //85
|
|
|
|
1212,
|
|
11101020,
|
|
6,
|
|
000000000000000000000000000000000008000000000000,
|
|
|
|
1112,
|
|
10111020,
|
|
10201110,
|
|
10110110,
|
|
|
|
1212,
|
|
1212,
|
|
11101010,
|
|
11101020,
|
|
|
|
1210,
|
|
2122,
|
|
1210,
|
|
2122, //101
|
|
|
|
1210,
|
|
3333,
|
|
3330,
|
|
|
|
10111020,
|
|
10201110,
|
|
10110110,
|
|
1211,
|
|
|
|
11101110,
|
|
600000000000000000000000000000000000000000000008,
|
|
#GOGOEND
|
|
0,
|
|
0, //112
|
|
#END
|
|
|
|
|
|
COURSE:Normal
|
|
LEVEL:5
|
|
BALLOON:5,5,10,5,5,5
|
|
SCOREINIT:5320
|
|
SCOREDIFF:0
|
|
|
|
#START
|
|
2,
|
|
2,
|
|
22,
|
|
2,
|
|
|
|
2,
|
|
2,
|
|
22,
|
|
2,
|
|
|
|
1,
|
|
12,
|
|
1,
|
|
12,
|
|
1,
|
|
700000000000000000000000000000000000000008000000, //14
|
|
|
|
#GOGOSTART
|
|
11,
|
|
1110,
|
|
6,
|
|
000000000000000000000000000000000008000000000000,
|
|
|
|
11,
|
|
1110,
|
|
1011,
|
|
700000000000000000000000000000000000000008000000, //22
|
|
|
|
11,
|
|
11,
|
|
12,
|
|
12,
|
|
|
|
1,
|
|
11,
|
|
1,
|
|
22,
|
|
|
|
2,
|
|
6,
|
|
000000000000000000000008000000000000000000000000, //33
|
|
#GOGOEND
|
|
|
|
#BPMCHANGE 112.5
|
|
22,
|
|
22,
|
|
2022,
|
|
2240,
|
|
|
|
3122,
|
|
10102220,
|
|
1122,
|
|
10202220,
|
|
|
|
3122,
|
|
10102220,
|
|
1122,
|
|
#MEASURE 2/4
|
|
7,
|
|
|
|
#BARLINEOFF
|
|
#BPMCHANGE 225
|
|
#MEASURE 4/4
|
|
000000000000000000000000000000000000080000000000, //46
|
|
|
|
#BARLINEON
|
|
11,
|
|
1110,
|
|
6,
|
|
000000000000000000000000000000000008000000000000,
|
|
|
|
11,
|
|
1110,
|
|
1,
|
|
3300,
|
|
0,
|
|
0, //56
|
|
|
|
2,
|
|
2,
|
|
22,
|
|
2,
|
|
|
|
2,
|
|
2,
|
|
22,
|
|
2, //64
|
|
|
|
1,
|
|
12,
|
|
1,
|
|
12,
|
|
|
|
1,
|
|
700000000000000000000000000000000000000008000000,
|
|
0, //71
|
|
|
|
#GOGOSTART
|
|
11,
|
|
1110,
|
|
6,
|
|
000000000000000000000000000000000008000000000000,
|
|
|
|
11,
|
|
1110,
|
|
1011,
|
|
700000000000000000000000000000000000000008000000,
|
|
|
|
11,
|
|
11,
|
|
12,
|
|
12,
|
|
|
|
1,
|
|
1110, //85
|
|
|
|
11,
|
|
1110,
|
|
6,
|
|
000000000000000000000000000000000008000000000000,
|
|
|
|
11,
|
|
1110,
|
|
1011,
|
|
700000000000000000000000000000000000000008000000,
|
|
|
|
11,
|
|
11,
|
|
12,
|
|
12,
|
|
|
|
1,
|
|
11,
|
|
1,
|
|
22, //101
|
|
|
|
2,
|
|
33,
|
|
33,
|
|
|
|
12,
|
|
1110,
|
|
11,
|
|
1110,
|
|
|
|
1110,
|
|
600000000000000000000000000000000000000000000008,
|
|
#GOGOEND
|
|
0,
|
|
0, //112
|
|
#END
|
|
|
|
|
|
COURSE:Easy
|
|
LEVEL:3
|
|
BALLOON:3,3,8,3,3,3
|
|
SCOREINIT:8620
|
|
SCOREDIFF:0
|
|
|
|
#START
|
|
2,
|
|
2,
|
|
2,
|
|
0,
|
|
|
|
2,
|
|
2,
|
|
2,
|
|
0,
|
|
|
|
2,
|
|
22,
|
|
2,
|
|
22,
|
|
2,
|
|
70000800, //14
|
|
|
|
#GOGOSTART
|
|
1,
|
|
11,
|
|
6,
|
|
000000000000000000000000000008000000000000000000,
|
|
|
|
1,
|
|
11,
|
|
11,
|
|
70000800, //22
|
|
|
|
1,
|
|
1,
|
|
11,
|
|
11,
|
|
|
|
0,
|
|
1,
|
|
2,
|
|
1,
|
|
|
|
2,
|
|
6,
|
|
000000000000000000000008000000000000000000000000, //33
|
|
#GOGOEND
|
|
|
|
#BPMCHANGE 112.5
|
|
2,
|
|
2,
|
|
22,
|
|
24,
|
|
|
|
31,
|
|
1100,
|
|
11,
|
|
1100,
|
|
|
|
32,
|
|
1100,
|
|
12,
|
|
#MEASURE 2/4
|
|
7,
|
|
|
|
#BARLINEOFF
|
|
#MEASURE 4/4
|
|
#BPMCHANGE 225
|
|
00000800, //46
|
|
|
|
#BARLINEON
|
|
1,
|
|
1,
|
|
6,
|
|
000000000000000000000000000008000000000000000000,
|
|
|
|
1,
|
|
11,
|
|
1,
|
|
3,
|
|
0,
|
|
0, //56
|
|
|
|
2,
|
|
2,
|
|
2,
|
|
0,
|
|
|
|
2,
|
|
2,
|
|
2,
|
|
0, //64
|
|
|
|
2,
|
|
22,
|
|
2,
|
|
22,
|
|
|
|
2,
|
|
70000800,
|
|
0, //71
|
|
|
|
#GOGOSTART
|
|
1,
|
|
11,
|
|
6,
|
|
000000000000000000000000000008000000000000000000,
|
|
|
|
1,
|
|
11,
|
|
11,
|
|
70000800,
|
|
|
|
1,
|
|
1,
|
|
11,
|
|
11,
|
|
0,
|
|
2, //85
|
|
|
|
1,
|
|
11,
|
|
6,
|
|
000000000000000000000000000008000000000000000000,
|
|
|
|
11,
|
|
1,
|
|
11,
|
|
70000800,
|
|
|
|
1,
|
|
1,
|
|
11,
|
|
11,
|
|
|
|
0,
|
|
1,
|
|
2,
|
|
1, //101
|
|
|
|
2,
|
|
33,
|
|
33,
|
|
|
|
1,
|
|
11,
|
|
1,
|
|
1,
|
|
|
|
11,
|
|
600000000000000000000000000000000000000000000008,
|
|
#GOGOEND
|
|
0,
|
|
0, //112
|
|
#END |