Files
TJA-by-song-no/tja/1182.tja
2026-03-07 15:37:31 +09:00

933 lines
11 KiB
Plaintext
Raw Permalink Blame History

This file contains invisible Unicode characters
This file contains invisible Unicode characters that are indistinguishable to humans but may be processed differently by a computer. If you think that this is intentional, you can safely ignore this warning. Use the Escape button to reveal them.
//TJADB Project
TITLE:You don't need a reason to like it!
TITLEJA:スキに理由はいらないじゃん!
SUBTITLE:--Omiko Sisters feat. Ponchi♪ / Wadive Record
SUBTITLEJA:オミコシスターズ feat. Ponchi♪ / WADIVE RECORD
BPM:165
WAVE:You don't need a reason to like it!.ogg
OFFSET:-0.679
DEMOSTART:63.590
//SONG_ID:mksskn
//Shinuchi: 7490/3600/2650/1550
COURSE:Oni
LEVEL:8
BALLOON:12,18,20,8,14
SCOREINIT:510,1640
SCOREDIFF:123
#START
30020020,
02002120,
2211102211102211,
17000008,
#GOGOSTART
1022102011210020,
1020122012010020,
1022102011210020,
12120440,
1022102011210020,
1020122012010020,
1022102011210020,
0010210210012010,
700000000000000000000000000000000000000000000008,
#GOGOEND
0020020020010010, //14
1000200010110020,
1001002000102022,
1002201110010020,
1002201010102000,
5,
000000000000000000000008000000000000000000200200,
1002101000102011,
10212220,
101010100100202020200200,
1110101020222000,
1101101022222010,
1010102010201022,
10121121,
1120221000101010,
2001102000101020,
1202102022222211, //30
1,
200000000000000222200100,
0011101020222030,
03030301,
0020201100102020,
1022011000202010,
0010102010222010,
0020102220102070,
000000000000000000000000000000000000000000000008,
00122121,
00202120,
2010221020122220,
1011111111112222,
2400, //44
#GOGOSTART
1020102011201022,
1020112011221020,
1020102011201022,
1022201110210120,
1022201020112010,
1022201000221111,
1021001002102022,
1022202211221110,
#GOGOEND
1000
#GOGOSTART
102011201022,
1020112011221020,
1020102011201022,
1022201110210120,
1022201020112011,
1022204000221111,
1011001002102022,
1001100020020020, //60
#GOGOEND
1222101222101022,
1222101222101070,
0000008011111111,
100000000000110000200000,
#GOGOSTART
1022102011210120,
1020122012021022,
1022102011210120,
1122102000404000,
1022102011210120,
1020122012011022,
1022102011210122,
0010210210012010,
2211102211102211,
100000700000000000000000000000000000000000000008,
#GOGOEND
0300,
0,
0,
0,
0, //79
#END
COURSE:Hard
LEVEL:6
STYLE:SINGLE
BALLOON:12,13,16,6,13
SCOREINIT:670,2890
SCOREDIFF:178
#START
30020020,
02002020,
900000000000000000000000000000000009000000000008,
0,
#GOGOSTART
1000102011010000,
1020102011010000,
1000102011010000,
11110440,
1000102011010000,
1020102011010000,
1000102011010010,
0010010010010010,
700000000000000000000000000000000000000000000008,
#GOGOEND
0, //14
1222,
1001002000102000,
1000100020220000,
10101120,
5,
000000000000000000000008000000000000000000200200,
2002002000102000,
10202220,
111300000000,
1110300000000000,
1101100000000000,
10101212,
10211022,
1000101000102220,
2001002000102022,
2000100010101111, //30
1,
20000221,
01112223,
0030003000300010,
00201122,
1011011000202010,
01121201,
01122127,
000000000000000000000000000000000000000000000008,
00110113,
0222,
2010201020102220,
600000000000000000000000000000000000000000000008,
0400, //44
#GOGOSTART
1000100011101000,
1000111011101000,
1000100011101000,
1020201000001110,
10110120,
2000101000222020,
500000000000000000000000000000000000000000000008,
0000000020020020,
#GOGOEND
10
#GOGOSTART
121202,
1020102010222020,
12121202,
1000000020222000,
10110121,
12240110,
500000000000000000000000000000000000000000000008,
0000100020020020, //60
#GOGOEND
10110112,
12110700,
08000010,
3012,
#GOGOSTART
1000102011010000,
1020102011010000,
1000102011010000,
11110440,
1000102011010000,
1020102011010000,
1000102011010010,
0010010010010010,
900000000000000000000000000000000009000000000008,
0,
#GOGOEND
0300,
0,
0,
0,
0, //79
#END
STYLE:DOUBLE
BALLOON:12,13,16,6,13
SCOREINIT:670,2890
SCOREDIFF:178
#START P1
30020020,
02002020,
900000000000000000000000000000000009000000000008,
0,
#GOGOSTART
1000102011010000,
1020102011010000,
1000102011010000,
11110440,
1000102011010000,
1020102011010000,
1000102011010010,
0010010010010010,
700000000000000000000000000000000000000000000008,
#GOGOEND
0, //14
1222,
1001002000102000,
1000100020220000,
10101120,
5,
000000000000000000000008000000000000000000200200,
2002002000102000,
10202220,
111300000000,
1110300000000000,
1101100000000000,
10101212,
10211022,
1000101000102220,
2001002000102022,
2000100010101111, //30
1,
20000221,
01112223,
0030003000300010,
00201122,
1011011000202010,
01121201,
01122127,
000000000000000000000000000000000000000000000008,
00110113,
0222,
2010201020102220,
600000000000000000000000000000000000000000000008,
0400, //44
#GOGOSTART
1000100011101000,
1000111011101000,
1000100011101000,
1020201000001110,
10110120,
2000101000222020,
500000000000000000000000000000000000000000000008,
0000000020020020,
#GOGOEND
10
#GOGOSTART
121202,
1020102010222020,
12121202,
1000000020222000,
10110121,
12240110,
500000000000000000000000000000000000000000000008,
0000100020020020, //60
#GOGOEND
10110112,
12110700,
08000010,
3012,
#GOGOSTART
1000102011010000,
1020102011010000,
1000102011010000,
11110440,
1000102011010000,
1020102011010000,
1000102011010010,
0010010010010010,
900000000000000000000000000000000009000000000008,
0,
#GOGOEND
0300,
0,
0,
0,
0, //79
#END
BALLOON:12,13,16,6,13
SCOREINIT:670,2890
SCOREDIFF:178
#START P2
30020020,
02002020,
900000000000000000000000000000000009000000000008,
0,
#GOGOSTART
1000102011010000,
1020102011010000,
1000102011010000,
11110440,
1000102011010000,
1020102011010000,
1000102011010010,
0010010010010010,
700000000000000000000000000000000000000000000008,
#GOGOEND
0, //14
1222,
1001002000102000,
1000100020220000,
10101120,
5,
000000000000000000000008000000000000000000200200,
2002002000102000,
10202220,
000000222400,
0000000022204000,
0000000022022000,
10101212,
10211022,
1000101000102220,
2001002000102022,
2000100010101111, //30
1,
20000221,
01112223,
0030003000300010,
00201122,
1011011000202010,
01121201,
01122127,
000000000000000000000000000000000000000000000008,
00110113,
0222,
2010201020102220,
600000000000000000000000000000000000000000000008,
0400, //44
#GOGOSTART
10121202,
1020102010222020,
12121202,
1000000020222000,
10110120,
2000101000222020,
500000000000000000000000000000000000000000000008,
0000000020020020,
#GOGOEND
1000
#GOGOSTART
100011101000,
1000111011101000,
1000100011101000,
1020201000001110,
10110121,
12240110,
500000000000000000000000000000000000000000000008,
0000100020020020, //60
#GOGOEND
10110112,
12110000,
07000810,
3012,
#GOGOSTART
1000102011010000,
1020102011010000,
1000102011010000,
11110440,
1000102011010000,
1020102011010000,
1000102011010010,
0010010010010010,
900000000000000000000000000000000009000000000008,
0,
#GOGOEND
0300,
0,
0,
0,
0, //79
#END
COURSE:Normal
LEVEL:6
STYLE:SINGLE
BALLOON:9,10,11,4,10 
SCOREINIT:740,4020
SCOREDIFF:210
#START
30020020,
02002020,
900000000000000000000000000000000009000000000008,
0,
#GOGOSTART
10101202,
10101220,
10101202,
11110440,
10101202,
10101220,
10101202,
000000500000000000000000000000000000000008000000,
700000000000000000000000000000000000000000000008,
#GOGOEND
0, //14
12,
1001002000000000,
12,
1112,
5,
000000000000000000000008000000000000000000000000,
2002002000002000,
10202220,
1300,
2400,
3400,
10101110,
1212,
10110120,
20020020,
20101110, //30
1,
20000111,
01110113,
03030301,
0212,
1001001000202010,
01101101,
01101107,
000000000000000000000000000000000000000000000008,
00110113,
0222,
10202120,
600000000000000000000000000000000000000000000008,
0400, //44
#GOGOSTART
10101110,
10111010,
10101110,
10110220,
10102220,
20110020,
500000000000000000000000000000000000000000000008,
02,
#GOGOEND
10
#GOGOSTART
222020,
10202220,
10222020,
10220110,
10110111,
02240020,
500000000000000000000000000000000000000000000008,
02, //60
#GOGOEND
10110110,
10110700,
08000000,
3012,
#GOGOSTART
10101202,
10101220,
10101202,
11110440,
10101202,
10101220,
10101202,
000000500000000000000000000000000008000000000000,
900000000000000000000000000000000009000000000008,
0,
#GOGOEND
0300,
0,
0,
0,
0, //79
#END
STYLE:DOUBLE
BALLOON:9,10,11,4,10 
SCOREINIT:740,4020
SCOREDIFF:210
#START P1
30020020,
02002020,
900000000000000000000000000000000009000000000008,
0,
#GOGOSTART
10101202,
10101220,
10101202,
11110440,
10101202,
10101220,
10101202,
000000500000000000000000000000000000000008000000,
700000000000000000000000000000000000000000000008,
#GOGOEND
0, //14
12,
1001002000000000,
12,
1112,
5,
000000000000000000000008000000000000000000000000,
2002002000002000,
10202220,
1300,
2400,
3400,
10101110,
1212,
10110120,
20020020,
20101110, //30
1,
20000111,
01110113,
03030301,
0212,
1001001000202010,
01101101,
01101107,
000000000000000000000000000000000000000000000008,
00110113,
0222,
10202120,
600000000000000000000000000000000000000000000008,
0400, //44
#GOGOSTART
10101110,
10111010,
10101110,
10110220,
10102220,
20110020,
500000000000000000000000000000000000000000000008,
02,
#GOGOEND
10
#GOGOSTART
222020,
10202220,
10222020,
10220110,
10110111,
02240020,
500000000000000000000000000000000000000000000008,
02, //60
#GOGOEND
10110110,
10110700,
08000000,
3012,
#GOGOSTART
10101202,
10101220,
10101202,
11110440,
10101202,
10101220,
10101202,
000000500000000000000000000000000008000000000000,
900000000000000000000000000000000009000000000008,
0,
#GOGOEND
0300,
0,
0,
0,
0, //79
#END
BALLOON:9,10,11,4,10
SCOREINIT:740,4020
SCOREDIFF:210
#START P2
30020020,
02002020,
900000000000000000000000000000000009000000000008,
0,
#GOGOSTART
10101202,
10101220,
10101202,
11110440,
10101202,
10101220,
10101202,
000000500000000000000000000000000000000008000000,
700000000000000000000000000000000000000000000008,
#GOGOEND
0, //14
12,
1001002000000000,
12,
1112,
5,
000000000000000000000008000000000000000000000000,
2002002000002000,
10202220,
0013,
0024,
0034,
10101110,
1212,
10110120,
20020020,
20101110, //30
1,
20000111,
01110113,
03030301,
0212,
1001001000202010,
01101101,
01101107,
000000000000000000000000000000000000000000000008,
00110113,
0222,
10202120,
600000000000000000000000000000000000000000000008,
0400, //44
#GOGOSTART
10222020,
10202220,
10222020,
10220110,
10102220,
20110020,
500000000000000000000000000000000000000000000008,
02,
#GOGOEND
10
#GOGOSTART
101110,
10111010,
10101110,
10110220,
10110111,
02240020,
500000000000000000000000000000000000000000000008,
02, //60
#GOGOEND
10110110,
10110000,
07000800,
3012,
#GOGOSTART
10101202,
10101220,
10101202,
11110440,
10101202,
10101220,
10101202,
000000500000000000000000000000000008000000000000,
900000000000000000000000000000000009000000000008,
0,
#GOGOEND
0300,
0,
0,
0,
0, //79
#END
COURSE:Easy
LEVEL:3
BALLOON:6,7,8,6,7
SCOREINIT:810,8620
SCOREDIFF:338
#START
3,
0,
900000000000000000000000000000000009000000000008,
0,
#GOGOSTART
11,
1002,
11,
10000440,
11,
1002,
11,
000000500000000000000000000000000008000000000000,
700000000000000000000000000000000000000000000008,
#GOGOEND
0, //14
1,
10020000,
1,
1011,
5,
000000000000000000000008000000000000000000000000,
10010000,
0222,
14,
14,
14,
1110,
11,
1100,
20020020,
2, //30
1,
20000001,
00010005,
000000000000000000000008000000000000000000100000,
0,
10010001,
00101001,
00101007,
000000000000000000000000000000000000000000000008,
00000003,
01,
11,
600000000000000000000000000000000000000000000008,
0, //44
#GOGOSTART
1110,
1110,
1110,
22,
1022,
20010000,
500000000000000000000000000000000000000000000008,
0,
#GOGOEND
1
#GOGOSTART
110,
1110,
1110,
22,
12,
20040000,
500000000000000000000000000000000000000000000008,
02, //60
#GOGOEND
10010000,
10010700,
0008,
3,
#GOGOSTART
11,
1002,
11,
10000440,
11,
1002,
11,
000000500000000000000000000000000008000000000000,
900000000000000000000000000000000009000000000008,
0,
#GOGOEND
0300,
0,
0,
0,
0, //79
#END