Files
TJA-by-song-no/tja/1187.tja
2026-03-04 23:59:27 +09:00

223 lines
2.3 KiB
Plaintext

//TJADB Project
TITLE:Love You
TITLEJA:Love You
TITLEZH:爱你
SUBTITLE:--
SUBTITLEJA:
SUBTITLEZH:
BPM:100
WAVE:Love You.ogg
OFFSET:-2.552
DEMOSTART:45.67
COURSE:Oni
LEVEL:6
BALLOON:12,24
SCOREINIT:5180
SCOREDIFF:0
#START
#MEASURE 1/4
#BARLINEOFF
0,
#MEASURE 4/4
#BARLINEON
0,
0000000030002220, //3
1020201011102000,
12212110,
1010201011102010,
2011201020202011,
1011201100102011,
1011201100102011,
1011201100102020,
1011201100002020, //11
1000202100102011,
1020101100102011,
1020102100102011,
1020101100102000,
1000202100102010,
1020101100102050,
000000000000000000000000000000000008000000000000,
70008022, //19
#GOGOSTART
3011201110102010,
1011202220102000,
1011201120102220,
1000202220201020,
3000201110102010,
1011202220102011,
1022201110202220,
7, //27
#GOGOEND
8,
0,
0, //30
#END
COURSE:Hard
LEVEL:4
BALLOON:10,19
SCOREINIT:6960
SCOREDIFF:0
#START
#MEASURE 1/4
#BARLINEOFF
0,
#MEASURE 4/4
#BARLINEON
0,
03, //3
10121120,
10112210,
10121102,
10112210,
1000101100102000,
1000101100202000,
1000101100102000,
1000101100002020, //11
1000101100102011,
0020101100200010,
1020101100100010,
1020101100200020,
1000101100100010,
1020101100200050,
000000000000000000000000000000000008000000000000,
70008022, //19
#GOGOSTART
3010201110100010,
1010201110100000,
1010201110102010,
1000201110100000,
3000201110100010,
1010201110100010,
1020001110002010,
9009, //27
#GOGOEND
8,
0,
0, //30
#END
COURSE:Normal
LEVEL:4
BALLOON:7,14
SCOREINIT:10170
SCOREDIFF:0
#START
#MEASURE 1/4
#BARLINEOFF
0,
#MEASURE 4/4
#BARLINEON
0,
03, //3
10101110,
1120,
10101110,
10102220,
1000100100100000,
1000100100100000,
1000100100100000,
1000100100002000, //11
1000100100101000,
2000100100100000,
2000100100100000,
1010100100100000,
1000100100100000,
1010100100100050,
000000000000000000000000000000000008000000000000,
78, //19
#GOGOSTART
3010100100100010,
1010100200200000,
1010100100100010,
1000100200200000,
3000100100100010,
1010100200200000,
11011020,
9009, //27
#GOGOEND
8,
0,
0, //30
#END
COURSE:Easy
LEVEL:1
BALLOON:5,11
SCOREINIT:18820
SCOREDIFF:0
#START
#MEASURE 1/4
#BARLINEOFF
0,
#MEASURE 4/4
#BARLINEON
0,
03, //3
1110,
12,
1110,
12,
11,
1,
11,
2, //11
11,
1110,
1110,
2220,
11,
10101005,
000000000000000000000000000000000008000000000000,
78, //19
#GOGOSTART
3110,
1110,
1110,
2220,
3110,
1110,
12,
9009, //27
#GOGOEND
8,
0,
0, //30
#END