Files
TJA-by-song-no/tja/1190.tja
2026-03-04 23:59:27 +09:00

407 lines
4.4 KiB
Plaintext
Raw Permalink Blame History

This file contains ambiguous Unicode characters
This file contains Unicode characters that might be confused with other characters. If you think that this is intentional, you can safely ignore this warning. Use the Escape button to reveal them.
//TJADB Project
TITLE:O Sole Mio
TITLEJA:オー・ソレ・ミオ
SUBTITLE:--Eduardo di Capua feat. Tatsuo Uzuka
BPM:123.31
WAVE:O Sole Mio.ogg
OFFSET:-2.080
DEMOSTART:67.021
COURSE:Oni
LEVEL:8
BALLOON:58,20
SCOREINIT:780
SCOREDIFF:215
#START
#SCROLL 0.98
,
#BPMCHANGE 122.76
#SCROLL 0.99
,
#BPMCHANGE 123.41
#SCROLL 1
00202002,
#BPMCHANGE 123.6
#SCROLL 0.98
2200,
#BPMCHANGE 122.64
#SCROLL 0.99
00202002,
2200,
#BPMCHANGE 122.73
00202002,
#SCROLL 1
22,
#BPMCHANGE 118.8
#SCROLL 1.11
0
#BPMCHANGE 99.86
#SCROLL 1.16
2
#BPMCHANGE 97.05
#SCROLL 1.22
2
#BPMCHANGE 104.56
#SCROLL 1.18
2,
#BPMCHANGE 148
#SCROLL 1
7,
,
,
00000800,
3221,
1020100030030030,
1020102210201022,
1020100030030030,
1020102210201022,
1020100030030030,
1020102210201022,
1020101110010030,
,
1020102210201022,
1020102210211120,
3000300040030030,
1020102210201022,
1020102210211120,
1020102210201022,
1040400030030040,
100000000000000000000100100000100000101010101010,
1,
2202202202202222,
1020102101201120,
1020102101201120,
1020102101201120,
1020102101201120,
1120112011201120,
1121112111211120,
3220,
0000022222221000,
#GOGOSTART
1120221011222210,
1120221010404010,
1120221011222210,
1120221010404010,
1120221011222210,
1120221010404000,
7,
00000800,
1020201012020210,
1020201012020210,
33,
1020201012020210,
33,
00102002,
5,
000000000008000000000000100100200000100200000100,
1120120120201202,
200200200200200200200200202020202020202020202000,
3,
#GOGOEND
#END
COURSE:Hard
LEVEL:7
BALLOON:32,16
SCOREINIT:940
SCOREDIFF:190
#START
#SCROLL 0.98
,
#BPMCHANGE 122.76
#SCROLL 0.99
,
#BPMCHANGE 123.41
#SCROLL 1
00202002,
#BPMCHANGE 123.6
#SCROLL 0.98
2200,
#BPMCHANGE 122.64
#SCROLL 0.99
00202002,
2200,
#BPMCHANGE 122.73
00202002,
#SCROLL 1
22,
#BPMCHANGE 118.8
#SCROLL 1.11
0
#SCROLL 1.16
#BPMCHANGE 99.86
2
#SCROLL 1.22
#BPMCHANGE 97.05
2
#SCROLL 1.18
#BPMCHANGE 104.56
2,
#BPMCHANGE 148
#SCROLL 1
7,
0,
0,
00000800,
3221,
1020100030030030,
12101210,
1020100030030030,
12101210,
1020100030030030,
12101210,
1020101110010030,
,
12101210,
12101221,
3000300040030030,
12101220,
12101210,
12101221,
1040400030030040,
1000000010101111,
12021202,
12020212,
1000201010220110,
1000201010220110,
1111,
1000201010220110,
12121212,
1120112011201120,
3220,
3,//40
#GOGOSTART
1010201110102010,
1010201110102000,
1010201110102010,
1010201110102000,
1010201110102010,
1010201110102010,
7,
00000800,
1000201010120210,
1000201010120210,
33,
1000201010120210,
33,
00102002,
5,
000000000008000000000000200200200000200200000200,
2220220220202205,
000000000000000000000000000000000000008000000000,
3,//59
#GOGOEND
,
,
#END
COURSE:Normal
LEVEL:3
BALLOON:20,20
SCOREINIT:1560
SCOREDIFF:550
#START
#SCROLL 0.98
,
#BPMCHANGE 122.76
#SCROLL 0.99
,
#BPMCHANGE 123.41
#SCROLL 1
0220,
#BPMCHANGE 123.6
#SCROLL 0.98
1,
#BPMCHANGE 122.64
#SCROLL 0.99
0220,
1,
#BPMCHANGE 122.73
0220,
#SCROLL 1
1,
#BPMCHANGE 118.8
#SCROLL 1.11
0
#SCROLL 1.16
#BPMCHANGE 99.86
1
#SCROLL 1.22
#BPMCHANGE 97.05
1
#SCROLL 1.18
#BPMCHANGE 104.56
1,
#BPMCHANGE 148
#SCROLL 1
7,
0,
0,
00000800,
0112,
1100,
0112,
1100,
0112,
1100,
01,
500000000000000000000000000000000000000000000008,
0112,
12,
1112,
12,
0112,
12,
0112,
12,
1,
22,
2222,
12,
12,
1110,
12,
1,
,
3,
,//40
#GOGOSTART
1220,
00101001,
1220,
00101001,
1220,
0112,
500000000000000000000000000000000000000000000008,
,
12,
1120,
33,
1120,
33,
0120,
7,
,
,
8,
3,//59
#GOGOEND
,
,
#END
COURSE:Easy
LEVEL:3
BALLOON:16,20
SCOREINIT:1200
SCOREDIFF:530
#START
#SCROLL 0.98
,
#BPMCHANGE 122.76
#SCROLL 0.99
,
#BPMCHANGE 123.41
#SCROLL 1
0220,
#BPMCHANGE 123.6
#SCROLL 0.98
1,
#BPMCHANGE 122.64
#SCROLL 0.99
0220,
1,
#BPMCHANGE 122.73
0220,
#SCROLL 1
1,
#BPMCHANGE 118.8
#SCROLL 1.11
0
#SCROLL 1.16
#BPMCHANGE 99.86
0
#SCROLL 1.22
#BPMCHANGE 97.05
0
#SCROLL 1.18
#BPMCHANGE 104.56
0,
#BPMCHANGE 148
#SCROLL 1
7,
0,
0,
00000800,
0111,
1,
0111,
1,
011,
1,
01,
500000000000000000000000000000000000000000000008,
,
12,
1110,
12,
1,
12,
1110,
12,
1,
22,
22,
1110,
12,
1110,
12,
1,
,
3,
,//40
#GOGOSTART
12,
1110,
12,
1110,
12,
1110,
500000000000000000000000000000000000000000000008,
,
12,
12,
33,
,
33,
0110,
9,
,
09,
8,
3,//59
#GOGOEND
,
,
#END