Files
TJA-by-song-no/tja/1196.tja
2026-03-04 23:59:27 +09:00

1727 lines
20 KiB
Plaintext

//TJADB Project
TITLE:La Morena Kumonai
TITLEJA:ラ・モレーナ・クモナイ
SUBTITLE:--Yuri Misumi
SUBTITLEJA:
BPM:198.09
WAVE:La Morena Kumonai.ogg
OFFSET:-1.821
DEMOSTART:78.277
//PS4/AC16 Chart
//BPM/HS/Barlines are different in AC8, Wii1 and PSPDX
//PSPDX: HS 1.03 in #165-168. HS 1.0 for Hard/Oni #1-164,
//PSPDX: HS 0.85 for Normal #1-164, HS 0.75 for Easy #1-164.
//Wii1: HS1 for All #1-163. HS for All #164-168 same as PS4. All #89 Barline is ON.
//AC8: No HS, vastly different BPM from current chart (refer to Fumen Wiki)
//Shinuchi: 5110/3450/2050/1550/870
COURSE:Edit
LEVEL:10
BALLOON:6
SCOREINIT:340,890
SCOREDIFF:78
#START
#MEASURE 3/4
#SCROLL 1.01
100010000022200010,
#BPMCHANGE 198.56
100000001000100010002000200200100100,
#BPMCHANGE 200.92
#SCROLL 1
100010000011102020,
#BPMCHANGE 200
200000001000100010002020200000100100,
#BPMCHANGE 199.93
100000002000100100100200200020001000,
#BPMCHANGE 200.44
100000002000200100100100202020000100,
#BPMCHANGE 200.69
100000002000100100102020200000001000,
#BPMCHANGE 201.15
#SCROLL 0.99
100020100010202220,
#BPMCHANGE 196.71
#SCROLL 1.02
234, //9
#BPMCHANGE 203.33
#SCROLL 0.98
100010001000200000001000200100000200,
#MEASURE 2/4
#BPMCHANGE 199.76
#SCROLL 1
100000200200100000001000,
#MEASURE 3/4
200020002000200000002000100100100000,
#MEASURE 2/4
10210102,
#MEASURE 3/4
#BPMCHANGE 200
100000200200100000002000200000001000,
#MEASURE 2/4
210102,
#MEASURE 3/4
100010220010001022,
#MEASURE 2/4
210400, //17
#MEASURE 3/4
110101221,
#MEASURE 2/4
100200100000200000002000,
#MEASURE 3/4
100000100100100020001000200000100100,
#MEASURE 2/4
201222,
#MEASURE 3/4
102020100120100020,
#MEASURE 2/4
100120100020,
#MEASURE 3/4
101000200010200011,
#MEASURE 2/4
23, //25
#MEASURE 3/4
100010220010100010,
#MEASURE 2/4
#BPMCHANGE 200.15
200010102220,
#MEASURE 3/4
100010220010000022,
#MEASURE 2/4
#BPMCHANGE 200.42
102211,
#MEASURE 3/4
100000000200101000001000202000002000,
#MEASURE 2/4
#BPMCHANGE 200.82
100110202010,
#MEASURE 3/4
220000120010200020,
#BPMCHANGE 197.93
#SCROLL 1.01
3, //33
#BPMCHANGE 200
#SCROLL 1
200102200,
201102200,
202102200,
200200100200102201,
100000200100200010,
100000200020000011,
100000200100000202,
#BPMCHANGE 199.44
100200200010200010, //41
#BPMCHANGE 199.81
200000220010102020,
200100202010122020,
100000000000200000000200100000002000,
#BPMCHANGE 202.16
#SCROLL 0.99
100200000000100020001000200000003000,
#BPMCHANGE 198.65
#SCROLL 1.01
000102100,
200301201,
#BPMCHANGE 203.82
#SCROLL 0.98
201001221010,
#BPMCHANGE 197
#SCROLL 1.02
200000000100200010002020200010001010, //49
#BPMCHANGE 201.57
#SCROLL 0.99
100000200010220020,
#BPMCHANGE 197.63
#SCROLL 1.01
100020100010220020,
#BPMCHANGE 200.92
#SCROLL 1
102101102,
100010100020100011,
#BPMCHANGE 199.75
100201202,
100010220020100010,
200000100200100000200000102000101010,
200020102210202020, //57
#BPMCHANGE 200
100000200010220010,
102201221,
100000000200200000001000202000001000,
100000002000200000001000202000001010,
102201202,
100000200000100000002000102000000100,
200000000100000000200000100000002000,
100000102210202020, //65
300000100010220020,
#MEASURE 2/4
101201,
#MEASURE 3/4
100020002000100020001000100200200200,
#MEASURE 2/4
221212,
#MEASURE 3/4
100100100100200020001010200000002000,
102100201,
100020002000200020001000200200200200,
102010201020102220,
300020100010220020,
101101221,
#MEASURE 4/4
100020002000100100200200100020001000200010002000, //76
#MEASURE 3/4
120000100011200020,
111111200000120010,
100020002000200020001000200200200200,
102011201020102220,
300000100020110010,
101102102,
200022110020102020,
101022102010200040, //84
#BPMCHANGE 198.2
#SCROLL 1.01
010,
200102002,
#BPMCHANGE 200
#SCROLL 1
201210,
#BPMCHANGE 202
#SCROLL 0.99
202000000000100100200200200200200201,
#BARLINEOFF
010100010000000000200010101001000000, //89
#BARLINEON
#BPMCHANGE 200
#SCROLL 1
580000000000000000002000000000002000,
580000000000000000002020000000002000,
580000000000000000002000000000002000,
#BPMCHANGE 198
#SCROLL 1.01
100020200011200010,
#BPMCHANGE 199.47
#SCROLL 1
100000000200100000101000000000002000,
100000000200100000202000000000002000,
#BPMCHANGE 202.36
#SCROLL 0.99
100211121120,
#BPMCHANGE 201.4
100200200200100200201010000000002000,
100200200200100200102020000000002000, //98
#BPMCHANGE 198.19
#SCROLL 1.01
580000000000000000002000000000002000,
#BPMCHANGE 200
#SCROLL 1
580000000000000000002020000000002000,
580000000000000000002000000000002000,
100020200011200020,
100000000200100000101000000000002020,
100000000200100000202000000000002000,
100122212211, //105
#MEASURE 4/4
#BPMCHANGE 199.39
100020002000100000001010200200100100200200000200,
#BPMCHANGE 200
200200201010200200100100200000001010200000002000,
300200002100,
200000002100,
102002100122,
100001200201,
100201002001,
#BPMCHANGE 201.19
#SCROLL 0.99
100010200022200020111022,
#BPMCHANGE 200
#SCROLL 1
101020100020110010001011,
200200100012201022201011, //115
#MEASURE 3/4
#BPMCHANGE 200.4
100020200010220010,
100000200010220020,
#BPMCHANGE 200
102201201,
100010200010200022,
100020100010220010,
100000000000100000001000200000200200,
100000200122200020,
100000000100100020201000202000002000, //123
100010220010220020,
100000002000200000001000200200000200,
100000000200100000001000000000002000,
100000200010200011,
100201202,
100000201000200000201000200000100100,
100020002000100000001010100200000200,
100020201110221020, //131
100100102020200000001000000000100100,
#BPMCHANGE 199.01
102011102211222200,
680000000000000000200000000200000000,
#BPMCHANGE 200
680000000000000100000200200200000000,
680000000000000020002000200000002000,
#BPMCHANGE 201
100000001000100100102020100000002000, //137
#BPMCHANGE 198.42
#SCROLL 1.01
100000000000200000100200200020002000,
#BPMCHANGE 200
#SCROLL 1
100000002000200000100200200000002000,
#BPMCHANGE 201
100211121120,
100200200200100200201010200000002000,
#BPMCHANGE 200
100200200200100200102020100000002000, //142
#GOGOSTART
100010200022100010,
200000000200100000001010200000002020,
100010220020100010,
200000001000100200201010200000001000,
100020200011202020,
100020100110202020,
100212212221,
100000000200200200201010200000000200,
133, //151
100010000022200010,
100000001000100010002000200200100100,
100010000011102020,
200000001000100010002020200000100100,
100000002000100100100200200020001000,
100000002000200100100100202020000100,
#BPMCHANGE 200.66
100000002000100100102020200000001000,
#BPMCHANGE 201.4
#SCROLL 0.99
100020100010202220,
#BPMCHANGE 192.24
#SCROLL 1.56
700000000000080000000000600000000000, //160
#BPMCHANGE 187.14
#SCROLL 1.6
0,
#BPMCHANGE 187.97
0,
#BPMCHANGE 202.85
#SCROLL 1.48
000000000000080000,
#BPMCHANGE 218.57
#SCROLL 1.37
000000000000000000000000000000005800,
#BPMCHANGE 227
#SCROLL 0.88
580000000000000000,
#MEASURE 4/4
0, //166
#END
COURSE:Oni
LEVEL:8
BALLOON:35
SCOREINIT:530,1620
SCOREDIFF:135
#START
#MEASURE 3/4
#SCROLL 1.01
100102201,
#BPMCHANGE 198.56
122,
#BPMCHANGE 200.92
#SCROLL 1
100102221,
#BPMCHANGE 200
102200200,
#BPMCHANGE 199.93
100102201,
#BPMCHANGE 200.44
122,
#BPMCHANGE 200.69
100102221,
#BPMCHANGE 201.15
#SCROLL 0.99
221200200,
#BPMCHANGE 196.71
#SCROLL 1.02
134,
#BPMCHANGE 203.33
#SCROLL 0.98
100201100,
#MEASURE 2/4
#BPMCHANGE 199.76
#SCROLL 1
12,
#MEASURE 3/4
100201100,
#MEASURE 2/4
13,
#MEASURE 3/4
#BPMCHANGE 200
100201100,
#MEASURE 2/4
12,
#MEASURE 3/4
100201100,
#MEASURE 2/4
222, //17
#MEASURE 3/4
100201100,
#MEASURE 2/4
12,
#MEASURE 3/4
100201100,
#MEASURE 2/4
100222,
#MEASURE 3/4
100201002,
#MEASURE 2/4
12,
#MEASURE 3/4
100201002,
#MEASURE 2/4
24,
#MEASURE 3/4
100201002,
#MEASURE 2/4
#BPMCHANGE 200.15
122100,
#MEASURE 3/4
100201002,
#MEASURE 2/4
#BPMCHANGE 200.42
122122,
#MEASURE 3/4
100201002,
#MEASURE 2/4
#BPMCHANGE 200.82
122100,
#MEASURE 3/4
334,
#BPMCHANGE 197.93
#SCROLL 1.01
3, //33
#BPMCHANGE 200
#SCROLL 1
022,
000202200,
022,
202002200,
000200201,
000202200,
100201200,
#BPMCHANGE 199.44
100102200,
#BPMCHANGE 199.81
500000000000000000000000000000000008,
022,
000202200,
#BPMCHANGE 202.16
#SCROLL 0.99
202002200,
#BPMCHANGE 198.65
#SCROLL 1.01
000102200,
100102001,
#BPMCHANGE 203.82
#SCROLL 0.98
100201002,
#BPMCHANGE 197
#SCROLL 1.02
500000000000000000000008000000000000, //49
#BPMCHANGE 201.57
#SCROLL 0.99
102002200,
#BPMCHANGE 197.63
#SCROLL 1.01
102002200,
#BPMCHANGE 200.92
#SCROLL 1
102002200,
100000002000000000200200200000000000,
#BPMCHANGE 199.75
102002200,
102002200,
102002200,
100000001000000000200200200000000000,
#BPMCHANGE 200
102002201,
102002201,
102002201,
122022021,
102002201,
102002201,
102002201,
133, //65
101100002,
#MEASURE 2/4
101100,
#MEASURE 3/4
002101100,
#MEASURE 2/4
111222,
#MEASURE 3/4
100001002,
200002001,
100001000,
200002000,
101100002,
101100002,
#MEASURE 4/4
100200111222,
#MEASURE 3/4
100001002,
200002001,
100001000,
100002000,
101100002,
101100200,
102001100,
133, //84
#BPMCHANGE 198.2
#SCROLL 1.01
7,
0,
#BPMCHANGE 200
#SCROLL 1
0,
#BPMCHANGE 202
#SCROLL 0.99
080,
#BARLINEOFF
200200200000000000002000100000000000,
#BARLINEON
#BPMCHANGE 200
#SCROLL 1
000102200,
000102200,
000102200,
#BPMCHANGE 198
#SCROLL 1.01
101102200,
#BPMCHANGE 199.47
#SCROLL 1
100201001,
100201001,
#BPMCHANGE 202.36
#SCROLL 0.99
100202002,
#BPMCHANGE 201.4
122,
100202200, //98
#BPMCHANGE 198.19
#SCROLL 1.01
000102200,
#BPMCHANGE 200
#SCROLL 1
000102200,
000102200,
122200200,
100201001,
100201001,
122,
#MEASURE 4/4
#BPMCHANGE 199.39
100200000101,
#BPMCHANGE 200
0210,
32,
0021,
02,
000000202000,
000101200001,
#BPMCHANGE 201.19
#SCROLL 0.99
100100200202,
#BPMCHANGE 200
#SCROLL 1
100200201001,
002211112211, //115
#MEASURE 3/4
#BPMCHANGE 200.4
102002201,
102002201,
#BPMCHANGE 200
102002201,
122200201,
102002201,
102002201,
102201002,
102201001,
102202201,
102202201,
102202201,
122202201,
102201102,
200102201,
102201002,
122122100, //131
500000000000000000000008000000000000,
#BPMCHANGE 199.01
300000221,
1,
#BPMCHANGE 200
3,
600000000000000000000000000000000008,
#BPMCHANGE 201
0,
#BPMCHANGE 198.42
#SCROLL 1.01
100201001,
#BPMCHANGE 200
#SCROLL 1
100201001,
#BPMCHANGE 201
122,
122,
#BPMCHANGE 200
102001222, //142
#GOGOSTART
102002201,
102002201,
102002201,
122022021,
102101001,
102101001,
122,
122,
133,
100102201,
122,
100102221,
102200200,
100102201,
122,
#BPMCHANGE 200.66
100102221,
#BPMCHANGE 201.4
#SCROLL 0.99
221200200,
#BPMCHANGE 192.24
#SCROLL 1.04
134, //160
#BPMCHANGE 187.14
#SCROLL 1.07
0,
#BPMCHANGE 187.97
#SCROLL 1.06
0,
#BPMCHANGE 202.85
#SCROLL 0.99
222221100,
#BPMCHANGE 218.57
#SCROLL 0.92
000000001,
#BPMCHANGE 227
#SCROLL 0.88
1,
#MEASURE 4/4
0, //166
#END
COURSE:Hard
LEVEL:7
BALLOON:24
SCOREINIT:580,2170
SCOREDIFF:150
#START
#MEASURE 3/4
#SCROLL 1.01
100102200,
#BPMCHANGE 198.56
122,
#BPMCHANGE 200.92
#SCROLL 1
100102200,
#BPMCHANGE 200
102200200,
#BPMCHANGE 199.93
100102200,
#BPMCHANGE 200.44
122,
#BPMCHANGE 200.69
100102200,
#BPMCHANGE 201.15
#SCROLL 0.99
222200200,
#BPMCHANGE 196.71
#SCROLL 1.02
134,
#BPMCHANGE 203.33
#SCROLL 0.98
100201000,
#MEASURE 2/4
#BPMCHANGE 199.76
#SCROLL 1
1,
#MEASURE 3/4
100201000,
#MEASURE 2/4
2,
#MEASURE 3/4
#BPMCHANGE 200
100201000,
#MEASURE 2/4
1,
#MEASURE 3/4
100201000,
#MEASURE 2/4
2, //17
#MEASURE 3/4
100201000,
#MEASURE 2/4
11,
#MEASURE 3/4
100201000,
#MEASURE 2/4
22,
#MEASURE 3/4
100201000,
#MEASURE 2/4
11,
#MEASURE 3/4
100201000,
#MEASURE 2/4
24,
#MEASURE 3/4
100201000,
#MEASURE 2/4
#BPMCHANGE 200.15
11,
#MEASURE 3/4
100201000,
#MEASURE 2/4
#BPMCHANGE 200.42
111100,
#MEASURE 3/4
100201000,
#MEASURE 2/4
#BPMCHANGE 200.82
11,
#MEASURE 3/4
334,
#BPMCHANGE 197.93
#SCROLL 1.01
3, //33
#BPMCHANGE 200
#SCROLL 1
022,
022,
022,
000202200,
000200201,
022,
022,
#BPMCHANGE 199.44
000202200,
#BPMCHANGE 199.81
500000000000000000000000000000000008,
022,
022,
#BPMCHANGE 202.16
#SCROLL 0.99
000202200,
#BPMCHANGE 198.65
#SCROLL 1.01
000102200,
100102000,
#BPMCHANGE 203.82
#SCROLL 0.98
100001000,
#BPMCHANGE 197
#SCROLL 1.02
500000000000000000000008000000000000, //49
#BPMCHANGE 201.57
#SCROLL 0.99
102000200,
#BPMCHANGE 197.63
#SCROLL 1.01
102000200,
#BPMCHANGE 200.92
#SCROLL 1
102000200,
102002200,
#BPMCHANGE 199.75
102000200,
102000200,
102000200,
102002200,
#BPMCHANGE 200
102002200,
102002200,
102002200,
111100200,
102002200,
102002200,
102002200,
133, //65
100100002,
#MEASURE 2/4
11,
#MEASURE 3/4
002100100,
#MEASURE 2/4
111100,
#MEASURE 3/4
100001000,
200002000,
100001000,
200002000,
100100002,
100100002,
#MEASURE 4/4
100200111100,
#MEASURE 3/4
100001000,
200002000,
100001000,
100002000,
100100002,
112,
100001100,
133, //84
#BPMCHANGE 198.2
#SCROLL 1.01
7,
0,
#BPMCHANGE 200
#SCROLL 1
0,
#BPMCHANGE 202
#SCROLL 0.99
080,
#BARLINEOFF
200002100,
#BARLINEON
#BPMCHANGE 200
#SCROLL 1
000102200,
000102200,
000102200,
#BPMCHANGE 198
#SCROLL 1.01
130,
#BPMCHANGE 199.47
#SCROLL 1
100201000,
100201000,
#BPMCHANGE 202.36
#SCROLL 0.99
122,
#BPMCHANGE 201.4
122,
130, //98
#BPMCHANGE 198.19
#SCROLL 1.01
000102200,
#BPMCHANGE 200
#SCROLL 1
000102200,
000102200,
111100200,
100201000,
100201000,
122,
#MEASURE 4/4
#BPMCHANGE 199.39
1201,
#BPMCHANGE 200
0201,
32,
0021,
02,
02,
000100200001,
#BPMCHANGE 201.19
#SCROLL 0.99
1120,
#BPMCHANGE 200
#SCROLL 1
1221,
500000000000000000000000000000000008000000000000, //115
#MEASURE 3/4
#BPMCHANGE 200.4
102002200,
102002200,
#BPMCHANGE 200
102002200,
111100200,
102002200,
102002200,
100201000,
100201000,
102202200,
102202200,
102202200,
122200200,
102201100,
200102201,
122,
102200200, //131
500000000000000000000008000000000000,
#BPMCHANGE 199.01
3,
3,
#BPMCHANGE 200
3,
600000000000000000000000000000000008,
#BPMCHANGE 201
0,
#BPMCHANGE 198.42
#SCROLL 1.01
100201000,
#BPMCHANGE 200
#SCROLL 1
100201000,
#BPMCHANGE 201
122,
122,
#BPMCHANGE 200
113, //142
#GOGOSTART
102002200,
102002200,
102002200,
111100200,
100001001,
100001001,
122,
122,
3,
100102200,
122,
100102200,
102200200,
100102200,
122,
#BPMCHANGE 200.66
100102200,
#BPMCHANGE 201.4
#SCROLL 0.99
222200200,
#BPMCHANGE 192.24
#SCROLL 1.04
134, //160
#BPMCHANGE 187.14
#SCROLL 1.07
0,
#BPMCHANGE 187.97
#SCROLL 1.06
0,
#BPMCHANGE 202.85
#SCROLL 0.99
0,
#BPMCHANGE 218.57
#SCROLL 0.92
000000001,
#BPMCHANGE 227
#SCROLL 0.88
1,
#MEASURE 4/4
0, //166
#END
COURSE:Normal
LEVEL:5
BALLOON:18
SCOREINIT:690,3730
SCOREDIFF:205
#START
#MEASURE 3/4
#SCROLL 1.01
122,
#BPMCHANGE 198.56
1,
#BPMCHANGE 200.92
#SCROLL 1
101,
#BPMCHANGE 200
3,
#BPMCHANGE 199.93
122,
#BPMCHANGE 200.44
1,
#BPMCHANGE 200.69
101,
#BPMCHANGE 201.15
#SCROLL 0.99
3,
#BPMCHANGE 196.71
#SCROLL 1.02
330, //9
#BPMCHANGE 203.33
#SCROLL 0.98
100001000,
#MEASURE 2/4
#BPMCHANGE 199.76
#SCROLL 1
1,
#MEASURE 3/4
200002000,
#MEASURE 2/4
2,
#MEASURE 3/4
#BPMCHANGE 200
100001000,
#MEASURE 2/4
1,
#MEASURE 3/4
200002000,
#MEASURE 2/4
2, //17
#MEASURE 3/4
100001000,
#MEASURE 2/4
1,
#MEASURE 3/4
200002000,
#MEASURE 2/4
2,
#MEASURE 3/4
100001000,
#MEASURE 2/4
1,
#MEASURE 3/4
200002000,
#MEASURE 2/4
4,
#MEASURE 3/4
100001000,
#MEASURE 2/4
#BPMCHANGE 200.15
2,
#MEASURE 3/4
100001000,
#BPMCHANGE 200.42
#MEASURE 2/4
2,
#MEASURE 3/4
100001000,
#MEASURE 2/4
#BPMCHANGE 200.82
2,
#MEASURE 3/4
111,
#BPMCHANGE 197.93
#SCROLL 1.01
3, //33
#BPMCHANGE 200
#SCROLL 1
022,
022,
022,
202,
022,
022,
022,
#BPMCHANGE 199.44
2,
#BPMCHANGE 199.81
500000000000000000000000000000000008,
022,
022,
#BPMCHANGE 202.16
#SCROLL 0.99
202,
#BPMCHANGE 198.65
#SCROLL 1.01
022,
110,
#BPMCHANGE 203.82
#SCROLL 0.98
100001000,
#BPMCHANGE 197
#SCROLL 1.02
500000000000000000000008000000000000, //49
#BPMCHANGE 201.57
#SCROLL 0.99
120,
#BPMCHANGE 197.63
#SCROLL 1.01
120,
#BPMCHANGE 200.92
#SCROLL 1
120,
110,
#BPMCHANGE 199.75
120,
120,
120,
110,
#BPMCHANGE 200
120,
120,
120,
110,
120,
120,
120,
3, //65
101,
#MEASURE 2/4
1,
#MEASURE 3/4
110,
#MEASURE 2/4
11,
#MEASURE 3/4
1,
2,
100001000,
2,
101,
101,
#MEASURE 4/4
1011,
#MEASURE 3/4
1,
2,
100001000,
2,
110,
112,
011,
1, //84
#BPMCHANGE 198.2
#SCROLL 1.01
7,
0,
#BPMCHANGE 200
#SCROLL 1
0,
#BPMCHANGE 202
#SCROLL 0.99
080,
#BARLINEOFF
0,
#BARLINEON
#BPMCHANGE 200
#SCROLL 1
011,
011,
011,
#BPMCHANGE 198
#SCROLL 1.01
3,
#BPMCHANGE 199.47
#SCROLL 1
100002000,
1,
#BPMCHANGE 202.36
#SCROLL 0.99
100002000,
#BPMCHANGE 201.4
1,
3, //98
#BPMCHANGE 198.19
#SCROLL 1.01
012,
#BPMCHANGE 200
#SCROLL 1
012,
012,
1,
100002000,
1,
1,
#MEASURE 4/4
#BPMCHANGE 199.39
1201,
#BPMCHANGE 200
0201,
32,
0021,
02,
02,
0120,
#BPMCHANGE 201.19
#SCROLL 0.99
1120,
#BPMCHANGE 200
#SCROLL 1
12,
500000000000000000000000000000000008000000000000, //115
#MEASURE 3/4
#BPMCHANGE 200.4
122,
120,
#BPMCHANGE 200
122,
120,
122,
120,
100001000,
1,
122,
120,
122,
120,
122,
120,
100001000,
1, //131
500000000000000000000000000000000008,
#BPMCHANGE 199.01
0,
3,
#BPMCHANGE 200
3,
600000000000000000000000000000000008,
#BPMCHANGE 201
0,
#BPMCHANGE 198.42
#SCROLL 1.01
100001000,
#BPMCHANGE 200
#SCROLL 1
2,
#BPMCHANGE 201
022,
122,
#BPMCHANGE 200
130, //142
#GOGOSTART
120,
120,
122,
1,
100002000,
1,
101,
122,
3,
122,
1,
101,
3,
122,
1,
#BPMCHANGE 200.66
101,
#BPMCHANGE 201.4
#SCROLL 0.99
3,
#BPMCHANGE 192.24
#SCROLL 1.04
330, //160
#BPMCHANGE 187.14
#SCROLL 1.07
0,
#BPMCHANGE 187.97
#SCROLL 1.06
0,
#BPMCHANGE 202.85
#SCROLL 0.99
0,
#BPMCHANGE 218.57
#SCROLL 0.92
0,
#BPMCHANGE 227
#SCROLL 0.88
0,
#MEASURE 4/4
0, //166
#END
COURSE:Easy
LEVEL:4
BALLOON:15
SCOREINIT:600,5530
SCOREDIFF:210
#START
#MEASURE 3/4
#SCROLL 1.01
101,
#BPMCHANGE 198.56
1,
#BPMCHANGE 200.92
#SCROLL 1
500000000000000000000000000000000008,
#BPMCHANGE 200
0,
#BPMCHANGE 199.93
101,
#BPMCHANGE 200.44
1,
#BPMCHANGE 200.69
500000000000000000000000000000000008,
#BPMCHANGE 201.15
#SCROLL 0.99
0,
#BPMCHANGE 196.71
#SCROLL 1.02
330,
#BPMCHANGE 203.33
#SCROLL 0.98
1,
#MEASURE 2/4
#BPMCHANGE 199.76
#SCROLL 1
1,
#MEASURE 3/4
2,
#MEASURE 2/4
0,
#MEASURE 3/4
#BPMCHANGE 200
1,
#MEASURE 2/4
1,
#MEASURE 3/4
2,
#MEASURE 2/4
0, //17
#MEASURE 3/4
1,
#MEASURE 2/4
1,
#MEASURE 3/4
2,
#MEASURE 2/4
0,
#MEASURE 3/4
1,
#MEASURE 2/4
1,
#MEASURE 3/4
2,
#MEASURE 2/4
0,
#MEASURE 3/4
100001000,
#MEASURE 2/4
#BPMCHANGE 200.15
1,
#MEASURE 3/4
2,
#MEASURE 2/4
#BPMCHANGE 200.42
0,
#MEASURE 3/4
100001000,
#MEASURE 2/4
#BPMCHANGE 200.82
1,
#MEASURE 3/4
2,
#BPMCHANGE 197.93
#SCROLL 1.01
3, //33
#BPMCHANGE 200
#SCROLL 1
0,
0,
022,
022,
0,
0,
022,
#BPMCHANGE 199.44
022,
#BPMCHANGE 199.81
500000000000000000000000000000000008,
0,
022,
#BPMCHANGE 202.16
#SCROLL 0.99
022,
#BPMCHANGE 198.65
#SCROLL 1.01
0,
0,
#BPMCHANGE 203.82
#SCROLL 0.98
100001000,
#BPMCHANGE 197
#SCROLL 1.02
3, //49
#BPMCHANGE 201.57
#SCROLL 0.99
120,
#BPMCHANGE 197.63
#SCROLL 1.01
1,
#BPMCHANGE 200.92
#SCROLL 1
120,
1,
#BPMCHANGE 199.75
120,
1,
120,
3,
#BPMCHANGE 200
120,
1,
120,
1,
120,
1,
120,
3, //65
1,
#MEASURE 2/4
1,
#MEASURE 3/4
1,
#MEASURE 2/4
0,
#MEASURE 3/4
1,
2,
100001000,
1,
1,
1,
#MEASURE 4/4
1,
#MEASURE 3/4
1,
2,
100001000,
1,
110,
101,
101,
1, //84
#BPMCHANGE 198.2
#SCROLL 1.01
7,
0,
#BPMCHANGE 200
#SCROLL 1
0,
#BPMCHANGE 202
#SCROLL 0.99
080,
#BARLINEOFF
0,
#BARLINEON
#BPMCHANGE 200
#SCROLL 1
011,
1,
011,
#BPMCHANGE 198
#SCROLL 1.01
1,
#BPMCHANGE 199.47
#SCROLL 1
2,
2,
#BPMCHANGE 202.36
#SCROLL 0.99
220,
#BPMCHANGE 201.4
2,
3, //98
#BPMCHANGE 198.19
#SCROLL 1.01
012,
#BPMCHANGE 200
#SCROLL 1
1,
012,
1,
1,
1,
220,
#MEASURE 4/4
#BPMCHANGE 199.39
0200,
#BPMCHANGE 200
1200,
3,
0,
02,
02,
0110,
#BPMCHANGE 201.19
#SCROLL 0.99
1110,
#BPMCHANGE 200
#SCROLL 1
12,
500000000000000000000008000000000000000000000000, //115
#MEASURE 3/4
#BPMCHANGE 200.4
122,
1,
#BPMCHANGE 200
122,
1,
122,
1,
1,
1,
122,
1,
122,
1,
122,
1,
1,
1, //131
500000000000000000000000000000000008,
#BPMCHANGE 199.01
0,
3,
#BPMCHANGE 200
3,
600000000000000000000000000000000008,
#BPMCHANGE 201
0,
#BPMCHANGE 198.42
#SCROLL 1.01
1,
#BPMCHANGE 200
#SCROLL 1
1,
#BPMCHANGE 201
001,
1,
#BPMCHANGE 200
0, //142
#GOGOSTART
120,
120,
122,
1,
1,
1,
001,
1,
0,
101,
1,
500000000000000000000000000000000008,
0,
101,
1,
#BPMCHANGE 200.66
500000000000000000000000000000000008,
#BPMCHANGE 201.4
#SCROLL 0.99
0,
#BPMCHANGE 192.24
#SCROLL 1.04
330, //160
#BPMCHANGE 187.14
#SCROLL 1.07
0,
#BPMCHANGE 187.97
#SCROLL 1.06
0,
#BPMCHANGE 202.85
#SCROLL 0.99
0,
#BPMCHANGE 218.57
#SCROLL 0.92
0,
#BPMCHANGE 227
#SCROLL 0.88
0,
#MEASURE 4/4
0, //166
#END