2102 lines
28 KiB
Plaintext
2102 lines
28 KiB
Plaintext
//TJADB Project
|
||
TITLE:Nosferatu
|
||
TITLEJA:Nosferatu
|
||
SUBTITLE:--SEIFU-MEIGETSU (Drop × Yura Hatsuki)
|
||
SUBTITLEJA:清風明月(Drop×葉月ゆら)
|
||
BPM:200
|
||
WAVE:Nosferatu.ogg
|
||
OFFSET:-1.500
|
||
DEMOSTART:60.265
|
||
|
||
//SONG_ID:nosfer
|
||
|
||
COURSE:Edit
|
||
LEVEL:10
|
||
BALLOON:23
|
||
SCOREINIT:740
|
||
SCOREDIFF:0
|
||
|
||
#START
|
||
#SCROLL 1.26
|
||
#GOGOSTART
|
||
3,
|
||
3,
|
||
3,
|
||
#MEASURE 8/4
|
||
#BPMCHANGE 400
|
||
#SCROLL 0.63
|
||
300000000000000000000000500000000000000000080000,
|
||
|
||
#MEASURE 4/4
|
||
#BPMCHANGE 200
|
||
#SCROLL 1.26
|
||
2111112111112111,
|
||
100100200100100100100100201010101010200000000000,
|
||
100000000000000000101010200000000200000000200200,
|
||
112112111222,
|
||
#GOGOEND
|
||
|
||
30000003,
|
||
3,
|
||
30000003,
|
||
#MEASURE 7/4
|
||
#BPMCHANGE 400
|
||
#SCROLL 0.63
|
||
300011101000111010001110
|
||
#BPMCHANGE 200
|
||
#SCROLL 1.26
|
||
4000,
|
||
|
||
#MEASURE 4/4
|
||
#GOGOSTART
|
||
1020112010201122,
|
||
#MEASURE 9/8
|
||
10201120102011
|
||
#BPMCHANGE 400
|
||
#SCROLL 0.63
|
||
2010,
|
||
#MEASURE 4/4
|
||
#BPMCHANGE 200
|
||
#SCROLL 1.26
|
||
222010202010222010202010,
|
||
#MEASURE 8/4
|
||
#BPMCHANGE 400
|
||
#SCROLL 0.63
|
||
222020201010202010401010, //16
|
||
#GOGOEND
|
||
|
||
#MEASURE 4/4
|
||
#BPMCHANGE 200
|
||
#SCROLL 1.26
|
||
1010201110201020,
|
||
1010201110201020,
|
||
1010201110201020,
|
||
#MEASURE 5/4
|
||
101020
|
||
#BPMCHANGE 400
|
||
#SCROLL 0.63
|
||
1110
|
||
#BPMCHANGE 200
|
||
#SCROLL 1.26
|
||
111022
|
||
#BPMCHANGE 400
|
||
#SCROLL 0.63
|
||
1110,
|
||
|
||
#MEASURE 4/4
|
||
#BPMCHANGE 200
|
||
#SCROLL 1.26
|
||
1010201110201020,
|
||
1010201110201020,
|
||
#MEASURE 8/4
|
||
#BPMCHANGE 400
|
||
#SCROLL 0.63
|
||
#GOGOSTART
|
||
10001110100011101000111020001110,
|
||
200200200200100100100100200200101010200000000000,
|
||
#GOGOEND
|
||
|
||
#MEASURE 4/4
|
||
#BPMCHANGE 200
|
||
#SCROLL 1.26
|
||
1010201110201020,
|
||
1010201110201020,
|
||
1010401110203020,
|
||
100100100100200100100100200200201010200000000000,
|
||
|
||
#GOGOSTART
|
||
1111211111112111,
|
||
2211211122112111,
|
||
2222111122112211,
|
||
222122111211, //32
|
||
#GOGOEND
|
||
|
||
#MEASURE 10/4
|
||
#BPMCHANGE 400
|
||
#SCROLL 0.63
|
||
10111020002111102112,
|
||
10111020002111112012,
|
||
10111020002111102112,
|
||
100000100200100100200000200100100100202020001000100010001000,
|
||
1000200011102000100010102000100020201000,
|
||
2000100022201000200020201000202010102020,
|
||
#MEASURE 15/16
|
||
#BPMCHANGE 200
|
||
#SCROLL 1.26
|
||
300020001000300020001000300020001000
|
||
#BPMCHANGE 50
|
||
#SCROLL 5.04
|
||
400000000, //39
|
||
|
||
#MEASURE 4/4
|
||
#BPMCHANGE 200
|
||
#SCROLL 1.26
|
||
#GOGOSTART
|
||
3020112010201122,
|
||
1020112010201121,
|
||
1021102210211020,
|
||
#MEASURE 5/4
|
||
111040
|
||
#BPMCHANGE 400
|
||
#SCROLL 0.63
|
||
1110
|
||
#BPMCHANGE 200
|
||
#SCROLL 1.26
|
||
112022
|
||
#BPMCHANGE 400
|
||
#SCROLL 0.63
|
||
1110,
|
||
|
||
#MEASURE 4/4
|
||
#BPMCHANGE 200
|
||
#SCROLL 1.26
|
||
2010121020101210,
|
||
#MEASURE 8/4
|
||
#BPMCHANGE 400
|
||
#SCROLL 0.63
|
||
20101110201011102010101020101010,
|
||
#MEASURE 4/4
|
||
#BPMCHANGE 200
|
||
#SCROLL 1.26
|
||
221211221211,
|
||
#MEASURE 6/4
|
||
#BPMCHANGE 300
|
||
#SCROLL 0.84
|
||
400000400000400000
|
||
#BPMCHANGE 400
|
||
#SCROLL 0.63
|
||
600000080000
|
||
#BPMCHANGE 200
|
||
#SCROLL 1.26
|
||
400000,
|
||
#GOGOEND
|
||
|
||
#MEASURE 4/4
|
||
3000201110102211,
|
||
1010201120102010,
|
||
1011201110112010,
|
||
#MEASURE 5/4
|
||
111020
|
||
#BPMCHANGE 400
|
||
#SCROLL 0.63
|
||
1110
|
||
#BPMCHANGE 200
|
||
#SCROLL 1.26
|
||
111022
|
||
#BPMCHANGE 400
|
||
#SCROLL 0.63
|
||
1110,
|
||
|
||
#MEASURE 4/4
|
||
#BPMCHANGE 200
|
||
#SCROLL 1.26
|
||
1021201110222010,
|
||
#MEASURE 9/8
|
||
10222012102120
|
||
#BPMCHANGE 400
|
||
#SCROLL 0.63
|
||
1010,
|
||
#MEASURE 4/4
|
||
#BPMCHANGE 200
|
||
#SCROLL 1.26
|
||
#GOGOSTART
|
||
2111211121112111,
|
||
#MEASURE 5/4
|
||
22221111
|
||
#BPMCHANGE 400
|
||
#SCROLL 0.63
|
||
20201111
|
||
#BPMCHANGE 200
|
||
#SCROLL 1.26
|
||
2000, //55
|
||
#GOGOEND
|
||
|
||
#MEASURE 4/4
|
||
1000201110102211,
|
||
1010201120102010,
|
||
1011201110112010,
|
||
100100100100200100100100201010100010200000000000,
|
||
|
||
#GOGOSTART
|
||
2111211121112111,
|
||
202020200200100100200200200100100100200100100100,
|
||
400000000400000000400000100100101010200000000000,
|
||
500008222222,
|
||
#GOGOEND
|
||
|
||
#MEASURE 14/4
|
||
#BPMCHANGE 400
|
||
#SCROLL 0.63
|
||
100010102010100010102000100020102010100020102000
|
||
#GOGOSTART
|
||
40001111,
|
||
#GOGOEND
|
||
100000100100200100100000100100200000100020002000100020001000200020001000500000080000,
|
||
300010102010100010102000100020102010100020102000
|
||
#GOGOSTART
|
||
40001111,
|
||
#GOGOEND
|
||
100000100100200100100000100100200200100010002000200010001000200200100100500000080000, //67
|
||
|
||
#MEASURE 10/4
|
||
#BPMCHANGE 200
|
||
#SCROLL 1.26
|
||
#GOGOSTART
|
||
202010201010
|
||
#BPMCHANGE 400
|
||
#SCROLL 0.63
|
||
200020001000
|
||
#BPMCHANGE 200
|
||
#SCROLL 1.26
|
||
401010221010202010
|
||
#BPMCHANGE 400
|
||
#SCROLL 0.63
|
||
200010001000
|
||
#BPMCHANGE 200
|
||
#SCROLL 1.26
|
||
402010,
|
||
#GOGOEND
|
||
|
||
#MEASURE 5/4
|
||
20111020002211202011,
|
||
#MEASURE 8/4
|
||
202111102021
|
||
#BPMCHANGE 400
|
||
#SCROLL 0.63
|
||
2000222010001010
|
||
#BPMCHANGE 200
|
||
#SCROLL 1.26
|
||
2211,
|
||
#MEASURE 5/4
|
||
20111020002211202011,
|
||
#MEASURE 8/4
|
||
202111202021
|
||
#BPMCHANGE 400
|
||
#SCROLL 0.63
|
||
2000222010101010
|
||
#BPMCHANGE 200
|
||
#SCROLL 1.26
|
||
2211, //72
|
||
|
||
#MEASURE 7/4
|
||
401111401111
|
||
#BPMCHANGE 400
|
||
#SCROLL 0.63
|
||
#GOGOSTART
|
||
4000111040000000,
|
||
#GOGOEND
|
||
#BPMCHANGE 200
|
||
#SCROLL 1.26
|
||
401111401111
|
||
#BPMCHANGE 400
|
||
#SCROLL 0.63
|
||
#GOGOSTART
|
||
4000111040000000,
|
||
#GOGOEND
|
||
|
||
#MEASURE 4/4
|
||
#BPMCHANGE 200
|
||
#SCROLL 1.26
|
||
1011201022112010,
|
||
2011201020102211,
|
||
1011201022112010,
|
||
2011201021012211,
|
||
2111201120112011,
|
||
4011114011114000, //80
|
||
|
||
#MEASURE 8/4
|
||
#BPMCHANGE 400
|
||
#SCROLL 0.63
|
||
#GOGOSTART
|
||
11102010201010102010201010102020,
|
||
100100100000200000100000200000100000100000100000200000002000200020000000100000001000100010000000,
|
||
#MEASURE 4/4
|
||
#BPMCHANGE 200
|
||
#SCROLL 1.26
|
||
7,
|
||
000000000800101010101010,
|
||
#GOGOEND
|
||
|
||
20000000000000000000000000002222,
|
||
20000000000000000000000000002222,
|
||
2000002220020022,
|
||
#MEASURE 5/4
|
||
11111111
|
||
#BPMCHANGE 400
|
||
#SCROLL 0.63
|
||
11111110
|
||
#BPMCHANGE 200
|
||
#SCROLL 1.26
|
||
4000,
|
||
|
||
#MEASURE 9/8
|
||
10102011201021
|
||
#BPMCHANGE 400
|
||
#SCROLL 0.63
|
||
2010,
|
||
#BPMCHANGE 200
|
||
#SCROLL 1.26
|
||
10102011201022
|
||
#BPMCHANGE 400
|
||
#SCROLL 0.63
|
||
1020,
|
||
#MEASURE 9/4
|
||
#GOGOSTART
|
||
10000000000000001000100010001000200000000000000010001000100010001000000000000000100010001000100020000000000000001000100010001000
|
||
#GOGOEND
|
||
#BPMCHANGE 50
|
||
#SCROLL 5.04
|
||
0000000000114000, //91
|
||
|
||
#MEASURE 4/4
|
||
#BPMCHANGE 200
|
||
#SCROLL 1.26
|
||
#GOGOSTART
|
||
1110221110102112,
|
||
1010221210201120,
|
||
1211202110212010,
|
||
100100100100200100100100201020101010200000000000,
|
||
|
||
#MEASURE 8/4
|
||
#BPMCHANGE 400
|
||
#SCROLL 0.63
|
||
2111221121112211,
|
||
202020200200100100200200200100100100200200100100,
|
||
#MEASURE 4/4
|
||
#BPMCHANGE 200
|
||
#SCROLL 1.26
|
||
400000000400000000400000100100101010200000000000,
|
||
#MEASURE 5/8
|
||
500000000000000000008000
|
||
#GOGOEND
|
||
#BPMCHANGE 50
|
||
#SCROLL 5.04
|
||
222222, //99
|
||
|
||
#MEASURE 8/4
|
||
#BPMCHANGE 400
|
||
#SCROLL 0.63
|
||
#GOGOSTART
|
||
1111211122221222,
|
||
1121221121221212,
|
||
1111211122221222,
|
||
10102010202011102010202010201110,
|
||
|
||
2121221121212211,
|
||
20201111202011112020101020102010,
|
||
#MEASURE 5/4
|
||
#BPMCHANGE 200
|
||
#SCROLL 1.26
|
||
211212
|
||
#BPMCHANGE 400
|
||
#SCROLL 0.63
|
||
201011
|
||
#BPMCHANGE 200
|
||
#SCROLL 1.26
|
||
211,
|
||
40040042
|
||
#BPMCHANGE 400
|
||
#SCROLL 0.63
|
||
11111111
|
||
#BPMCHANGE 200
|
||
#SCROLL 1.26
|
||
2000,
|
||
|
||
#MEASURE 4/4
|
||
222020202020202020202020,
|
||
#MEASURE 6/4
|
||
#BPMCHANGE 300
|
||
#SCROLL 0.84
|
||
334344,
|
||
#GOGOEND
|
||
#MEASURE 4/4
|
||
#BPMCHANGE 200
|
||
#SCROLL 1.26
|
||
10102000200010102000200010101111,
|
||
#MEASURE 6/4
|
||
#BPMCHANGE 300
|
||
#SCROLL 0.84
|
||
#GOGOSTART
|
||
244444,
|
||
|
||
#MEASURE 4/4
|
||
#BPMCHANGE 200
|
||
#SCROLL 1.26
|
||
0,
|
||
0,
|
||
#GOGOEND
|
||
0, //114
|
||
#END
|
||
|
||
|
||
COURSE:Oni
|
||
LEVEL:9
|
||
BALLOON:13,23,31
|
||
SCOREINIT:1110
|
||
SCOREDIFF:0
|
||
|
||
#START
|
||
#GOGOSTART
|
||
1,
|
||
1,
|
||
11,
|
||
#MEASURE 8/4
|
||
#BPMCHANGE 400
|
||
#SCROLL 0.5
|
||
500000000000000000000000000000000000000000000000000000000000000000000008000000000000000000000000,
|
||
|
||
#MEASURE 4/4
|
||
#BPMCHANGE 200
|
||
#SCROLL 1
|
||
30040030,
|
||
04003040,
|
||
600000000000000000000000000000000008000000100100,
|
||
70000008,
|
||
#GOGOEND
|
||
|
||
30000001,
|
||
3,
|
||
30000001,
|
||
#MEASURE 7/4
|
||
#BPMCHANGE 400
|
||
#SCROLL 0.5
|
||
301210121110
|
||
#BPMCHANGE 200
|
||
#SCROLL 1
|
||
40,
|
||
|
||
#MEASURE 4/4
|
||
#GOGOSTART
|
||
1020112010202120,
|
||
#MEASURE 9/8
|
||
10201120201021
|
||
#BPMCHANGE 400
|
||
#SCROLL 0.5
|
||
2000,
|
||
#MEASURE 4/4
|
||
#BPMCHANGE 200
|
||
#SCROLL 1
|
||
112112122122,
|
||
#MEASURE 8/4
|
||
#BPMCHANGE 400
|
||
#SCROLL 0.5
|
||
500000000000000000000000000000000000000000000000000000000008000000000000400000000000000000000000, //16
|
||
#GOGOEND
|
||
|
||
#MEASURE 4/4
|
||
#BPMCHANGE 200
|
||
#SCROLL 1
|
||
1000101010101120,
|
||
1000101010112010,
|
||
1000101010101120,
|
||
#MEASURE 5/4
|
||
100010
|
||
#BPMCHANGE 400
|
||
#SCROLL 0.5
|
||
2020
|
||
#BPMCHANGE 200
|
||
#SCROLL 1
|
||
201022
|
||
#BPMCHANGE 400
|
||
#SCROLL 0.5
|
||
2020,
|
||
|
||
#MEASURE 4/4
|
||
#BPMCHANGE 200
|
||
#SCROLL 1
|
||
1000101010101120,
|
||
1000101020112010,
|
||
#MEASURE 8/4
|
||
#BPMCHANGE 400
|
||
#SCROLL 0.5
|
||
#GOGOSTART
|
||
500000000000000000000000000000000000000000000000000000000000000000000008000000000000100000000000,
|
||
500000000000000000000000000000000000000000000000000000000000000000000000000000000008000000000000,
|
||
#GOGOEND
|
||
|
||
#MEASURE 4/4
|
||
#BPMCHANGE 200
|
||
#SCROLL 1
|
||
1000101010101120,
|
||
1000101010112010,
|
||
1000101010101120,
|
||
1111202211104000,
|
||
|
||
#GOGOSTART
|
||
1111102011112020,
|
||
1120221011202210,
|
||
500000000000000000000000000008000000100000100000,
|
||
500000000000000000000000000000000000000008000000, //32
|
||
#GOGOEND
|
||
|
||
#MEASURE 10/4
|
||
#BPMCHANGE 400
|
||
#SCROLL 0.5
|
||
11101020001120102110,
|
||
11101020002120101102,
|
||
11101020001120102110,
|
||
200000100100000100100000200100100100200020002000100010001000,
|
||
10201120110120102110,
|
||
20102210220210221110,
|
||
#MEASURE 15/16
|
||
#BPMCHANGE 200
|
||
#SCROLL 1
|
||
300010000000300010000000400010000000
|
||
#BPMCHANGE 50
|
||
#SCROLL 4
|
||
400000200, //39
|
||
|
||
#MEASURE 4/4
|
||
#BPMCHANGE 200
|
||
#SCROLL 1
|
||
#GOGOSTART
|
||
6,
|
||
000000000000000000000000000000000008000000300000,
|
||
6,
|
||
#MEASURE 5/4
|
||
000000000000000000
|
||
#BPMCHANGE 400
|
||
#SCROLL 0.5
|
||
000000000000
|
||
#BPMCHANGE 200
|
||
#SCROLL 1
|
||
000000000000000008
|
||
#BPMCHANGE 400
|
||
#SCROLL 0.5
|
||
000000000000,
|
||
|
||
#MEASURE 4/4
|
||
#BPMCHANGE 200
|
||
#SCROLL 1
|
||
1020112010202120,
|
||
#MEASURE 8/4
|
||
#BPMCHANGE 400
|
||
#SCROLL 0.5
|
||
1020112020102120,
|
||
#MEASURE 4/4
|
||
#BPMCHANGE 200
|
||
#SCROLL 1
|
||
112112122122,
|
||
#MEASURE 6/4
|
||
#BPMCHANGE 300
|
||
#SCROLL 0.67
|
||
333
|
||
#BPMCHANGE 400
|
||
#SCROLL 0.5
|
||
30
|
||
#BPMCHANGE 200
|
||
#SCROLL 1
|
||
4,
|
||
#GOGOEND
|
||
|
||
#MEASURE 4/4
|
||
1000101110102010,
|
||
1000101011102010,
|
||
1020201110102010,
|
||
#MEASURE 5/4
|
||
100010
|
||
#BPMCHANGE 400
|
||
#SCROLL 0.5
|
||
2020
|
||
#BPMCHANGE 200
|
||
#SCROLL 1
|
||
111022
|
||
#BPMCHANGE 400
|
||
#SCROLL 0.5
|
||
2020,
|
||
|
||
#MEASURE 4/4
|
||
#BPMCHANGE 200
|
||
#SCROLL 1
|
||
1000201110102010,
|
||
#MEASURE 9/8
|
||
10002010111020
|
||
#BPMCHANGE 400
|
||
#SCROLL 0.5
|
||
2000,
|
||
#MEASURE 4/4
|
||
#BPMCHANGE 200
|
||
#SCROLL 1
|
||
#GOGOSTART
|
||
1120221011202210,
|
||
#MEASURE 5/4
|
||
11112012
|
||
#BPMCHANGE 400
|
||
#SCROLL 0.5
|
||
10101000
|
||
#BPMCHANGE 200
|
||
#SCROLL 1
|
||
4000, //55
|
||
#GOGOEND
|
||
|
||
#MEASURE 4/4
|
||
1000101110102010,
|
||
1000101011102010,
|
||
1020201110102010,
|
||
500000000000000000000008000000100000400000100000,
|
||
|
||
#GOGOSTART
|
||
2011201220112012,
|
||
2110221120122011,
|
||
2002002011104000,
|
||
500000000000000008000000200020002000200020002000,
|
||
#GOGOEND
|
||
|
||
#MEASURE 14/4
|
||
#BPMCHANGE 400
|
||
#SCROLL 0.5
|
||
301120102120101120102120
|
||
#GOGOSTART
|
||
4000,
|
||
#GOGOEND
|
||
300000100100200000100000200100200000100010002000100010002000100010002000100100200000,
|
||
301120102120101120102120
|
||
#GOGOSTART
|
||
4000,
|
||
#GOGOEND
|
||
300000100100200000100000200100200000100010002000100010002000100010002000100100200000, //67
|
||
|
||
#MEASURE 10/4
|
||
#BPMCHANGE 200
|
||
#SCROLL 1
|
||
#GOGOSTART
|
||
222111
|
||
#BPMCHANGE 400
|
||
#SCROLL 0.5
|
||
202020
|
||
#BPMCHANGE 200
|
||
#SCROLL 1
|
||
111221221
|
||
#BPMCHANGE 400
|
||
#SCROLL 0.5
|
||
202010
|
||
#BPMCHANGE 200
|
||
#SCROLL 1
|
||
221,
|
||
#GOGOEND
|
||
|
||
#MEASURE 5/4
|
||
11011020001021102011,
|
||
#MEASURE 8/4
|
||
200011112020
|
||
#BPMCHANGE 400
|
||
#SCROLL 0.5
|
||
2010001020001000
|
||
#BPMCHANGE 200
|
||
#SCROLL 1
|
||
2211,
|
||
#MEASURE 5/4
|
||
11011020001021102011,
|
||
#MEASURE 8/4
|
||
200011112020
|
||
#BPMCHANGE 400
|
||
#SCROLL 0.5
|
||
2010001020001000
|
||
#BPMCHANGE 200
|
||
#SCROLL 1
|
||
2211, //72
|
||
|
||
#MEASURE 7/4
|
||
201111201111
|
||
#BPMCHANGE 400
|
||
#SCROLL 0.5
|
||
#GOGOSTART
|
||
2000100040000000,
|
||
#GOGOEND
|
||
#BPMCHANGE 200
|
||
#SCROLL 1
|
||
201111201111
|
||
#BPMCHANGE 400
|
||
#SCROLL 0.5
|
||
#GOGOSTART
|
||
2000100040000000,
|
||
#GOGOEND
|
||
|
||
#MEASURE 4/4
|
||
#BPMCHANGE 200
|
||
#SCROLL 1
|
||
1011201021201020,
|
||
1011201022021020,
|
||
1011201021201020,
|
||
1011201022021020,
|
||
500000000000000000000000000000000000000008000000,
|
||
2011112011112000, //80
|
||
|
||
#MEASURE 8/4
|
||
#BPMCHANGE 400
|
||
#SCROLL 0.5
|
||
#GOGOSTART
|
||
5,
|
||
000000000000000000000000000000000000000000000000000000000000000000000000000000000008000000000000,
|
||
#MEASURE 4/4
|
||
#BPMCHANGE 200
|
||
#SCROLL 1
|
||
7,
|
||
08,
|
||
#GOGOEND
|
||
|
||
1,
|
||
1,
|
||
11,
|
||
#MEASURE 5/4
|
||
2002
|
||
#BPMCHANGE 400
|
||
#SCROLL 0.5
|
||
2000
|
||
#BPMCHANGE 200
|
||
#SCROLL 1
|
||
40,
|
||
|
||
#MEASURE 9/8
|
||
10002011102011
|
||
#BPMCHANGE 400
|
||
#SCROLL 0.5
|
||
2000,
|
||
#BPMCHANGE 200
|
||
#SCROLL 1
|
||
10002011202011
|
||
#BPMCHANGE 400
|
||
#SCROLL 0.5
|
||
2000,
|
||
#MEASURE 9/4
|
||
#GOGOSTART
|
||
1000200020000000200010001000000010002000200000002000100010000000
|
||
#GOGOEND
|
||
#BPMCHANGE 50
|
||
#SCROLL 4
|
||
20022040, //91
|
||
|
||
#MEASURE 4/4
|
||
#BPMCHANGE 200
|
||
#SCROLL 1
|
||
#GOGOSTART
|
||
1110202210201120,
|
||
1110201220201120,
|
||
1110202210201220,
|
||
500000000000000000000008000000200000400000100000,
|
||
|
||
#MEASURE 8/4
|
||
#BPMCHANGE 400
|
||
#SCROLL 0.5
|
||
2011201220112012,
|
||
2110221120122111,
|
||
#MEASURE 4/4
|
||
#BPMCHANGE 200
|
||
#SCROLL 1
|
||
2002002011104000,
|
||
#MEASURE 5/8
|
||
600000000000000008000000
|
||
#GOGOEND
|
||
#BPMCHANGE 50
|
||
#SCROLL 4
|
||
400000, //99
|
||
|
||
#MEASURE 8/4
|
||
#BPMCHANGE 400
|
||
#SCROLL 0.5
|
||
#GOGOSTART
|
||
7,
|
||
0,
|
||
8,
|
||
1210212011112000,
|
||
1111222011112220,
|
||
1111222211221122,
|
||
|
||
#MEASURE 5/4
|
||
#BPMCHANGE 200
|
||
#SCROLL 1
|
||
100010001000200000100100
|
||
#BPMCHANGE 400
|
||
#SCROLL 0.5
|
||
100000001000000010000000
|
||
#BPMCHANGE 200
|
||
#SCROLL 1
|
||
200010001000,
|
||
40020022
|
||
#BPMCHANGE 400
|
||
#SCROLL 0.5
|
||
10101000
|
||
#BPMCHANGE 200
|
||
#SCROLL 1
|
||
4000,
|
||
|
||
#MEASURE 4/4
|
||
222222111111,
|
||
#MEASURE 6/4
|
||
#BPMCHANGE 300
|
||
#SCROLL 0.67
|
||
333444,
|
||
#GOGOEND
|
||
#MEASURE 4/4
|
||
#BPMCHANGE 200
|
||
#SCROLL 1
|
||
1120201120201101,
|
||
#MEASURE 6/4
|
||
#BPMCHANGE 300
|
||
#SCROLL 0.67
|
||
#GOGOSTART
|
||
244444,
|
||
#MEASURE 4/4
|
||
#BPMCHANGE 200
|
||
#SCROLL 1
|
||
0,
|
||
0,
|
||
#GOGOEND
|
||
0, //114
|
||
#END
|
||
|
||
|
||
COURSE:Hard
|
||
LEVEL:7
|
||
BALLOON:9,21,18,36,12
|
||
SCOREINIT:2070
|
||
SCOREDIFF:0
|
||
|
||
#START
|
||
#GOGOSTART
|
||
1,
|
||
1,
|
||
11,
|
||
#MEASURE 8/4
|
||
#BPMCHANGE 400
|
||
#SCROLL 0.5
|
||
500000000000000000000000000000000000000000000000000000000000000000000008000000000000000000000000,
|
||
|
||
#MEASURE 4/4
|
||
#BPMCHANGE 200
|
||
#SCROLL 1
|
||
30040030,
|
||
04003040,
|
||
600000000000000000000000000000000008000000300000,
|
||
600000000000000000000000000000000000000008000000,
|
||
#GOGOEND
|
||
|
||
30000003,
|
||
3,
|
||
30000003,
|
||
#MEASURE 7/4
|
||
#BPMCHANGE 400
|
||
#SCROLL 0.5
|
||
300000
|
||
#BPMCHANGE 200
|
||
#SCROLL 1
|
||
4,
|
||
|
||
#MEASURE 4/4
|
||
#GOGOSTART
|
||
1010111010102000,
|
||
#MEASURE 9/8
|
||
10101110101020
|
||
#BPMCHANGE 400
|
||
#SCROLL 0.5
|
||
0000,
|
||
#MEASURE 4/4
|
||
#BPMCHANGE 200
|
||
#SCROLL 1
|
||
110110220220,
|
||
#MEASURE 8/4
|
||
#BPMCHANGE 400
|
||
#SCROLL 0.5
|
||
500000000000000000000000000000000000000000000000000000000000000000000000000000000008000000000000, //16
|
||
#GOGOEND
|
||
|
||
#MEASURE 4/4
|
||
#BPMCHANGE 200
|
||
#SCROLL 1
|
||
10111120,
|
||
10111120,
|
||
10211120,
|
||
#MEASURE 5/4
|
||
100
|
||
#BPMCHANGE 400
|
||
#SCROLL 0.5
|
||
20
|
||
#BPMCHANGE 200
|
||
#SCROLL 1
|
||
201
|
||
#BPMCHANGE 400
|
||
#SCROLL 0.5
|
||
20,
|
||
|
||
#MEASURE 4/4
|
||
#BPMCHANGE 200
|
||
#SCROLL 1
|
||
10111120,
|
||
10112120,
|
||
#MEASURE 8/4
|
||
#BPMCHANGE 400
|
||
#SCROLL 0.5
|
||
#GOGOSTART
|
||
500000000000000000000000000000000000000000000000000000000000000000000008000000000000100000000000,
|
||
500000000000000000000000000000000000000000000000000000000000000000000000000000000008000000000000,
|
||
#GOGOEND
|
||
|
||
#MEASURE 4/4
|
||
#BPMCHANGE 200
|
||
#SCROLL 1
|
||
10111120,
|
||
10111120,
|
||
10211120,
|
||
10022040,
|
||
|
||
#GOGOSTART
|
||
10012012,
|
||
1110100022202000,
|
||
500000000000000000000000000008000000100000100000,
|
||
500000000000000000000000000000000000000008000000, //32
|
||
#GOGOEND
|
||
|
||
#MEASURE 10/4
|
||
#BPMCHANGE 400
|
||
#SCROLL 0.5
|
||
1002021020,
|
||
1110022110,
|
||
1002021020,
|
||
500000000000000000000000000000000000000000000000000000000000000000000008000000000000000000000000000000000000000000000000,
|
||
1012021020,
|
||
1110022110,
|
||
#MEASURE 15/16
|
||
#BPMCHANGE 200
|
||
#SCROLL 1
|
||
300030003000
|
||
#BPMCHANGE 50
|
||
#SCROLL 4
|
||
402, //39
|
||
|
||
#MEASURE 4/4
|
||
#BPMCHANGE 200
|
||
#SCROLL 1
|
||
#GOGOSTART
|
||
6,
|
||
000000000000000000000000000000000008000000300000,
|
||
6,
|
||
#MEASURE 5/4
|
||
000000000000000000
|
||
#BPMCHANGE 400
|
||
#SCROLL 0.5
|
||
000000000000
|
||
#BPMCHANGE 200
|
||
#SCROLL 1
|
||
000000000000000008
|
||
#BPMCHANGE 400
|
||
#SCROLL 0.5
|
||
000000000000,
|
||
|
||
#MEASURE 4/4
|
||
#BPMCHANGE 200
|
||
#SCROLL 1
|
||
1010111010102000,
|
||
#MEASURE 8/4
|
||
#BPMCHANGE 400
|
||
#SCROLL 0.5
|
||
1010111010102000,
|
||
#MEASURE 4/4
|
||
#BPMCHANGE 200
|
||
#SCROLL 1
|
||
110110220220,
|
||
#MEASURE 6/4
|
||
#BPMCHANGE 300
|
||
#SCROLL 0.67
|
||
333
|
||
#BPMCHANGE 400
|
||
#SCROLL 0.5
|
||
30
|
||
#BPMCHANGE 200
|
||
#SCROLL 1
|
||
4,
|
||
#GOGOEND
|
||
|
||
#MEASURE 4/4
|
||
1000001110002000,
|
||
10111120,
|
||
12201120,
|
||
#MEASURE 5/4
|
||
100000
|
||
#BPMCHANGE 400
|
||
#SCROLL 0.5
|
||
2000
|
||
#BPMCHANGE 200
|
||
#SCROLL 1
|
||
200011
|
||
#BPMCHANGE 400
|
||
#SCROLL 0.5
|
||
1000,
|
||
|
||
#MEASURE 4/4
|
||
#BPMCHANGE 200
|
||
#SCROLL 1
|
||
10211120,
|
||
#MEASURE 9/8
|
||
1002201
|
||
#BPMCHANGE 400
|
||
#SCROLL 0.5
|
||
20,
|
||
#MEASURE 4/4
|
||
#BPMCHANGE 200
|
||
#SCROLL 1
|
||
#GOGOSTART
|
||
1110100022202000,
|
||
#MEASURE 5/4
|
||
1002
|
||
#BPMCHANGE 400
|
||
#SCROLL 0.5
|
||
2000
|
||
#BPMCHANGE 200
|
||
#SCROLL 1
|
||
40, //55
|
||
#GOGOEND
|
||
|
||
#MEASURE 4/4
|
||
1000001110002000,
|
||
10111120,
|
||
12201120,
|
||
500000000000000000000008000000100000200000200000,
|
||
|
||
#GOGOSTART
|
||
11201120,
|
||
1000001110002000,
|
||
20011040,
|
||
7008,
|
||
#GOGOEND
|
||
|
||
#MEASURE 14/4
|
||
#BPMCHANGE 400
|
||
#SCROLL 0.5
|
||
302222102222
|
||
#GOGOSTART
|
||
40,
|
||
#GOGOEND
|
||
300000000000000000000000200000000000200000000000200000000000200000000000500000000000000000000000000000000000000000000000000000000000000000000000000000000008000000000000,
|
||
302222102222
|
||
#GOGOSTART
|
||
40,
|
||
#GOGOEND
|
||
300000000000000000000000200000000000200000000000200000000000200000000000500000000000000000000000000000000000000000000000000000000000000000000000000000000008000000000000, //67
|
||
|
||
#MEASURE 10/4
|
||
#BPMCHANGE 200
|
||
#SCROLL 1
|
||
#GOGOSTART
|
||
70
|
||
#BPMCHANGE 400
|
||
#SCROLL 0.5
|
||
00
|
||
#BPMCHANGE 200
|
||
#SCROLL 1
|
||
000
|
||
#BPMCHANGE 400
|
||
#SCROLL 0.5
|
||
00
|
||
#BPMCHANGE 200
|
||
#SCROLL 1
|
||
8,
|
||
#GOGOEND
|
||
|
||
#MEASURE 5/4
|
||
1012001210,
|
||
#MEASURE 8/4
|
||
200000002020
|
||
#BPMCHANGE 400
|
||
#SCROLL 0.5
|
||
2000000010001000
|
||
#BPMCHANGE 200
|
||
#SCROLL 1
|
||
1110,
|
||
#MEASURE 5/4
|
||
1012001210,
|
||
#MEASURE 8/4
|
||
200000002020
|
||
#BPMCHANGE 400
|
||
#SCROLL 0.5
|
||
2000000010001000
|
||
#BPMCHANGE 200
|
||
#SCROLL 1
|
||
1110, //72
|
||
|
||
#MEASURE 7/4
|
||
100100
|
||
#BPMCHANGE 400
|
||
#SCROLL 0.5
|
||
#GOGOSTART
|
||
30303000,
|
||
#GOGOEND
|
||
#BPMCHANGE 200
|
||
#SCROLL 1
|
||
100100
|
||
#BPMCHANGE 400
|
||
#SCROLL 0.5
|
||
#GOGOSTART
|
||
30303000,
|
||
#GOGOEND
|
||
|
||
#MEASURE 4/4
|
||
#BPMCHANGE 200
|
||
#SCROLL 1
|
||
10211120,
|
||
10210120,
|
||
10211120,
|
||
1000201020020020,
|
||
500000000000000000000000000000000000000008000000,
|
||
1000111000111000, //80
|
||
|
||
#MEASURE 8/4
|
||
#BPMCHANGE 400
|
||
#SCROLL 0.5
|
||
#GOGOSTART
|
||
5,
|
||
000000000000000000000000000000000000000000000000000000000000000000000000000000000008000000000000,
|
||
#MEASURE 4/4
|
||
#BPMCHANGE 200
|
||
#SCROLL 1
|
||
7,
|
||
08,
|
||
#GOGOEND
|
||
|
||
1,
|
||
1,
|
||
11,
|
||
#MEASURE 5/4
|
||
2002
|
||
#BPMCHANGE 400
|
||
#SCROLL 0.5
|
||
2000
|
||
#BPMCHANGE 200
|
||
#SCROLL 1
|
||
00,
|
||
|
||
#MEASURE 9/8
|
||
1021112
|
||
#BPMCHANGE 400
|
||
#SCROLL 0.5
|
||
00,
|
||
#BPMCHANGE 200
|
||
#SCROLL 1
|
||
1002201
|
||
#BPMCHANGE 400
|
||
#SCROLL 0.5
|
||
20,
|
||
#MEASURE 9/4
|
||
#GOGOSTART
|
||
1000100010000000100000000000000020002000200000002000000000000000
|
||
#GOGOEND
|
||
#BPMCHANGE 50
|
||
#SCROLL 4
|
||
20022000, //91
|
||
|
||
#MEASURE 4/4
|
||
#BPMCHANGE 200
|
||
#SCROLL 1
|
||
#GOGOSTART
|
||
1000001110002000,
|
||
1000200011102000,
|
||
2000100022201000,
|
||
500000000000000000000008000000200000200000200000,
|
||
|
||
#MEASURE 8/4
|
||
#BPMCHANGE 400
|
||
#SCROLL 0.5
|
||
11201120,
|
||
1000001110004000,
|
||
#MEASURE 4/4
|
||
#BPMCHANGE 200
|
||
#SCROLL 1
|
||
40033000,
|
||
#MEASURE 5/8
|
||
4000
|
||
#GOGOEND
|
||
#BPMCHANGE 50
|
||
#SCROLL 4
|
||
4, //99
|
||
|
||
#MEASURE 8/4
|
||
#BPMCHANGE 400
|
||
#SCROLL 0.5
|
||
#GOGOSTART
|
||
7,
|
||
0,
|
||
0,
|
||
8,
|
||
|
||
1110101011101000,
|
||
1110101011102000,
|
||
#MEASURE 5/4
|
||
#BPMCHANGE 200
|
||
#SCROLL 1
|
||
30000011
|
||
#BPMCHANGE 400
|
||
#SCROLL 0.5
|
||
10000000
|
||
#BPMCHANGE 200
|
||
#SCROLL 1
|
||
0000,
|
||
40000022
|
||
#BPMCHANGE 400
|
||
#SCROLL 0.5
|
||
20000000
|
||
#BPMCHANGE 200
|
||
#SCROLL 1
|
||
4000,
|
||
|
||
#MEASURE 4/4
|
||
7,
|
||
#MEASURE 6/4
|
||
#BPMCHANGE 300
|
||
#SCROLL 0.67
|
||
8,
|
||
#GOGOEND
|
||
#MEASURE 4/4
|
||
#BPMCHANGE 200
|
||
#SCROLL 1
|
||
2220202220200000,
|
||
#MEASURE 6/4
|
||
#BPMCHANGE 300
|
||
#SCROLL 0.67
|
||
#GOGOSTART
|
||
444444,
|
||
|
||
#MEASURE 4/4
|
||
#BPMCHANGE 200
|
||
#SCROLL 1
|
||
0,
|
||
0,
|
||
#GOGOEND
|
||
0, //114
|
||
#END
|
||
|
||
|
||
COURSE:Normal
|
||
LEVEL:6
|
||
BALLOON:6,13,11,22,8
|
||
SCOREINIT:3130
|
||
SCOREDIFF:0
|
||
|
||
#START
|
||
#GOGOSTART
|
||
1,
|
||
1,
|
||
11,
|
||
#MEASURE 8/4
|
||
#BPMCHANGE 400
|
||
#SCROLL 0.5
|
||
1,
|
||
|
||
#MEASURE 4/4
|
||
#BPMCHANGE 200
|
||
#SCROLL 1
|
||
30030030,
|
||
03003030,
|
||
600000000000000000000000000000000008000000000000,
|
||
600000000000000000000000000000000000000008000000,
|
||
#GOGOEND
|
||
|
||
30000003,
|
||
3,
|
||
30000003,
|
||
#MEASURE 7/4
|
||
#BPMCHANGE 400
|
||
#SCROLL 0.5
|
||
300000
|
||
#BPMCHANGE 200
|
||
#SCROLL 1
|
||
4,
|
||
|
||
#MEASURE 4/4
|
||
#GOGOSTART
|
||
10101110,
|
||
#MEASURE 9/8
|
||
1010111
|
||
#BPMCHANGE 400
|
||
#SCROLL 0.5
|
||
00,
|
||
#MEASURE 4/4
|
||
#BPMCHANGE 200
|
||
#SCROLL 1
|
||
2222,
|
||
#MEASURE 8/4
|
||
#BPMCHANGE 400
|
||
#SCROLL 0.5
|
||
500000000000000000000000000000000000000000000000000000000000000000000000000008000000000000000000, //16
|
||
#GOGOEND
|
||
|
||
#MEASURE 4/4
|
||
#BPMCHANGE 200
|
||
#SCROLL 1
|
||
1112,
|
||
1112,
|
||
1212,
|
||
#MEASURE 5/4
|
||
100
|
||
#BPMCHANGE 400
|
||
#SCROLL 0.5
|
||
20
|
||
#BPMCHANGE 200
|
||
#SCROLL 1
|
||
200
|
||
#BPMCHANGE 400
|
||
#SCROLL 0.5
|
||
00,
|
||
|
||
#MEASURE 4/4
|
||
#BPMCHANGE 200
|
||
#SCROLL 1
|
||
1112,
|
||
1022,
|
||
#MEASURE 8/4
|
||
#BPMCHANGE 400
|
||
#SCROLL 0.5
|
||
#GOGOSTART
|
||
500000000000000000000000000000000000000000000000000000000000000000000008000000000000000000000000,
|
||
500000000000000000000000000000000000000000000000000000000000000000000000000000000008000000000000,
|
||
#GOGOEND
|
||
|
||
#MEASURE 4/4
|
||
#BPMCHANGE 200
|
||
#SCROLL 1
|
||
1112,
|
||
1112,
|
||
1212,
|
||
10022000,
|
||
|
||
#GOGOSTART
|
||
10022011,
|
||
1122,
|
||
500000000000000000000000000000000008000000000000,
|
||
500000000000000000000000000000000000000008000000, //32
|
||
#GOGOEND
|
||
|
||
#MEASURE 10/4
|
||
#BPMCHANGE 400
|
||
#SCROLL 0.5
|
||
1001001020,
|
||
2220022000,
|
||
1001001020,
|
||
500000000000000000000000000000000000000000000000000000000000000000000008000000000000000000000000000000000000000000000000,
|
||
1001001020,
|
||
2220022000,
|
||
|
||
#MEASURE 15/16
|
||
#BPMCHANGE 200
|
||
#SCROLL 1
|
||
300030003000
|
||
#BPMCHANGE 50
|
||
#SCROLL 4
|
||
400, //39
|
||
|
||
#MEASURE 4/4
|
||
#BPMCHANGE 200
|
||
#SCROLL 1
|
||
#GOGOSTART
|
||
6,
|
||
000000000000000000000000000000000008000000000000,
|
||
6,
|
||
#MEASURE 5/4
|
||
000000000000000000
|
||
#BPMCHANGE 400
|
||
#SCROLL 0.5
|
||
000000000000
|
||
#BPMCHANGE 200
|
||
#SCROLL 1
|
||
000000000000000008
|
||
#BPMCHANGE 400
|
||
#SCROLL 0.5
|
||
000000000000,
|
||
|
||
#MEASURE 4/4
|
||
#BPMCHANGE 200
|
||
#SCROLL 1
|
||
10101110,
|
||
#MEASURE 8/4
|
||
#BPMCHANGE 400
|
||
#SCROLL 0.5
|
||
10101110,
|
||
#MEASURE 4/4
|
||
#BPMCHANGE 200
|
||
#SCROLL 1
|
||
2222,
|
||
#MEASURE 6/4
|
||
#BPMCHANGE 300
|
||
#SCROLL 0.67
|
||
333
|
||
#BPMCHANGE 400
|
||
#SCROLL 0.5
|
||
30
|
||
#BPMCHANGE 200
|
||
#SCROLL 1
|
||
0,
|
||
#GOGOEND
|
||
|
||
#MEASURE 4/4
|
||
10011020,
|
||
1112,
|
||
1212,
|
||
#MEASURE 5/4
|
||
100
|
||
#BPMCHANGE 400
|
||
#SCROLL 0.5
|
||
20
|
||
#BPMCHANGE 200
|
||
#SCROLL 1
|
||
200
|
||
#BPMCHANGE 400
|
||
#SCROLL 0.5
|
||
00,
|
||
|
||
#MEASURE 4/4
|
||
#BPMCHANGE 200
|
||
#SCROLL 1
|
||
1112,
|
||
#MEASURE 9/8
|
||
1002201
|
||
#BPMCHANGE 400
|
||
#SCROLL 0.5
|
||
10,
|
||
#MEASURE 4/4
|
||
#BPMCHANGE 200
|
||
#SCROLL 1
|
||
#GOGOSTART
|
||
1122,
|
||
#MEASURE 5/4
|
||
1002
|
||
#BPMCHANGE 400
|
||
#SCROLL 0.5
|
||
2000
|
||
#BPMCHANGE 200
|
||
#SCROLL 1
|
||
00, //55
|
||
#GOGOEND
|
||
|
||
#MEASURE 4/4
|
||
10011020,
|
||
1112,
|
||
1212,
|
||
500000000000000000000008000000000000000000000000,
|
||
|
||
#GOGOSTART
|
||
1122,
|
||
10011020,
|
||
20011000,
|
||
7008,
|
||
#GOGOEND
|
||
|
||
#MEASURE 14/4
|
||
#BPMCHANGE 400
|
||
#SCROLL 0.5
|
||
322122
|
||
#GOGOSTART
|
||
4,
|
||
#GOGOEND
|
||
300000000000000000000000200000000000000000000000200000000000000000000000500000000000000000000000000000000000000000000000000000000000000000000000000000000008000000000000,
|
||
322122
|
||
#GOGOSTART
|
||
4,
|
||
#GOGOEND
|
||
300000000000000000000000200000000000000000000000200000000000000000000000500000000000000000000000000000000000000000000000000000000000000000000000000000000008000000000000, //67
|
||
|
||
#MEASURE 10/4
|
||
#BPMCHANGE 200
|
||
#SCROLL 1
|
||
#GOGOSTART
|
||
70
|
||
#BPMCHANGE 400
|
||
#SCROLL 0.5
|
||
00
|
||
#BPMCHANGE 200
|
||
#SCROLL 1
|
||
000
|
||
#BPMCHANGE 400
|
||
#SCROLL 0.5
|
||
00
|
||
#BPMCHANGE 200
|
||
#SCROLL 1
|
||
8,
|
||
#GOGOEND
|
||
|
||
#MEASURE 5/4
|
||
1001001110,
|
||
#MEASURE 8/4
|
||
200022
|
||
#BPMCHANGE 400
|
||
#SCROLL 0.5
|
||
20000000
|
||
#BPMCHANGE 200
|
||
#SCROLL 1
|
||
00,
|
||
#MEASURE 5/4
|
||
1001001110,
|
||
#MEASURE 8/4
|
||
200022
|
||
#BPMCHANGE 400
|
||
#SCROLL 0.5
|
||
20000000
|
||
#BPMCHANGE 200
|
||
#SCROLL 1
|
||
00, //72
|
||
|
||
#MEASURE 7/4
|
||
100100
|
||
#BPMCHANGE 400
|
||
#SCROLL 0.5
|
||
#GOGOSTART
|
||
30303000,
|
||
#GOGOEND
|
||
#BPMCHANGE 200
|
||
#SCROLL 1
|
||
100100
|
||
#BPMCHANGE 400
|
||
#SCROLL 0.5
|
||
#GOGOSTART
|
||
30303000,
|
||
#GOGOEND
|
||
|
||
#MEASURE 4/4
|
||
#BPMCHANGE 200
|
||
#SCROLL 1
|
||
1001,
|
||
1,
|
||
1001,
|
||
1000000020020020,
|
||
500000000000000000000000000000000000000008000000,
|
||
10010010, //80
|
||
|
||
#MEASURE 8/4
|
||
#BPMCHANGE 400
|
||
#SCROLL 0.5
|
||
#GOGOSTART
|
||
5,
|
||
000000000000000000000000000000000000000000000000000000000000000000000000000000000008000000000000,
|
||
#MEASURE 4/4
|
||
#BPMCHANGE 200
|
||
#SCROLL 1
|
||
7,
|
||
08,
|
||
#GOGOEND
|
||
|
||
1,
|
||
1,
|
||
11,
|
||
#MEASURE 5/4
|
||
2002
|
||
#BPMCHANGE 400
|
||
#SCROLL 0.5
|
||
2000
|
||
#BPMCHANGE 200
|
||
#SCROLL 1
|
||
00,
|
||
|
||
#MEASURE 9/8
|
||
1010102
|
||
#BPMCHANGE 400
|
||
#SCROLL 0.5
|
||
00,
|
||
#BPMCHANGE 200
|
||
#SCROLL 1
|
||
1002201
|
||
#BPMCHANGE 400
|
||
#SCROLL 0.5
|
||
10,
|
||
#MEASURE 9/4
|
||
#GOGOSTART
|
||
1000000000000000200000000000000010000000000000002000000000000000
|
||
#GOGOEND
|
||
#BPMCHANGE 50
|
||
#SCROLL 4
|
||
20022000, //91
|
||
|
||
#MEASURE 4/4
|
||
#BPMCHANGE 200
|
||
#SCROLL 1
|
||
#GOGOSTART
|
||
10011020,
|
||
1121,
|
||
2212,
|
||
500000000000000000000008000000000000000000000000,
|
||
|
||
#MEASURE 8/4
|
||
#BPMCHANGE 400
|
||
#SCROLL 0.5
|
||
1212,
|
||
10011040,
|
||
#MEASURE 4/4
|
||
#BPMCHANGE 200
|
||
#SCROLL 1
|
||
40033000,
|
||
#MEASURE 5/8
|
||
4000
|
||
#GOGOEND
|
||
#BPMCHANGE 50
|
||
#SCROLL 4
|
||
4, //99
|
||
|
||
#MEASURE 8/4
|
||
#BPMCHANGE 400
|
||
#SCROLL 0.5
|
||
#GOGOSTART
|
||
7,
|
||
0,
|
||
0,
|
||
8,
|
||
|
||
11101110,
|
||
11101110,
|
||
#MEASURE 5/4
|
||
#BPMCHANGE 200
|
||
#SCROLL 1
|
||
3003
|
||
#BPMCHANGE 400
|
||
#SCROLL 0.5
|
||
3000
|
||
#BPMCHANGE 200
|
||
#SCROLL 1
|
||
00,
|
||
4004
|
||
#BPMCHANGE 400
|
||
#SCROLL 0.5
|
||
4000
|
||
#BPMCHANGE 200
|
||
#SCROLL 1
|
||
00,
|
||
|
||
#MEASURE 4/4
|
||
7,
|
||
#MEASURE 6/4
|
||
#BPMCHANGE 300
|
||
#SCROLL 0.67
|
||
8,
|
||
#GOGOEND
|
||
#MEASURE 4/4
|
||
#BPMCHANGE 200
|
||
#SCROLL 1
|
||
22202200,
|
||
#MEASURE 6/4
|
||
#BPMCHANGE 300
|
||
#SCROLL 0.67
|
||
#GOGOSTART
|
||
333333,
|
||
|
||
#MEASURE 4/4
|
||
#BPMCHANGE 200
|
||
#SCROLL 1
|
||
0,
|
||
0,
|
||
#GOGOEND
|
||
0, //114
|
||
#END
|
||
|
||
|
||
COURSE:Easy
|
||
LEVEL:4
|
||
BALLOON:4,10,9,19,6
|
||
SCOREINIT:4240
|
||
SCOREDIFF:0
|
||
|
||
#START
|
||
#GOGOSTART
|
||
1,
|
||
1,
|
||
11,
|
||
#MEASURE 8/4
|
||
#BPMCHANGE 400
|
||
#SCROLL 0.5
|
||
1,
|
||
|
||
#MEASURE 4/4
|
||
#BPMCHANGE 200
|
||
#SCROLL 1
|
||
30030030,
|
||
03003030,
|
||
600000000000000000000000000000000008000000000000,
|
||
600000000000000000000000000008000000000000000000,
|
||
#GOGOEND
|
||
|
||
3,
|
||
3,
|
||
3,
|
||
#MEASURE 7/4
|
||
#BPMCHANGE 400
|
||
#SCROLL 0.5
|
||
300000
|
||
#BPMCHANGE 200
|
||
#SCROLL 1
|
||
4,
|
||
|
||
#MEASURE 4/4
|
||
#GOGOSTART
|
||
1110,
|
||
#MEASURE 9/8
|
||
1010100
|
||
#BPMCHANGE 400
|
||
#SCROLL 0.5
|
||
00,
|
||
#MEASURE 4/4
|
||
#BPMCHANGE 200
|
||
#SCROLL 1
|
||
2222,
|
||
#MEASURE 8/4
|
||
#BPMCHANGE 400
|
||
#SCROLL 0.5
|
||
500000000000000000000000000000000000000000000000000000000008000000000000000000000000000000000000, //16
|
||
#GOGOEND
|
||
|
||
#MEASURE 4/4
|
||
#BPMCHANGE 200
|
||
#SCROLL 1
|
||
1110,
|
||
1110,
|
||
1111,
|
||
#MEASURE 5/4
|
||
100
|
||
#BPMCHANGE 400
|
||
#SCROLL 0.5
|
||
00
|
||
#BPMCHANGE 200
|
||
#SCROLL 1
|
||
200
|
||
#BPMCHANGE 400
|
||
#SCROLL 0.5
|
||
00,
|
||
|
||
#MEASURE 4/4
|
||
#BPMCHANGE 200
|
||
#SCROLL 1
|
||
1110,
|
||
1011,
|
||
#MEASURE 8/4
|
||
#BPMCHANGE 400
|
||
#SCROLL 0.5
|
||
#GOGOSTART
|
||
500000000000000000000000000000000000000000000000000000000000000000000008000000000000000000000000,
|
||
500000000000000000000000000000000000000000000000000000000008000000000000000000000000000000000000,
|
||
#GOGOEND
|
||
|
||
#MEASURE 4/4
|
||
#BPMCHANGE 200
|
||
#SCROLL 1
|
||
1110,
|
||
1110,
|
||
1111,
|
||
12,
|
||
|
||
#GOGOSTART
|
||
12,
|
||
1111,
|
||
500000000000000000000000000000000008000000000000,
|
||
500000000000000000000000000008000000000000000000, //32
|
||
#GOGOEND
|
||
|
||
#MEASURE 10/4
|
||
#BPMCHANGE 400
|
||
#SCROLL 0.5
|
||
1001001000,
|
||
22020,
|
||
1001001000,
|
||
500000000000000000000000000000000000000000000000000000000000000000000008000000000000000000000000000000000000000000000000,
|
||
1001001000,
|
||
22020,
|
||
|
||
#MEASURE 15/16
|
||
#BPMCHANGE 200
|
||
#SCROLL 1
|
||
300030003000
|
||
#BPMCHANGE 50
|
||
#SCROLL 4
|
||
300, //39
|
||
|
||
#MEASURE 4/4
|
||
#BPMCHANGE 200
|
||
#SCROLL 1
|
||
#GOGOSTART
|
||
6,
|
||
000000000000000000000000000000000008000000000000,
|
||
6,
|
||
#MEASURE 5/4
|
||
000000000000000000
|
||
#BPMCHANGE 400
|
||
#SCROLL 0.5
|
||
000000000000
|
||
#BPMCHANGE 200
|
||
#SCROLL 1
|
||
000008000000000000
|
||
#BPMCHANGE 400
|
||
#SCROLL 0.5
|
||
000000000000,
|
||
|
||
#MEASURE 4/4
|
||
#BPMCHANGE 200
|
||
#SCROLL 1
|
||
1110,
|
||
#MEASURE 8/4
|
||
#BPMCHANGE 400
|
||
#SCROLL 0.5
|
||
1110,
|
||
#MEASURE 4/4
|
||
#BPMCHANGE 200
|
||
#SCROLL 1
|
||
2222,
|
||
#MEASURE 6/4
|
||
#BPMCHANGE 300
|
||
#SCROLL 0.67
|
||
333
|
||
#BPMCHANGE 400
|
||
#SCROLL 0.5
|
||
30
|
||
#BPMCHANGE 200
|
||
#SCROLL 1
|
||
0,
|
||
#GOGOEND
|
||
|
||
#MEASURE 4/4
|
||
11,
|
||
1110,
|
||
1111,
|
||
#MEASURE 5/4
|
||
500000000000000000
|
||
#BPMCHANGE 400
|
||
#SCROLL 0.5
|
||
000000000000
|
||
#BPMCHANGE 200
|
||
#SCROLL 1
|
||
000008000000000000
|
||
#BPMCHANGE 400
|
||
#SCROLL 0.5
|
||
000000000000,
|
||
|
||
#MEASURE 4/4
|
||
#BPMCHANGE 200
|
||
#SCROLL 1
|
||
1110,
|
||
#MEASURE 9/8
|
||
1000200
|
||
#BPMCHANGE 400
|
||
#SCROLL 0.5
|
||
00,
|
||
#MEASURE 4/4
|
||
#BPMCHANGE 200
|
||
#SCROLL 1
|
||
#GOGOSTART
|
||
1111,
|
||
#MEASURE 5/4
|
||
10
|
||
#BPMCHANGE 400
|
||
#SCROLL 0.5
|
||
20
|
||
#BPMCHANGE 200
|
||
#SCROLL 1
|
||
0, //55
|
||
#GOGOEND
|
||
|
||
#MEASURE 4/4
|
||
11,
|
||
1110,
|
||
1111,
|
||
500000000000000000000008000000000000000000000000,
|
||
|
||
#GOGOSTART
|
||
1111,
|
||
1012,
|
||
21,
|
||
70000800,
|
||
#GOGOEND
|
||
|
||
#MEASURE 14/4
|
||
#BPMCHANGE 400
|
||
#SCROLL 0.5
|
||
301101
|
||
#GOGOSTART
|
||
4,
|
||
#GOGOEND
|
||
300000000000000000000000000000000000000000000000100000000000000000000000500000000000000000000000000000000000000000000000000000000008000000000000000000000000000000000000,
|
||
301101
|
||
#GOGOSTART
|
||
4,
|
||
#GOGOEND
|
||
300000000000000000000000000000000000000000000000100000000000000000000000500000000000000000000000000000000000000000000000000000000008000000000000000000000000000000000000, //67
|
||
|
||
#MEASURE 10/4
|
||
#BPMCHANGE 200
|
||
#SCROLL 1
|
||
#GOGOSTART
|
||
70
|
||
#BPMCHANGE 400
|
||
#SCROLL 0.5
|
||
00
|
||
#BPMCHANGE 200
|
||
#SCROLL 1
|
||
000
|
||
#BPMCHANGE 400
|
||
#SCROLL 0.5
|
||
08
|
||
#BPMCHANGE 200
|
||
#SCROLL 1
|
||
0,
|
||
#GOGOEND
|
||
|
||
#MEASURE 5/4
|
||
1001001000,
|
||
#MEASURE 8/4
|
||
202
|
||
#BPMCHANGE 400
|
||
#SCROLL 0.5
|
||
2000
|
||
#BPMCHANGE 200
|
||
#SCROLL 1
|
||
0,
|
||
#MEASURE 5/4
|
||
1001001000,
|
||
#MEASURE 8/4
|
||
202
|
||
#BPMCHANGE 400
|
||
#SCROLL 0.5
|
||
2000
|
||
#BPMCHANGE 200
|
||
#SCROLL 1
|
||
0, //72
|
||
|
||
#MEASURE 7/4
|
||
100100
|
||
#BPMCHANGE 400
|
||
#SCROLL 0.5
|
||
#GOGOSTART
|
||
30003000,
|
||
#GOGOEND
|
||
#BPMCHANGE 200
|
||
#SCROLL 1
|
||
100100
|
||
#BPMCHANGE 400
|
||
#SCROLL 0.5
|
||
#GOGOSTART
|
||
30003000,
|
||
#GOGOEND
|
||
|
||
#MEASURE 4/4
|
||
#BPMCHANGE 200
|
||
#SCROLL 1
|
||
1001,
|
||
1,
|
||
1001,
|
||
12,
|
||
500000000000000000000000000008000000000000000000,
|
||
10010010, //80
|
||
|
||
#MEASURE 8/4
|
||
#BPMCHANGE 400
|
||
#SCROLL 0.5
|
||
#GOGOSTART
|
||
5,
|
||
000000000000000000000000000000000000000000000000000000000000000000000000000000000008000000000000,
|
||
#MEASURE 4/4
|
||
#BPMCHANGE 200
|
||
#SCROLL 1
|
||
7,
|
||
08,
|
||
#GOGOEND
|
||
|
||
1,
|
||
1,
|
||
11,
|
||
#MEASURE 5/4
|
||
20
|
||
#BPMCHANGE 400
|
||
#SCROLL 0.5
|
||
00
|
||
#BPMCHANGE 200
|
||
#SCROLL 1
|
||
0,
|
||
|
||
#MEASURE 9/8
|
||
1010101
|
||
#BPMCHANGE 400
|
||
#SCROLL 0.5
|
||
00,
|
||
#BPMCHANGE 200
|
||
#SCROLL 1
|
||
1000200
|
||
#BPMCHANGE 400
|
||
#SCROLL 0.5
|
||
00,
|
||
#MEASURE 9/4
|
||
#GOGOSTART
|
||
1000100010001000
|
||
#GOGOEND
|
||
#BPMCHANGE 50
|
||
#SCROLL 4
|
||
22, //91
|
||
|
||
#MEASURE 4/4
|
||
#BPMCHANGE 200
|
||
#SCROLL 1
|
||
#GOGOSTART
|
||
11,
|
||
1110,
|
||
2222,
|
||
500000000000000000000008000000000000000000000000,
|
||
|
||
#MEASURE 8/4
|
||
#BPMCHANGE 400
|
||
#SCROLL 0.5
|
||
1111,
|
||
1014,
|
||
#MEASURE 4/4
|
||
#BPMCHANGE 200
|
||
#SCROLL 1
|
||
43,
|
||
#MEASURE 5/8
|
||
4000
|
||
#GOGOEND
|
||
#BPMCHANGE 50
|
||
#SCROLL 4
|
||
4, //99
|
||
|
||
#MEASURE 8/4
|
||
#BPMCHANGE 400
|
||
#SCROLL 0.5
|
||
#GOGOSTART
|
||
7,
|
||
0,
|
||
0,
|
||
8,
|
||
|
||
1111,
|
||
1111,
|
||
#MEASURE 5/4
|
||
#BPMCHANGE 200
|
||
#SCROLL 1
|
||
30
|
||
#BPMCHANGE 400
|
||
#SCROLL 0.5
|
||
30
|
||
#BPMCHANGE 200
|
||
#SCROLL 1
|
||
0,
|
||
40
|
||
#BPMCHANGE 400
|
||
#SCROLL 0.5
|
||
40
|
||
#BPMCHANGE 200
|
||
#SCROLL 1
|
||
0,
|
||
|
||
#MEASURE 4/4
|
||
7,
|
||
#MEASURE 6/4
|
||
#BPMCHANGE 300
|
||
#SCROLL 0.67
|
||
8,
|
||
#GOGOEND
|
||
#MEASURE 4/4
|
||
#BPMCHANGE 200
|
||
#SCROLL 1
|
||
500000000000000000000000000008000000000000000000,
|
||
#MEASURE 6/4
|
||
#BPMCHANGE 300
|
||
#SCROLL 0.67
|
||
#GOGOSTART
|
||
333333,
|
||
|
||
#MEASURE 4/4
|
||
#BPMCHANGE 200
|
||
#SCROLL 1
|
||
0,
|
||
0,
|
||
#GOGOEND
|
||
0, //114
|
||
#END |