1323 lines
13 KiB
Plaintext
1323 lines
13 KiB
Plaintext
//TJADB Project
|
|
TITLE:!!!Cirno's Perfect Math Time!!!
|
|
TITLEJA:!!!チルノのパーフェクトさんすうタイム!!!
|
|
SUBTITLE:--Touhou Project Arrange - Dr.MARON respects IOSYS & t+pazolite
|
|
SUBTITLEJA:東方Projectアレンジ Dr. MARON respects IOSYS & t+pazolite
|
|
BPM:180
|
|
WAVE:Cirnos Perfect Math Time.ogg
|
|
OFFSET:-1.808
|
|
DEMOSTART:69.843
|
|
|
|
COURSE:Oni
|
|
LEVEL:10
|
|
BALLOON:22
|
|
SCOREINIT:1000
|
|
SCOREDIFF:0
|
|
|
|
#START
|
|
0,
|
|
0,
|
|
0,
|
|
0, //4
|
|
|
|
#BPMCHANGE 256
|
|
#SCROLL 2
|
|
3030
|
|
#SCROLL 1
|
|
2201,
|
|
01121121,
|
|
#SCROLL 2
|
|
3030
|
|
#SCROLL 1
|
|
2201,
|
|
01221120, //8
|
|
|
|
#SCROLL 2
|
|
3030
|
|
#SCROLL 1
|
|
2212,
|
|
#SCROLL 2
|
|
303
|
|
#SCROLL 1
|
|
20202,
|
|
#SCROLL 2
|
|
30
|
|
#SCROLL 1
|
|
22201010222010,
|
|
22220111, //12
|
|
|
|
#SCROLL 1.5
|
|
30
|
|
#SCROLL 1
|
|
11102020201010,
|
|
1020102010210120,
|
|
1010202000111110,
|
|
21212111, //16
|
|
|
|
1011102020201010,
|
|
1020102010210120,
|
|
1010202000111110,
|
|
2222222210104000, //20
|
|
|
|
#SCROLL 0.75
|
|
100202100202,
|
|
101202101202,
|
|
100201202002,
|
|
100222100200100010200020, //24
|
|
|
|
#SCROLL 1
|
|
11221122,
|
|
1110202011102020,
|
|
111100200200111100200200,
|
|
1022202020102010, //28
|
|
|
|
20110110,
|
|
12210110,
|
|
12212211,
|
|
2020201000222000,
|
|
2222
|
|
#SCROLL 0.9
|
|
0020
|
|
#SCROLL 0.8
|
|
0200
|
|
#SCROLL 0.7
|
|
0200, //33
|
|
|
|
#BPMCHANGE 160
|
|
#SCROLL 1
|
|
#GOGOSTART
|
|
11101011
|
|
#SCROLL 0.7
|
|
20
|
|
#SCROLL 1
|
|
101110,
|
|
100100100000100000100100
|
|
#SCROLL 0.7
|
|
200000
|
|
#SCROLL 1
|
|
100000500008000000, //35
|
|
|
|
#SCROLL 0.7
|
|
10
|
|
#SCROLL 1
|
|
222020
|
|
#SCROLL 0.7
|
|
10
|
|
#SCROLL 1
|
|
22
|
|
#SCROLL 0.7
|
|
1
|
|
#SCROLL 1
|
|
220,
|
|
100100100000100000100100
|
|
#SCROLL 0.7
|
|
200000
|
|
#SCROLL 1
|
|
100000500008000000, //37
|
|
|
|
11101011
|
|
#SCROLL 0.7
|
|
20
|
|
#SCROLL 1
|
|
101110,
|
|
100100100000100000100100
|
|
#SCROLL 0.7
|
|
200000
|
|
#SCROLL 1
|
|
100000500008000000, //39
|
|
|
|
#SCROLL 0.7
|
|
10
|
|
#SCROLL 1
|
|
222020
|
|
#SCROLL 0.7
|
|
10
|
|
#SCROLL 1
|
|
22
|
|
#SCROLL 0.7
|
|
1
|
|
#SCROLL 1
|
|
220,
|
|
100100100000100000100100
|
|
#SCROLL 0.7
|
|
200000
|
|
#SCROLL 1
|
|
100000500008000000, //41
|
|
|
|
100100100000100000100100
|
|
#SCROLL 0.7
|
|
101010202020100000200000,
|
|
#SCROLL 1
|
|
100100100000100000100100
|
|
#SCROLL 0.7
|
|
101010202010100000200000, //43
|
|
|
|
#SCROLL 1
|
|
100000200200200000200000
|
|
#SCROLL 0.7
|
|
101020200100200000200000,
|
|
#SCROLL 1
|
|
100100100000100000100100
|
|
#SCROLL 0.7
|
|
200000202010100000202010, //45
|
|
|
|
#SCROLL 1
|
|
100100100000100000100100
|
|
#SCROLL 0.7
|
|
101010202020201010201000,
|
|
000100200000101020200000
|
|
#SCROLL 1
|
|
100100100000500008000000, //47
|
|
|
|
100100000200200000100100000200200000
|
|
#SCROLL 0.7
|
|
201010100000,
|
|
#SCROLL 1
|
|
100000100000100000200200
|
|
#SCROLL 0.7
|
|
100000202010100000202010, //49
|
|
|
|
#MEASURE 3/4
|
|
1,
|
|
#GOGOEND
|
|
#MEASURE 1/4
|
|
#BPMCHANGE 140
|
|
#SCROLL 1
|
|
0,
|
|
#MEASURE 4/4
|
|
#BPMCHANGE 256
|
|
#SCROLL 2
|
|
3344, //52
|
|
|
|
3
|
|
#SCROLL 1
|
|
2121122,
|
|
02222210,
|
|
#SCROLL 2
|
|
3000
|
|
#SCROLL 1
|
|
202000222020,
|
|
1000202020221111, //56
|
|
|
|
#SCROLL 2
|
|
3
|
|
#SCROLL 1
|
|
2021202,
|
|
#SCROLL 2
|
|
30
|
|
#SCROLL 1
|
|
22102010221020, //58
|
|
|
|
300000222200
|
|
#SCROLL 1.4
|
|
300000
|
|
#SCROLL 1
|
|
222200,
|
|
#SCROLL 1.8
|
|
300000
|
|
#SCROLL 1
|
|
222200
|
|
#SCROLL 2.2
|
|
300000
|
|
#SCROLL 1
|
|
222200,
|
|
#SCROLL 2.6
|
|
300000
|
|
#SCROLL 1
|
|
222200
|
|
#SCROLL 3
|
|
300000
|
|
#SCROLL 1
|
|
222200, //61
|
|
|
|
1
|
|
#SCROLL 1.19
|
|
1
|
|
#SCROLL 1.33
|
|
1
|
|
#SCROLL 1.42
|
|
1
|
|
#SCROLL 1.5
|
|
1
|
|
#SCROLL 1.42
|
|
1
|
|
#SCROLL 1.33
|
|
1
|
|
#SCROLL 1.19
|
|
1
|
|
#SCROLL 1
|
|
10
|
|
#SCROLL 2
|
|
404000, //62
|
|
|
|
#SCROLL 1
|
|
#GOGOSTART
|
|
3022102010211020,
|
|
1011102020111010,
|
|
1022102010211020,
|
|
10221122
|
|
#SCROLL 2
|
|
30003000, //66
|
|
|
|
#SCROLL 1
|
|
3000002210102010,
|
|
0022101010211010,
|
|
1022202010222020,
|
|
#SCROLL 2
|
|
30404
|
|
#SCROLL 1
|
|
111, //70
|
|
|
|
3022102010211020,
|
|
1011102020111010,
|
|
1022102010211020,
|
|
10221122
|
|
#SCROLL 2
|
|
30003000, //74
|
|
|
|
#SCROLL 1
|
|
3000002210102010,
|
|
2022102010222020,
|
|
1110402011104020,
|
|
1111111111112000,
|
|
20202202, //79
|
|
#GOGOEND
|
|
|
|
#SCROLL 0.5
|
|
10202222,
|
|
02222010,
|
|
10202222,
|
|
000000000000200000000000
|
|
#SCROLL 1.5
|
|
500000000000000008000000, //83
|
|
|
|
#SCROLL 0.66
|
|
10210121,
|
|
1101201011112000,
|
|
100010001000200000100000100100100000200000100000,
|
|
201120112210
|
|
#SCROLL 3
|
|
4000, //87
|
|
|
|
#SCROLL 1
|
|
#GOGOSTART
|
|
1022102011201010,
|
|
2222202222202210,
|
|
1022102010222010,
|
|
2222202222221000, //91
|
|
|
|
1022102011102210,
|
|
2022101020222020,
|
|
1022102010221020,
|
|
#MEASURE 2/4
|
|
#SCROLL 2
|
|
33,
|
|
#BPMCHANGE 265
|
|
33, //96
|
|
|
|
#MEASURE 4/4
|
|
#SCROLL 1.4
|
|
1
|
|
#SCROLL 1
|
|
220
|
|
#SCROLL 1.4
|
|
1
|
|
#SCROLL 1
|
|
220
|
|
#SCROLL 1.4
|
|
1
|
|
#SCROLL 1
|
|
220
|
|
#SCROLL 1.4
|
|
1
|
|
#SCROLL 1
|
|
220,
|
|
#SCROLL 1.4
|
|
1
|
|
#SCROLL 1
|
|
220
|
|
#SCROLL 1.4
|
|
1
|
|
#SCROLL 1
|
|
220
|
|
#SCROLL 2
|
|
30003000, //98
|
|
|
|
#SCROLL 1.4
|
|
2
|
|
#SCROLL 1
|
|
110
|
|
#SCROLL 1.4
|
|
2
|
|
#SCROLL 1
|
|
110
|
|
#SCROLL 1.4
|
|
2
|
|
#SCROLL 1
|
|
110
|
|
#SCROLL 1.4
|
|
2
|
|
#SCROLL 1
|
|
110,
|
|
#SCROLL 1.4
|
|
2
|
|
#SCROLL 1
|
|
110
|
|
#SCROLL 1.4
|
|
2
|
|
#SCROLL 1
|
|
110
|
|
#SCROLL 2
|
|
30003000, //100
|
|
|
|
#SCROLL 1.4
|
|
1
|
|
#SCROLL 1
|
|
222
|
|
#SCROLL 1.4
|
|
1
|
|
#SCROLL 1
|
|
222
|
|
#SCROLL 1.4
|
|
1
|
|
#SCROLL 1
|
|
222
|
|
#SCROLL 1.4
|
|
1
|
|
#SCROLL 1
|
|
222,
|
|
#SCROLL 1.4
|
|
1
|
|
#SCROLL 1
|
|
222
|
|
#SCROLL 1.4
|
|
1
|
|
#SCROLL 1
|
|
222
|
|
#SCROLL 2
|
|
30003000, //102
|
|
|
|
#SCROLL 1.1
|
|
300000
|
|
#SCROLL 1
|
|
222200
|
|
#SCROLL 1.2
|
|
300000
|
|
#SCROLL 1
|
|
222200,
|
|
#GOGOEND
|
|
43
|
|
#BPMCHANGE 272
|
|
43, //104
|
|
|
|
#SCROLL 1.1
|
|
#GOGOSTART
|
|
1220122012201220,
|
|
2222202222201010,
|
|
#SCROLL 1.15
|
|
500008000000200020002000100100200200100000200000,
|
|
300000300000400000400000600000000000000008000000, //108
|
|
|
|
#SCROLL 1.2
|
|
1020101120201212,
|
|
1020102210201120,
|
|
#BPMCHANGE 280
|
|
#SCROLL 1.25
|
|
2222202222201010,
|
|
#BPMCHANGE 285
|
|
12221222, //112
|
|
|
|
#BPMCHANGE 290
|
|
#SCROLL 1.3
|
|
100000200200100000200200100000202010100000202010,
|
|
1122, //114
|
|
|
|
#SCROLL 1.35
|
|
7,
|
|
000000000000000000000000000000000000000000000008,
|
|
0, //117
|
|
|
|
#SCROLL 1.4
|
|
1111111111111111,
|
|
1111111111111111,
|
|
#GOGOEND
|
|
1,
|
|
#SCROLL 9
|
|
4,
|
|
#SCROLL 1
|
|
0, //122
|
|
#END
|
|
|
|
|
|
COURSE:Hard
|
|
LEVEL:8
|
|
BALLOON:10,4,4,15
|
|
SCOREINIT:1760
|
|
SCOREDIFF:0
|
|
|
|
#START
|
|
0,
|
|
0,
|
|
0,
|
|
0, //4
|
|
|
|
#BPMCHANGE 256
|
|
#SCROLL 1.5
|
|
33
|
|
#SCROLL 1
|
|
00,
|
|
0,
|
|
#SCROLL 1.5
|
|
33
|
|
#SCROLL 1
|
|
00,
|
|
0, //8
|
|
|
|
#SCROLL 1.5
|
|
33
|
|
#SCROLL 1
|
|
00,
|
|
#SCROLL 1.5
|
|
33
|
|
#SCROLL 1
|
|
00,
|
|
#SCROLL 1.5
|
|
30
|
|
#SCROLL 1
|
|
22,
|
|
22220110, //12
|
|
|
|
|
|
30022020,
|
|
10110111,
|
|
10220110,
|
|
2220, //16
|
|
|
|
10022020,
|
|
10110110,
|
|
10220110,
|
|
22221040, //20
|
|
|
|
#SCROLL 0.75
|
|
1212,
|
|
100202200101,
|
|
100200202002,
|
|
2111, //24
|
|
|
|
#SCROLL 1
|
|
11201120,
|
|
11201120,
|
|
1110200011102000,
|
|
10222020, //28
|
|
|
|
10010110,
|
|
10010110,
|
|
1222,
|
|
11170000,
|
|
0000000800000000, //33
|
|
|
|
#BPMCHANGE 160
|
|
#SCROLL 1
|
|
#GOGOSTART
|
|
10101011
|
|
#SCROLL 0.8
|
|
10
|
|
#SCROLL 1
|
|
101000,
|
|
100000100000100000100100
|
|
#SCROLL 0.8
|
|
100000
|
|
#SCROLL 1
|
|
100000500008000000, //35
|
|
|
|
1002202020002000,
|
|
100000100000100000100100
|
|
#SCROLL 0.8
|
|
100000
|
|
#SCROLL 1
|
|
100000500008000000, //37
|
|
|
|
10101011
|
|
#SCROLL 0.8
|
|
10
|
|
#SCROLL 1
|
|
101000,
|
|
100000100000100000100100
|
|
#SCROLL 0.8
|
|
100000
|
|
#SCROLL 1
|
|
100000500008000000, //39
|
|
|
|
1002202020002000,
|
|
100000100000100000100100
|
|
#SCROLL 0.8
|
|
100000
|
|
#SCROLL 1
|
|
100000500008000000, //41
|
|
|
|
100000100100
|
|
#SCROLL 0.8
|
|
202020200000,
|
|
#SCROLL 1
|
|
100000100100
|
|
#SCROLL 0.8
|
|
202020200000, //43
|
|
|
|
#SCROLL 1
|
|
200000000200200000200000
|
|
#SCROLL 0.8
|
|
100010001000100000000000,
|
|
#SCROLL 1
|
|
10101011
|
|
#SCROLL 0.8
|
|
10222011, //45
|
|
|
|
#SCROLL 1
|
|
100000100100
|
|
#SCROLL 0.8
|
|
202020200000,
|
|
#SCROLL 1
|
|
200000200000200000200000
|
|
#SCROLL 0.8
|
|
100100100000500008000000, //47
|
|
|
|
#SCROLL 1
|
|
1101102202202000,
|
|
#SCROLL 1
|
|
1010102200222011, //49
|
|
|
|
#MEASURE 3/4
|
|
1,
|
|
#GOGOEND
|
|
#MEASURE 1/4
|
|
#BPMCHANGE 140
|
|
#SCROLL 1
|
|
0,
|
|
#MEASURE 4/4
|
|
#BPMCHANGE 256
|
|
#SCROLL 1.5
|
|
3333, //52
|
|
|
|
#SCROLL 1
|
|
10110020,
|
|
20222220,
|
|
10110020,
|
|
20222010,
|
|
10111011,
|
|
30111011, //58
|
|
|
|
3
|
|
#SCROLL 1.1
|
|
3,
|
|
#SCROLL 1.2
|
|
3
|
|
#SCROLL 1.3
|
|
3,
|
|
#SCROLL 1.4
|
|
3
|
|
#SCROLL 1.5
|
|
3,
|
|
78, //62
|
|
|
|
#SCROLL 1
|
|
#GOGOSTART
|
|
30121210,
|
|
11220111,
|
|
10121212,
|
|
11
|
|
#SCROLL 2
|
|
33, //66
|
|
|
|
#SCROLL 1
|
|
30022221,
|
|
02221110,
|
|
11221122,
|
|
#SCROLL 2
|
|
3330, //70
|
|
|
|
#SCROLL 1
|
|
30121210,
|
|
11120111,
|
|
10121212,
|
|
11
|
|
#SCROLL 2
|
|
33, //74
|
|
|
|
#SCROLL 1
|
|
30022222,
|
|
02022220,
|
|
11221122,
|
|
1110101010102000,
|
|
78, //79
|
|
#GOGOEND
|
|
|
|
#SCROLL 0.5
|
|
10200022,
|
|
0202,
|
|
10200022,
|
|
000000000000200000000000
|
|
#SCROLL 1.5
|
|
500000000000000008000000, //83
|
|
|
|
#SCROLL 0.66
|
|
10210120,
|
|
10210120,
|
|
1010200011102000,
|
|
102210
|
|
#SCROLL 1.5
|
|
40, //87
|
|
|
|
#SCROLL 1
|
|
#GOGOSTART
|
|
12121210,
|
|
20220220,
|
|
12121210,
|
|
20220220, //91
|
|
|
|
12121122,
|
|
11112222,
|
|
12121212,
|
|
#MEASURE 2/4
|
|
#SCROLL 2
|
|
33,
|
|
#BPMCHANGE 265
|
|
33, //96
|
|
|
|
#MEASURE 4/4
|
|
#SCROLL 1
|
|
12121212,
|
|
1212
|
|
#SCROLL 2
|
|
3030,
|
|
#SCROLL 1
|
|
21212121,
|
|
2121
|
|
#SCROLL 2
|
|
3030, //100
|
|
|
|
#SCROLL 1
|
|
12121212,
|
|
1212
|
|
#SCROLL 2
|
|
3030, //102
|
|
|
|
#SCROLL 1.1
|
|
3
|
|
#SCROLL 1.2
|
|
3,
|
|
#GOGOEND
|
|
#SCROLL 1
|
|
43
|
|
#BPMCHANGE 272
|
|
43, //104
|
|
|
|
#SCROLL 1.1
|
|
#GOGOSTART
|
|
12121210,
|
|
20220220,
|
|
#SCROLL 1.15
|
|
500008000000200000200000100000200000100000000000,
|
|
300000300000400000400000600000000000000008000000, //108
|
|
|
|
#SCROLL 1.2
|
|
10112201,
|
|
10101210,
|
|
#BPMCHANGE 280
|
|
#SCROLL 1.25
|
|
20220220,
|
|
#BPMCHANGE 285
|
|
12221222, //112
|
|
|
|
#BPMCHANGE 290
|
|
#SCROLL 1.3
|
|
12121212,
|
|
1122, //114
|
|
|
|
#SCROLL 1.35
|
|
7,
|
|
000000000000000000000000000000000000000000000008,
|
|
0, //117
|
|
|
|
#SCROLL 1.4
|
|
5,
|
|
000000000000000000000000000000000000000000000008,
|
|
#GOGOEND
|
|
0,
|
|
#SCROLL 2
|
|
4,
|
|
#SCROLL 1
|
|
0, //122
|
|
#END
|
|
|
|
|
|
COURSE:Normal
|
|
LEVEL:7
|
|
BALLOON:6,3,5,11
|
|
SCOREINIT:2610
|
|
SCOREDIFF:0
|
|
|
|
#START
|
|
0,
|
|
0,
|
|
0,
|
|
0, //4
|
|
|
|
#BPMCHANGE 256
|
|
#SCROLL 1.5
|
|
33
|
|
#SCROLL 1
|
|
00,
|
|
0,
|
|
#SCROLL 1.5
|
|
33
|
|
#SCROLL 1
|
|
00,
|
|
0, //8
|
|
|
|
#SCROLL 1.5
|
|
33
|
|
#SCROLL 1
|
|
00,
|
|
#SCROLL 1.5
|
|
33
|
|
#SCROLL 1
|
|
00,
|
|
#SCROLL 1.5
|
|
3
|
|
#SCROLL 1
|
|
2,
|
|
2, //12
|
|
|
|
3011,
|
|
10010110,
|
|
10010110,
|
|
2220, //16
|
|
|
|
1011,
|
|
10010110,
|
|
10010110,
|
|
2220, //20
|
|
|
|
#SCROLL 0.75
|
|
11,
|
|
12,
|
|
1220,
|
|
1110, //24
|
|
|
|
#SCROLL 1
|
|
1212,
|
|
1212,
|
|
11201120,
|
|
1222, //28
|
|
|
|
1,
|
|
1,
|
|
12,
|
|
20070000,
|
|
0000000800000000, //33
|
|
|
|
#BPMCHANGE 160
|
|
#SCROLL 1
|
|
#GOGOSTART
|
|
1011
|
|
#SCROLL 0.8
|
|
1000,
|
|
#SCROLL 1
|
|
1011
|
|
#SCROLL 0.8
|
|
1000, //35
|
|
|
|
#SCROLL 1
|
|
2220,
|
|
1011
|
|
#SCROLL 0.8
|
|
1000, //37
|
|
|
|
#SCROLL 1
|
|
1011
|
|
#SCROLL 0.8
|
|
1000,
|
|
#SCROLL 1
|
|
1011
|
|
#SCROLL 0.8
|
|
1000, //39
|
|
|
|
#SCROLL 1
|
|
2220,
|
|
1011
|
|
#SCROLL 0.8
|
|
1000, //41
|
|
|
|
#SCROLL 1
|
|
1011
|
|
#SCROLL 0.8
|
|
2020,
|
|
#SCROLL 1
|
|
1011
|
|
#SCROLL 0.8
|
|
1020, //43
|
|
|
|
#SCROLL 1
|
|
2022
|
|
#SCROLL 0.8
|
|
2020,
|
|
#SCROLL 1
|
|
1011
|
|
#SCROLL 0.8
|
|
1020, //45
|
|
|
|
#SCROLL 1
|
|
10
|
|
#SCROLL 0.8
|
|
22,
|
|
#SCROLL 1
|
|
2220
|
|
#SCROLL 0.8
|
|
1010, //47
|
|
|
|
#SCROLL 1
|
|
2002002002002000,
|
|
11110220, //49
|
|
|
|
#MEASURE 3/4
|
|
1,
|
|
#GOGOEND
|
|
#MEASURE 1/4
|
|
#BPMCHANGE 140
|
|
#SCROLL 1
|
|
0,
|
|
#MEASURE 4/4
|
|
#BPMCHANGE 256
|
|
#SCROLL 1.5
|
|
3333, //52
|
|
|
|
#SCROLL 1
|
|
10010000,
|
|
2222,
|
|
10010110,
|
|
20220010,
|
|
11,
|
|
1111, //58
|
|
|
|
3
|
|
#SCROLL 1.1
|
|
3,
|
|
#SCROLL 1.2
|
|
3
|
|
#SCROLL 1.3
|
|
3,
|
|
#SCROLL 1.4
|
|
3
|
|
#SCROLL 1.5
|
|
3,
|
|
78, //62
|
|
|
|
#SCROLL 1
|
|
#GOGOSTART
|
|
30101110,
|
|
10020110,
|
|
10101110,
|
|
10
|
|
#SCROLL 2
|
|
33, //66
|
|
|
|
#SCROLL 1
|
|
30022020,
|
|
02021010,
|
|
1212,
|
|
#SCROLL 2
|
|
3330, //70
|
|
|
|
#SCROLL 1
|
|
30101110,
|
|
10020110,
|
|
10101110,
|
|
10
|
|
#SCROLL 2
|
|
33, //74
|
|
|
|
#SCROLL 1
|
|
30022022,
|
|
02022220,
|
|
11102220,
|
|
11111020,
|
|
700000000000000000000000000000000000000000080000, //79
|
|
#GOGOEND
|
|
|
|
#SCROLL 0.5
|
|
0,
|
|
0,
|
|
0,
|
|
000000000000000000000000
|
|
#SCROLL 1.5
|
|
500000000000000008000000, //83
|
|
|
|
#SCROLL 0.66
|
|
1202,
|
|
1202,
|
|
10201120,
|
|
1210, //87
|
|
|
|
#SCROLL 1
|
|
#GOGOSTART
|
|
10101110,
|
|
20220220,
|
|
10101110,
|
|
20220220, //91
|
|
|
|
1111,
|
|
11102220,
|
|
11101110,
|
|
#MEASURE 2/4
|
|
#SCROLL 2
|
|
33,
|
|
#BPMCHANGE 265
|
|
33, //96
|
|
|
|
#MEASURE 4/4
|
|
#SCROLL 1
|
|
11101110,
|
|
1110
|
|
#SCROLL 2
|
|
3030,
|
|
#SCROLL 1
|
|
22202220,
|
|
2220
|
|
#SCROLL 2
|
|
3030, //100
|
|
|
|
#SCROLL 1
|
|
11101110,
|
|
1110
|
|
#SCROLL 2
|
|
3030, //102
|
|
|
|
#SCROLL 1.1
|
|
3
|
|
#SCROLL 1.2
|
|
3,
|
|
#GOGOEND
|
|
#SCROLL 1
|
|
43
|
|
#BPMCHANGE 272
|
|
43, //104
|
|
|
|
#SCROLL 1.1
|
|
#GOGOSTART
|
|
11101110,
|
|
20220220,
|
|
#SCROLL 1.15
|
|
1211,
|
|
300000000000400000000000600000000008000000000000, //108
|
|
|
|
#SCROLL 1.2
|
|
10102201,
|
|
1111,
|
|
#BPMCHANGE 280
|
|
#SCROLL 1.25
|
|
20220220,
|
|
#BPMCHANGE 285
|
|
1212, //112
|
|
|
|
#BPMCHANGE 290
|
|
#SCROLL 1.3
|
|
11101110,
|
|
1122, //114
|
|
|
|
#SCROLL 1.35
|
|
7,
|
|
000000000000000000000000000000000000000000000008,
|
|
0, //117
|
|
|
|
#SCROLL 1.4
|
|
5,
|
|
000000000000000000000000000000000000000000000008,
|
|
#GOGOEND
|
|
0,
|
|
#SCROLL 2
|
|
4,
|
|
#SCROLL 1
|
|
0, //122
|
|
#END
|
|
|
|
|
|
COURSE:Easy
|
|
LEVEL:5
|
|
BALLOON:4,2,6,9
|
|
SCOREINIT:4170
|
|
SCOREDIFF:0
|
|
|
|
#START
|
|
0,
|
|
0,
|
|
0,
|
|
0, //4
|
|
|
|
#BPMCHANGE 256
|
|
#SCROLL 1.5
|
|
33
|
|
#SCROLL 1
|
|
00,
|
|
0,
|
|
#SCROLL 1.5
|
|
33
|
|
#SCROLL 1
|
|
00,
|
|
0, //8
|
|
|
|
#SCROLL 1.5
|
|
33
|
|
#SCROLL 1
|
|
00,
|
|
#SCROLL 1.5
|
|
33
|
|
#SCROLL 1
|
|
00,
|
|
500000000000000000000000000000000000000000000008,
|
|
0, //12
|
|
|
|
3011,
|
|
10010000,
|
|
10010000,
|
|
2, //16
|
|
|
|
1011,
|
|
10010000,
|
|
10010000,
|
|
2, //20
|
|
|
|
#SCROLL 0.75
|
|
11,
|
|
1,
|
|
12,
|
|
1110, //24
|
|
|
|
#SCROLL 1
|
|
11,
|
|
11,
|
|
1111,
|
|
11, //28
|
|
|
|
1,
|
|
0,
|
|
2,
|
|
20070000,
|
|
0000000800000000, //33
|
|
|
|
#BPMCHANGE 160
|
|
#SCROLL 1
|
|
#GOGOSTART
|
|
11
|
|
#SCROLL 0.8
|
|
10,
|
|
#SCROLL 1
|
|
11
|
|
#SCROLL 0.8
|
|
10, //35
|
|
|
|
#SCROLL 1
|
|
22,
|
|
11
|
|
#SCROLL 0.8
|
|
10, //37
|
|
|
|
#SCROLL 1
|
|
11
|
|
#SCROLL 0.8
|
|
10,
|
|
#SCROLL 1
|
|
11
|
|
#SCROLL 0.8
|
|
10, //39
|
|
|
|
#SCROLL 1
|
|
22,
|
|
11
|
|
#SCROLL 0.8
|
|
10, //41
|
|
|
|
#SCROLL 1
|
|
11
|
|
#SCROLL 0.8
|
|
20,
|
|
#SCROLL 1
|
|
11
|
|
#SCROLL 0.8
|
|
10, //43
|
|
|
|
#SCROLL 1
|
|
22
|
|
#SCROLL 0.8
|
|
20,
|
|
#SCROLL 1
|
|
11
|
|
#SCROLL 0.8
|
|
11, //45
|
|
|
|
#SCROLL 1
|
|
10
|
|
#SCROLL 0.8
|
|
22,
|
|
#SCROLL 1
|
|
22
|
|
#SCROLL 0.8
|
|
10, //47
|
|
|
|
#SCROLL 1
|
|
20020020,
|
|
10010020, //49
|
|
|
|
#MEASURE 3/4
|
|
1,
|
|
#GOGOEND
|
|
#MEASURE 1/4
|
|
#BPMCHANGE 140
|
|
#SCROLL 1
|
|
0,
|
|
#MEASURE 4/4
|
|
#BPMCHANGE 256
|
|
#SCROLL 1.5
|
|
3330, //52
|
|
|
|
#SCROLL 1
|
|
10010000,
|
|
1,
|
|
10010000,
|
|
20020000,
|
|
11,
|
|
1110, //58
|
|
|
|
3
|
|
#SCROLL 1.1
|
|
3,
|
|
#SCROLL 1.2
|
|
3
|
|
#SCROLL 1.3
|
|
3,
|
|
#SCROLL 1.4
|
|
3
|
|
#SCROLL 1.5
|
|
3,
|
|
78, //62
|
|
|
|
#SCROLL 1
|
|
#GOGOSTART
|
|
3011,
|
|
1001,
|
|
1011,
|
|
1, //66
|
|
|
|
32,
|
|
02001000,
|
|
11,
|
|
#SCROLL 1.5
|
|
3330, //70
|
|
|
|
#SCROLL 1
|
|
3011,
|
|
1001,
|
|
1011,
|
|
1, //74
|
|
|
|
30002002,
|
|
02001000,
|
|
12,
|
|
10107000,
|
|
000000000000000000000000000000000000000008000000, //79
|
|
#GOGOEND
|
|
|
|
#SCROLL 0.5
|
|
0,
|
|
0,
|
|
0,
|
|
000000000000000000000000
|
|
#SCROLL 1.5
|
|
500000000000000008000000, //83
|
|
|
|
#SCROLL 0.66
|
|
0202,
|
|
0202,
|
|
1212,
|
|
1110, //87
|
|
|
|
#SCROLL 1
|
|
#GOGOSTART
|
|
1111,
|
|
2001,
|
|
1111,
|
|
2001, //91
|
|
|
|
1110,
|
|
1122,
|
|
1110,
|
|
#MEASURE 2/4
|
|
#SCROLL 2
|
|
33,
|
|
#BPMCHANGE 265
|
|
3, //96
|
|
|
|
#MEASURE 4/4
|
|
#SCROLL 1
|
|
1111,
|
|
10
|
|
#SCROLL 2
|
|
33,
|
|
#SCROLL 1
|
|
2222,
|
|
20
|
|
#SCROLL 2
|
|
33, //100
|
|
|
|
#SCROLL 1
|
|
1111,
|
|
10
|
|
#SCROLL 2
|
|
33, //102
|
|
|
|
#SCROLL 1.1
|
|
3
|
|
#SCROLL 1.2
|
|
3,
|
|
#GOGOEND
|
|
#SCROLL 1
|
|
4
|
|
#BPMCHANGE 272
|
|
4, //104
|
|
|
|
#SCROLL 1.1
|
|
#GOGOSTART
|
|
1110,
|
|
20020000,
|
|
#SCROLL 1.15
|
|
1110,
|
|
300000000000000000000000600000000008000000000000, //108
|
|
|
|
#SCROLL 1.2
|
|
1110,
|
|
1111,
|
|
#BPMCHANGE 280
|
|
#SCROLL 1.25
|
|
20020000,
|
|
#BPMCHANGE 285
|
|
11, //112
|
|
|
|
#BPMCHANGE 290
|
|
#SCROLL 1.3
|
|
1110,
|
|
1122, //114
|
|
|
|
#SCROLL 1.35
|
|
7,
|
|
000000000000000000000000000000000000000000000008,
|
|
0, //117
|
|
|
|
#SCROLL 1.4
|
|
5,
|
|
000000000000000000000000000000000000000000000008,
|
|
#GOGOEND
|
|
0,
|
|
#SCROLL 1.5
|
|
4,
|
|
#SCROLL 1
|
|
0, //122
|
|
#END |