Files
TJA-by-song-no/tja/1246.tja
2026-03-04 23:59:27 +09:00

448 lines
6.1 KiB
Plaintext
Raw Permalink Blame History

This file contains ambiguous Unicode characters
This file contains Unicode characters that might be confused with other characters. If you think that this is intentional, you can safely ignore this warning. Use the Escape button to reveal them.
//TJADB Project
TITLE:Desert de Yakiniku -Sahara-hen-
TITLEJA:デザートde焼肉サハラ編
SUBTITLE:--YMY
BPM:125
WAVE:Desert de Yakiniku -Sahara-hen-.ogg
OFFSET:-3.613
DEMOSTART:17.057
COURSE:Oni
LEVEL:9
SCOREINIT:440
SCOREDIFF:113
#START
,
,
,
1012012010120121,
100000100200000100200000200200200200202020200200,
1012012010120121,
100100100200000100200100200100100100202020200200,
1012011010120110,
1012021120210120,
1012011010120110,
1012011022122000,
1012011010120110,
1012021120210120,
1012011010120110,
2211221122111000,
100000000222200000000100,
200000000100000100200222,
100000000112100100200200,
1012011011102022,
100000000222200000000100,
20020020,
100000000222200000222022,
2000200022002200,
1111222010121110,
1111222010121110,
1111222010121110,
2211221122111000,
1122122010121110,
1122122010121110,
1122122010121110,
2211221122111000,
#MEASURE 3/4
100211200221,
#MEASURE 3/8
200121,
#MEASURE 3/4
202122021121,
100211200221,
#MEASURE 3/8
200121,
#MEASURE 3/4
202122021121,
100211200221,
#MEASURE 3/8
200121,
#MEASURE 3/4
202122021121,
100211200221,
#MEASURE 3/8
200121,
#MEASURE 3/4
202122021121,
#MEASURE 4/4
1,
,
3002011022112010,
3012011122102210,
3002011022112010,
300000100200000100100000200200100200202020200000,
3002011022112010,
3012021122002210,
3002001022112010,
300000100200000100100000101010101010200200100100,
#GOGOSTART
1002111211121112,
1112210022012210,
1112111211121112,
1111201111202211,
1002111211121112,
1112210022012210,
400111200000400111200000,
2222020202022000,
#GOGOEND
3012011010120110,
1012021120210120,
3012011010120110,
1012011022122000,
3012011010120110,
1012021120210120,
3012011010120110,
2211221122111000,
#GOGOSTART
3021012010210120,
1021012011121112,
1021012010210120,
100000200100000100200000202020200000202020200000,
3021012110210121,
1021012110210121,
1021012110210121,
200200100100200200100100202020200200100000000000,
#GOGOEND
#END
COURSE:Hard
LEVEL:7
BALLOON:10
SCOREINIT:540
SCOREDIFF:140
#START
,
,
,
1011011010000000,
1011011010000000,
1011011010000000,
1011011010000000,
1011011010002000,
1011011010002000,
1011011010002000,
500000000000000000000000000008000000000000000000,
1011011010002000,
1011011010002000,
1011011010002000,
500000000000000000000000000000000008000000000000,
1002001010020010,
1002001010020010,
1002001010020010,
1011111011111000,
1002001010020010,
1002001010020010,
1002001010020010,
1011111011111000,
1011011010002000,
1011011010002000,
1011011010002000,
500000000000000000000000000000000008000000000000,
1011011020001000,
1011011020001000,
1011011020001000,
500000000000000000000000000000000008000000000000,
#MEASURE 3/4
400111100111,
#MEASURE 3/8
100111,
#MEASURE 3/4
101111011010,
300222200222,
#MEASURE 3/8
200222,
#MEASURE 3/4
202222022020,
400111100222,
#MEASURE 3/8
200111,
#MEASURE 3/4
102222011010,
300111100222,
#MEASURE 3/8
200111,
#MEASURE 3/4
102222011010,
#MEASURE 4/4
3002001011001000,
1002001022002000,
1002001011001000,
1002001022002000,
1002001011001000,
1002001022002000,
1002001010001110,
1002001020002220,
1002001010001110,
100000200000000000100000500000000000000008000000,
#GOGOSTART
3000111011101110,
1110111011101000,
1000111011101110,
1110201110201110,
3000111011101110,
1110111011101000,
1110200011102000,
2222020202022000,
#GOGOEND
3011011010002000,
1011011010002000,
1011011010002000,
500000000000000000000000000008000000000000000000,
3011011020001000,
1011011020001000,
1011011020001000,
500000000000000000000000000000000008000000000000,
#GOGOSTART
3011011010011010,
1011011010011010,
1011011010011010,
500000000000000000000000000000000008000000000000,
3011011020011010,
3011011020011010,
3011011020011010,
9008,
#GOGOEND
#END
COURSE:Normal
LEVEL:6
BALLOON:8
SCOREINIT:830
SCOREDIFF:260
#START
,
,
,
30033000,
30033000,
30033000,
4,
1001001000000000,
1001001000000000,
1001001000000000,
500000000000000000000000000000000008000000000000,
1001001010000000,
1001001010000000,
1001001010000000,
500000000000000000000000000000000008000000000000,
1002001010000000,
1002001010000000,
1002001010000000,
11101110,
1002001010002000,
1002001010000000,
1002001010002000,
11101110,
1001001010002000,
1001001010000000,
1001001010002000,
500000000000000000000000000000000008000000000000,
1001001010002000,
1001001010002000,
1001001010002000,
500000000000000000000000000000000008000000000000,
#MEASURE 3/4
31,
#MEASURE 3/8
1,
#MEASURE 3/4
1,
31,
#MEASURE 3/8
1,
#MEASURE 3/4
1,
31,
#MEASURE 3/8
1,
#MEASURE 3/4
1,
31,
#MEASURE 3/8
1,
#MEASURE 3/4
1,
#MEASURE 4/4
3,
10012020,
10011010,
10012020,
10011010,
10012020,
10011011,
10012022,
10011011,
1110,
#GOGOSTART
3011,
11101000,
1111,
10210210,
3011,
11101000,
3434,
600000000000000000000000000000000000000008000000,
#GOGOEND
30011000,
10011000,
10011000,
500000000000000000000000000000000008000000000000,
10011020,
10011020,
10011020,
500000000000000000000000000000000008000000000000,
#GOGOSTART
1001001010000000,
1001001010000000,
1001001010000000,
500000000000000000000000000000000008000000000000,
1001001010002000,
1001001010002000,
1001001010002000,
9008,
#GOGOEND
#END
COURSE:Easy
LEVEL:4
BALLOON:4
SCOREINIT:640
SCOREDIFF:223
#START
,
,
,
10010000,
10010000,
10010000,
4,
10011000,
10011000,
10011000,
500000000000000000000000000008000000000000000000,
10011000,
10011000,
10011000,
500000000000000000000000000000000008000000000000,
1001001000000000,
1001001000000000,
1001001000000000,
1001001000000000,
1001001000000000,
1001001000000000,
1001001000000000,
1111,
10011000,
10011000,
10011000,
500000000000000000000000000000000008000000000000,
10011000,
10011000,
10011000,
500000000000000000000000000000000008000000000000,
#MEASURE 3/4
3,
#MEASURE 3/8
1,
#MEASURE 3/4
,
3,
#MEASURE 3/8
1,
#MEASURE 3/4
,
3,
#MEASURE 3/8
1,
#MEASURE 3/4
,
3,
#MEASURE 3/8
1,
#MEASURE 3/4
,
#MEASURE 4/4
3,
,
10010000,
10010000,
10010000,
10022000,
10011000,
10011000,
10011000,
10022000,
#GOGOSTART
3011,
13,
1111,
11,
3011,
13,
3333,
500000000000000000000000000008000000000000000000,
#GOGOEND
30010000,
30010000,
30010000,
500000000000000000000000000008000000000000000000,
30011000,
30011000,
30011000,
500000000000000000000000000000000008000000000000,
#GOGOSTART
10011020,
10011020,
10011020,
500000000000000000000000000008000000000000000000,
10011020,
10011020,
10011020,
9008,
#GOGOEND
#END