850 lines
14 KiB
Plaintext
850 lines
14 KiB
Plaintext
//TJADB Project
|
|
TITLE:Fuuma Module 6768
|
|
TITLEJA:風魔モジュール6768
|
|
SUBTITLE:--Hisui
|
|
SUBTITLEJA:翡翠
|
|
BPM:212
|
|
WAVE:Fuuma Module 6768.ogg
|
|
OFFSET:-1.480
|
|
DEMOSTART:36.560
|
|
|
|
//Shinuchi: 4650/2260/1640/1400/1050
|
|
|
|
COURSE:Edit
|
|
LEVEL:9
|
|
BALLOON:9,9,5
|
|
SCOREINIT:370,1110
|
|
SCOREDIFF:88
|
|
|
|
#START
|
|
#BARLINEOFF
|
|
0,
|
|
#BARLINEON
|
|
#MEASURE 8/4
|
|
0,
|
|
22202020200020200020200020222000,
|
|
2111222111222020,
|
|
3101001101000040,
|
|
|
|
0011010011014040,
|
|
30111030001011111030002020202020,
|
|
00201111103000001101101100000000, //8
|
|
|
|
11102010100020100010200011201120,
|
|
11102010100020100010202210000000,
|
|
11102010100020100010200010221020,
|
|
11102010100020100022202020201010,
|
|
|
|
11102010100020100010200011201120,
|
|
11102010100020100010202210000000,
|
|
11102010100020100020102110221000,
|
|
200100100100100200200100100100100200400030004000, //16
|
|
|
|
#GOGOSTART
|
|
30101020001010102000201011111000,
|
|
10101020001010102000201011111000,
|
|
00201010201010121010102010102000,
|
|
10201010201010200020201011112222,
|
|
|
|
10101020001010102000201011111000,
|
|
10101020001010102000201011111000,
|
|
00102010202020102022102000221020,
|
|
#MEASURE 4/4
|
|
#SCROLL 1.1
|
|
121000
|
|
#SCROLL 1.2
|
|
121000
|
|
#SCROLL 1.3
|
|
1210,
|
|
#SCROLL 1.4
|
|
001210
|
|
#SCROLL 1.5
|
|
1122221111, //25
|
|
#GOGOEND
|
|
|
|
#MEASURE 6/4
|
|
#SCROLL 0.5
|
|
000000120201,
|
|
#MEASURE 7/4
|
|
1010101020001020002000121010,
|
|
#MEASURE 6/4
|
|
111120120201,
|
|
#MEASURE 8/4
|
|
10101010200020222020101010102000,
|
|
|
|
#MEASURE 6/4
|
|
111120120201,
|
|
#MEASURE 7/4
|
|
1010101020211020002000121010,
|
|
#MEASURE 6/4
|
|
101010102000102000202210,
|
|
#MEASURE 8/4
|
|
10101010200020222020101010102000, //33
|
|
|
|
#SCROLL 1
|
|
10001000101022100022201110222010,
|
|
10001000101022101022101022101020,
|
|
11112010201010202022111110201020,
|
|
0120120120120122,
|
|
|
|
7878,
|
|
20101020002000121010102020101020,
|
|
111222111222222111222111,
|
|
111222111222111222200200, //41
|
|
|
|
2002002020101000,
|
|
22222020002020102000100010000000,
|
|
2012022020101000,
|
|
22222020002020100020002000102020,
|
|
|
|
1001201020101000,
|
|
11111010002020102000100020000000,
|
|
200000100100100000200000100000200000200000100000100000200000100000100000700000000000080000000000,
|
|
10202010202010202010202011222211, //49
|
|
|
|
#MEASURE 1/4
|
|
0,
|
|
#SCROLL 8
|
|
#GOGOSTART
|
|
0,
|
|
#GOGOEND
|
|
0,
|
|
#GOGOSTART
|
|
0, //53
|
|
#GOGOEND
|
|
|
|
#MEASURE 8/4
|
|
#SCROLL 0.5
|
|
3011212121104010,
|
|
100000100100200100000100200020002000400020002000,
|
|
1011012121104010,
|
|
100000100100000100200100200020002000400020002000,
|
|
|
|
3011212121104010,
|
|
100000100100200100000100200020002000400020002000,
|
|
1011212122104020,
|
|
100000200100000100000100
|
|
#SCROLL 0.66
|
|
400040004000400040004000, //61
|
|
|
|
#SCROLL 1
|
|
000000000000000000000000200100200100200020002000,
|
|
100000200000200000100000200100100000200000100000100000100000200000100000200000002000000020000000,
|
|
100000200000200000100000200100100000100000200000100000100000200000100000200000002000000020000000,
|
|
10201122101011221020102011122211,
|
|
|
|
#GOGOSTART
|
|
10101020001010102000201011111000,
|
|
10101020001010102000201011111000,
|
|
00102010202020102022102000221020,
|
|
#MEASURE 4/4
|
|
#SCROLL 1.1
|
|
121000
|
|
#SCROLL 1.2
|
|
121000
|
|
#SCROLL 1.3
|
|
1210,
|
|
#BARLINEOFF
|
|
#SCROLL 1.4
|
|
001210
|
|
#SCROLL 1.5
|
|
1122221111, //70
|
|
#GOGOEND
|
|
|
|
#BARLINEON
|
|
#MEASURE 6/4
|
|
#SCROLL 0.5
|
|
000000112000201000200020,
|
|
#MEASURE 7/4
|
|
1020102011101020002000221010,
|
|
#MEASURE 6/4
|
|
102020201000221000102022,
|
|
#MEASURE 8/4
|
|
1022222010002022201010201020
|
|
#SCROLL 2
|
|
#GOGOSTART
|
|
3000, //74
|
|
#GOGOEND
|
|
|
|
#MEASURE 4/4
|
|
#SCROLL 8
|
|
0,
|
|
#MEASURE 3/4
|
|
#SCROLL 1
|
|
#GOGOSTART
|
|
0,
|
|
#GOGOEND
|
|
#MEASURE 4/4
|
|
#SCROLL 8
|
|
0,
|
|
#SCROLL 1
|
|
#GOGOSTART
|
|
0,
|
|
#GOGOEND
|
|
|
|
#SCROLL 8
|
|
0,
|
|
#SCROLL 1
|
|
#GOGOSTART
|
|
0,
|
|
#GOGOEND
|
|
#SCROLL 8
|
|
0, //81
|
|
#END
|
|
|
|
|
|
COURSE:Oni
|
|
LEVEL:7
|
|
BALLOON:4,8,8,4
|
|
SCOREINIT:460,1530
|
|
SCOREDIFF:113
|
|
|
|
#START
|
|
#BARLINEOFF
|
|
0,
|
|
#BARLINEON
|
|
#MEASURE 8/4
|
|
0,
|
|
20002020200020200020200020222000,
|
|
2111202111202020,
|
|
3101001101000040,
|
|
|
|
0011010011014040,
|
|
3303003303022222,
|
|
0233030033030000, //8
|
|
|
|
11102010100020100010200010201020,
|
|
11102010100020100010200010000000,
|
|
11102010100020100010200010201020,
|
|
11102010100020100020202010101000,
|
|
|
|
11102010100020100010200010201020,
|
|
11102010100020100010200010000000,
|
|
11102010100020100020102010111000,
|
|
200100100100100000200100100100100000400030004000, //16
|
|
|
|
#GOGOSTART
|
|
300000100000100000200000000000100000100000100000200000000000200000000000500000000008000000000000,
|
|
100000100000100000200000000000100000100000100000200000000000200000000000500000000008000000000000,
|
|
0211211111121020,
|
|
000000200000100000200000200000100000100000200000000000200000200000100000700000000000080000000000,
|
|
|
|
100000100000100000200000000000100000100000100000200000000000200000000000500000000008000000000000,
|
|
100000100000100000200000000000100000100000100000200000000000200000000000500000000008000000000000,
|
|
0121222022120212,
|
|
#MEASURE 4/4
|
|
#SCROLL 1.1
|
|
300
|
|
#SCROLL 1.2
|
|
300
|
|
#SCROLL 1.3
|
|
30,
|
|
#SCROLL 1.4
|
|
000000300000000000
|
|
#SCROLL 1.5
|
|
600000000000000000000000000008, //25
|
|
#GOGOEND
|
|
|
|
#MEASURE 6/4
|
|
#SCROLL 0.5
|
|
000000120201,
|
|
#MEASURE 7/4
|
|
11112012020220,
|
|
#MEASURE 6/4
|
|
111120120201,
|
|
#MEASURE 8/4
|
|
1111202220111120,
|
|
|
|
#MEASURE 6/4
|
|
111120120201,
|
|
#MEASURE 7/4
|
|
11112012020220,
|
|
#MEASURE 6/4
|
|
111120120201,
|
|
#MEASURE 8/4
|
|
1111202220111120, //33
|
|
|
|
#SCROLL 1
|
|
10001000101020100022201000222010,
|
|
10001000101022201022201022201000,
|
|
10000010201010202022200000200020,
|
|
0120120120120122,
|
|
|
|
7878,
|
|
20101020002000200011100020102000,
|
|
5,
|
|
000000000000000000000000000000000000000000000008000000000000000000000000200000000000200000000000, //41
|
|
|
|
2002002020101000,
|
|
22202020002020002000100010000000,
|
|
2012022020101000,
|
|
22202020002020100010001000102020,
|
|
|
|
1001201020101000,
|
|
11101010001010001000100020000000,
|
|
200000100000100000200000100000100000200000100000100000200000100000100000700000000000080000000000,
|
|
100000200000200000100000200000200000100000200000200000100000200000200000500000000000000000000008, //49
|
|
|
|
#MEASURE 1/4
|
|
0,
|
|
#SCROLL 8
|
|
#GOGOSTART
|
|
0,
|
|
#GOGOEND
|
|
0,
|
|
#GOGOSTART
|
|
0, //53
|
|
#GOGOEND
|
|
|
|
#MEASURE 8/4
|
|
#SCROLL 0.5
|
|
3011202120004000,
|
|
100000100100200100000100200020002000400000000000,
|
|
1011012020104000,
|
|
100000100100000100200000200020002000400000000000,
|
|
|
|
3011202120004000,
|
|
100000100100200100000100200020002000400000000000,
|
|
1011012022104000,
|
|
100000200100000100200100
|
|
#SCROLL 0.66
|
|
400040004000400040004000, //61
|
|
|
|
#SCROLL 1
|
|
000000000000200200202020,
|
|
200200200200000200200200200000200000200020002000,
|
|
000200200100200100100100100100200100200020002000,
|
|
000000100000200000100000200000100000200000100000500000000000000000000000000008000000000000000000,
|
|
|
|
#GOGOSTART
|
|
100000100000100000200000000000100000100000100000200000000000200000000000500000000008000000000000,
|
|
100000100000100000200000000000100000100000100000200000000000200000000000500000000008000000000000,
|
|
0121222022120212,
|
|
#MEASURE 4/4
|
|
#SCROLL 1.1
|
|
300
|
|
#SCROLL 1.2
|
|
300
|
|
#SCROLL 1.3
|
|
30,
|
|
#BARLINEOFF
|
|
#SCROLL 1.4
|
|
000000300000000000
|
|
#SCROLL 1.5
|
|
600000000000000000000000000008, //70
|
|
#GOGOEND
|
|
|
|
#BARLINEON
|
|
#MEASURE 6/4
|
|
#SCROLL 0.5
|
|
001120120201,
|
|
#MEASURE 7/4
|
|
10112012020220,
|
|
#MEASURE 6/4
|
|
301120120201,
|
|
#MEASURE 8/4
|
|
10112022201111
|
|
#SCROLL 2
|
|
#GOGOSTART
|
|
40, //74
|
|
#GOGOEND
|
|
|
|
#MEASURE 4/4
|
|
#SCROLL 8
|
|
0,
|
|
#MEASURE 3/4
|
|
#SCROLL 1
|
|
#GOGOSTART
|
|
0,
|
|
#GOGOEND
|
|
#MEASURE 4/4
|
|
#SCROLL 8
|
|
0,
|
|
#SCROLL 1
|
|
#GOGOSTART
|
|
0,
|
|
#GOGOEND
|
|
|
|
#SCROLL 8
|
|
0,
|
|
#SCROLL 1
|
|
#GOGOSTART
|
|
0,
|
|
#GOGOEND
|
|
#SCROLL 8
|
|
0, //81
|
|
#END
|
|
|
|
|
|
COURSE:Hard
|
|
LEVEL:6
|
|
BALLOON:3,6,6,3,3,3
|
|
SCOREINIT:440,1840
|
|
SCOREDIFF:103
|
|
|
|
#START
|
|
#BARLINEOFF
|
|
0,
|
|
#BARLINEON
|
|
#MEASURE 8/4
|
|
0,
|
|
2022202202202220,
|
|
2110202110202020,
|
|
3001001001000040,
|
|
|
|
0011010011014040,
|
|
3303003303022222,
|
|
0233030033030000, //8
|
|
|
|
1021102101202020,
|
|
1021102101201000,
|
|
1021102101202020,
|
|
1021102102202210,
|
|
|
|
1021102101202020,
|
|
1021102101201000,
|
|
1021102101202020,
|
|
200200200200200000100100100100100000200020002000, //16
|
|
|
|
#GOGOSTART
|
|
100000100000100000100000000000100000100000100000100000000000200000000000500000000008000000000000,
|
|
100000100000100000100000000000100000100000100000100000000000200000000000500000000008000000000000,
|
|
0210211011111020,
|
|
000000200000100000000000200000000000100000200000000000200000200000000000700000000000080000000000,
|
|
|
|
100000100000100000100000000000100000100000100000100000000000200000000000500000000008000000000000,
|
|
100000100000100000100000000000100000100000100000100000000000200000000000500000000008000000000000,
|
|
0120222022100212,
|
|
#MEASURE 4/4
|
|
30030030,
|
|
000000300000000000600000000000000000000000000008, //25
|
|
#GOGOEND
|
|
|
|
#MEASURE 6/4
|
|
000000020201,
|
|
#MEASURE 7/4
|
|
10112012020220,
|
|
#MEASURE 6/4
|
|
301120120201,
|
|
#MEASURE 8/4
|
|
1011202220111020,
|
|
|
|
#MEASURE 6/4
|
|
301120120201,
|
|
#MEASURE 7/4
|
|
10112011020220,
|
|
#MEASURE 6/4
|
|
301120120201,
|
|
#MEASURE 8/4
|
|
1011202220111020, //33
|
|
|
|
500000000000000000000008000000000000200000100000000000200000000000100000000000200000200000000000,
|
|
500000000000000000000008000000000000200000200000100000000000200000100000200000000000100000000000,
|
|
1001111022100202,
|
|
0120120120120120,
|
|
|
|
7878,
|
|
2102020221102120,
|
|
5,
|
|
000000000000000000000000000000000000000000000008000000000000000000000000200000000000200000000000, //41
|
|
|
|
2002002020101000,
|
|
2222022020101000,
|
|
2012022020101000,
|
|
2222022001010120,
|
|
|
|
1001201010102000,
|
|
1111011010102000,
|
|
2102102102107080,
|
|
200000100000000000200000100000000000200000100000000000200000100000000000500000000000000000000008, //49
|
|
|
|
#MEASURE 1/4
|
|
0,
|
|
#SCROLL 8
|
|
#GOGOSTART
|
|
0,
|
|
#GOGOEND
|
|
0,
|
|
#GOGOSTART
|
|
0, //53
|
|
#GOGOEND
|
|
|
|
#MEASURE 8/4
|
|
#SCROLL 1
|
|
3011202020004000,
|
|
1011200020004000,
|
|
1011012020004000,
|
|
1011012020204000,
|
|
|
|
3011202020004000,
|
|
1011200020004000,
|
|
1011012022004000,
|
|
100000200100000100200000400040004000400040004000, //61
|
|
|
|
00002220,
|
|
2222022220202000,
|
|
000200100000200100100000200200200200200020002000,
|
|
000000200000100000000000200000000000200000200000500000000000000000000000000008000000000000000000,
|
|
|
|
#GOGOSTART
|
|
100000100000100000100000000000100000100000100000100000000000200000000000700000000000080000000000,
|
|
100000100000100000100000000000100000100000100000100000000000200000000000700000000000080000000000,
|
|
0120222022100212,
|
|
#MEASURE 4/4
|
|
30030030,
|
|
000000300000000000600000000000000000000000000008, //70
|
|
#GOGOEND
|
|
|
|
#MEASURE 6/4
|
|
001120120201,
|
|
#MEASURE 7/4
|
|
10112012020220,
|
|
#MEASURE 6/4
|
|
301120120201,
|
|
#MEASURE 8/4
|
|
10112022201110
|
|
#GOGOSTART
|
|
40, //74
|
|
#GOGOEND
|
|
|
|
#MEASURE 4/4
|
|
#SCROLL 8
|
|
0,
|
|
#MEASURE 3/4
|
|
#SCROLL 1
|
|
#GOGOSTART
|
|
0,
|
|
#GOGOEND
|
|
#MEASURE 4/4
|
|
#SCROLL 8
|
|
0,
|
|
#SCROLL 1
|
|
#GOGOSTART
|
|
0,
|
|
#GOGOEND
|
|
|
|
#SCROLL 8
|
|
0,
|
|
#SCROLL 1
|
|
#GOGOSTART
|
|
0,
|
|
#GOGOEND
|
|
#SCROLL 8
|
|
0, //81
|
|
#END
|
|
|
|
|
|
COURSE:Normal
|
|
LEVEL:6
|
|
BALLOON:2,4,4
|
|
SCOREINIT:480,2530
|
|
SCOREDIFF:125
|
|
|
|
#START
|
|
#BARLINEOFF
|
|
0,
|
|
#BARLINEON
|
|
#MEASURE 8/4
|
|
0,
|
|
22220220,
|
|
11211220,
|
|
3001003001000040,
|
|
|
|
0030010030010000,
|
|
3001003001002020,
|
|
0030010030010000, //8
|
|
|
|
1011101000102000,
|
|
1011101000201000,
|
|
1011101000102000,
|
|
1011101000202020,
|
|
|
|
1011101000102000,
|
|
1011101000201000,
|
|
1011101000102020,
|
|
21121120, //16
|
|
|
|
#GOGOSTART
|
|
1101011010202000,
|
|
1101011010202000,
|
|
0200200011101020,
|
|
000000100000000000000000100000000000000000100000000000000000200000000000700000000000080000000000,
|
|
|
|
1101011010202000,
|
|
1101011010202000,
|
|
0200200011101020,
|
|
#MEASURE 4/4
|
|
30030030,
|
|
000000300000000000600000000000000000000000000008, //25
|
|
#GOGOEND
|
|
|
|
#MEASURE 6/4
|
|
000000020200,
|
|
#MEASURE 7/4
|
|
10111002020200,
|
|
#MEASURE 6/4
|
|
301110020200,
|
|
#MEASURE 8/4
|
|
1011102020101020,
|
|
|
|
#MEASURE 6/4
|
|
301110020200,
|
|
#MEASURE 7/4
|
|
10111002020200,
|
|
#MEASURE 6/4
|
|
301110020200,
|
|
#MEASURE 8/4
|
|
1011102020111020, //33
|
|
|
|
500000000000000000000008000000000000200000000000000000200000000000200000000000200000000000000000,
|
|
500000000000000000000008000000000000200000200000200000000000200000000000200000000000200000000000,
|
|
1001101020100202,
|
|
0110110110220220,
|
|
|
|
7878,
|
|
1101020200202020,
|
|
5,
|
|
000000000000000000000000000000000000000000000008000000000000000000000000200000000000200000000000, //41
|
|
|
|
2002002020101000,
|
|
2002002020101000,
|
|
2002002020101000,
|
|
2002002001010100,
|
|
|
|
1001001010102000,
|
|
1011011010002000,
|
|
1001001001001000,
|
|
100000000000000000100000000000000000100000000000000000100000000000000000500000000000000000000008, //49
|
|
|
|
#MEASURE 1/4
|
|
0,
|
|
#SCROLL 8
|
|
#GOGOSTART
|
|
0,
|
|
#GOGOEND
|
|
0,
|
|
#GOGOSTART
|
|
0, //53
|
|
#GOGOEND
|
|
|
|
#MEASURE 8/4
|
|
#SCROLL 1
|
|
30222040,
|
|
11102040,
|
|
10022040,
|
|
00011140,
|
|
|
|
30222040,
|
|
11102040,
|
|
10022040,
|
|
000000444444, //61
|
|
|
|
00002220,
|
|
2202022020202000,
|
|
0200200022202000,
|
|
000000200000000000000000200000000000000000500000000000000000000000000000000008000000000000000000,
|
|
|
|
#GOGOSTART
|
|
1101011010202000,
|
|
1101011010202000,
|
|
0200200011101020,
|
|
#MEASURE 4/4
|
|
30030030,
|
|
000000300000000000600000000000000000000000000008, //70
|
|
#GOGOEND
|
|
|
|
#MEASURE 6/4
|
|
001110020200,
|
|
#MEASURE 7/4
|
|
10111002020200,
|
|
#MEASURE 6/4
|
|
301110020200,
|
|
#MEASURE 8/4
|
|
10111020201110
|
|
#GOGOSTART
|
|
30, //74
|
|
#GOGOEND
|
|
|
|
#MEASURE 4/4
|
|
#SCROLL 8
|
|
0,
|
|
#MEASURE 3/4
|
|
#SCROLL 1
|
|
#GOGOSTART
|
|
0,
|
|
#GOGOEND
|
|
#MEASURE 4/4
|
|
#SCROLL 8
|
|
0,
|
|
#SCROLL 1
|
|
#GOGOSTART
|
|
0,
|
|
#GOGOEND
|
|
|
|
#SCROLL 8
|
|
0,
|
|
#SCROLL 1
|
|
#GOGOSTART
|
|
0,
|
|
#GOGOEND
|
|
#SCROLL 8
|
|
0, //81
|
|
#END
|
|
|
|
|
|
COURSE:Easy
|
|
LEVEL:4
|
|
BALLOON:6,6,6,3,3,3
|
|
SCOREINIT:580,5520
|
|
SCOREDIFF:150
|
|
|
|
#START
|
|
#BARLINEOFF
|
|
0,
|
|
#BARLINEON
|
|
#MEASURE 8/4
|
|
0,
|
|
20200220,
|
|
20020020,
|
|
30030000,
|
|
|
|
03003000,
|
|
30030000,
|
|
03003000, //8
|
|
|
|
10100110,
|
|
10100110,
|
|
20200220,
|
|
20200220,
|
|
|
|
10100220,
|
|
10100220,
|
|
20100220,
|
|
20020020, //16
|
|
|
|
#GOGOSTART
|
|
500000000000000000000008000000000000000000000000100000000000100000000000100000000000000000000000,
|
|
500000000000000000000008000000000000000000000000100000000000100000000000100000000000000000000000,
|
|
0200200010101000,
|
|
0100100000202000,
|
|
|
|
500000000000000000000008000000000000000000000000100000000000100000000000100000000000000000000000,
|
|
500000000000000000000008000000000000000000000000100000000000100000000000100000000000000000000000,
|
|
0200200010101000,
|
|
#MEASURE 4/4
|
|
6,
|
|
000000000000000000000000000000000000000000000008, //25
|
|
#GOGOEND
|
|
|
|
#MEASURE 6/4
|
|
0,
|
|
#MEASURE 7/4
|
|
1,
|
|
#MEASURE 6/4
|
|
3,
|
|
#MEASURE 8/4
|
|
1,
|
|
|
|
#MEASURE 6/4
|
|
301000,
|
|
#MEASURE 7/4
|
|
100000000000000000000000100000000000000000500000000000000000000008000000000000000000,
|
|
#MEASURE 6/4
|
|
301000,
|
|
#MEASURE 8/4
|
|
10010010, //33
|
|
|
|
78,
|
|
78,
|
|
78,
|
|
01101101,
|
|
|
|
7878,
|
|
100000000000000000500000000000000000000008000000000000000000000000000000000000000000000000000000,
|
|
5,
|
|
000000000000000000000000000000000000000000000008000000000000000000000000200000000000000000000000, //41
|
|
|
|
20022000,
|
|
20022000,
|
|
20022000,
|
|
200000000000000000000000000000000000200000000000000000500000000000000000000008000000000000000000,
|
|
|
|
10011010,
|
|
10011020,
|
|
10010110,
|
|
100000000000000000000000000000000000100000000000000000000000100000000000500000000000000000000008, //49
|
|
|
|
#MEASURE 1/4
|
|
0,
|
|
#SCROLL 8
|
|
#GOGOSTART
|
|
0,
|
|
#GOGOEND
|
|
0,
|
|
#GOGOSTART
|
|
0, //53
|
|
#GOGOEND
|
|
|
|
#MEASURE 8/4
|
|
#SCROLL 1
|
|
30111040,
|
|
11101040,
|
|
10011040,
|
|
00011040,
|
|
|
|
30111040,
|
|
11101040,
|
|
10011040,
|
|
000000000000000000000000000000000000000000000000600000000000000000000000000000000000000000000008, //61
|
|
|
|
00002220,
|
|
00002220,
|
|
0200200020002000,
|
|
000000200000000000000000200000000000000000500000000000000000000000000000000008000000000000000000,
|
|
|
|
#GOGOSTART
|
|
500000000000000000000008000000000000000000000000100000000000100000000000100000000000000000000000,
|
|
500000000000000000000008000000000000000000000000100000000000100000000000100000000000000000000000,
|
|
0200200010101000,
|
|
#MEASURE 4/4
|
|
6,
|
|
000000000000000000000000000000000000000000000008, //70
|
|
#GOGOEND
|
|
|
|
#MEASURE 6/4
|
|
010,
|
|
#MEASURE 7/4
|
|
100000000000000000000000100000000000000000500000000000000000000008000000000000000000,
|
|
#MEASURE 6/4
|
|
310,
|
|
#MEASURE 8/4
|
|
1017080
|
|
#GOGOSTART
|
|
3, //74
|
|
#GOGOEND
|
|
|
|
#MEASURE 4/4
|
|
#SCROLL 8
|
|
0,
|
|
#MEASURE 3/4
|
|
#SCROLL 1
|
|
#GOGOSTART
|
|
0,
|
|
#GOGOEND
|
|
#MEASURE 4/4
|
|
#SCROLL 8
|
|
0,
|
|
#SCROLL 1
|
|
#GOGOSTART
|
|
0,
|
|
#GOGOEND
|
|
|
|
#SCROLL 8
|
|
0,
|
|
#SCROLL 1
|
|
#GOGOSTART
|
|
0,
|
|
#GOGOEND
|
|
#SCROLL 8
|
|
0, //81
|
|
#END |