Files
TJA-by-song-no/tja/1279.tja
2026-03-04 23:59:27 +09:00

885 lines
8.8 KiB
Plaintext

//TJADB Project
TITLE:Caramel Junk-it
TITLEJA:キャラメル・ジャンキヰ
SUBTITLE:--deli.+dadaco
SUBTITLEJA:deli.+駄々子
BPM:250
WAVE:Caramel Junk-it.ogg
OFFSET:-0.484
DEMOSTART:48.401
COURSE:Oni
LEVEL:10
BALLOON:7
SCOREINIT:1140
SCOREDIFF:0
#START
100100100201,
101102102202,
100100100201,
101102102202,
100100100201,
101102102202,
104000400003,
000400122222, //8
#GOGOSTART
100201001200,
100201001202,
100201001200,
101003000200,
100201001201,
001201202004,
#GOGOEND
0,
0,
000122222122,
111214004003, //18
0202,
000200002200,
0202,
002200002200,
0202,
000200002200,
000200002200,
200202002202, //26
100100102100,
100101001102,
100100102102,
100101001102,
100100102102,
102102201007,
000008011222,
100201001003, //34
001200100202,
100201102201,
000200202202,
100202002205,
000000080000200000000000100000000000200000002000,
100201002201,
000200202202,
100202002005, //42
000000080000200000000000100000000000200000002000,
102201102201,
000200202204,
004001221103,
002200101201,
002200101201,
002211211211,
303002002100, //50
#GOGOSTART
300202101201,
001201100200,
100200100201,
001200101202,
102202202203,
000400101101,
200202202104,
000400122100, //58
300202101201,
001201100202,
100200100201,
001200101202,
100202100201,
002001002202,
3333,
#GOGOEND
400004000400, //66
300002200300,
30020030,
3223,
3023,
102111222111,
#MEASURE 7/8
200000000000100000002000
#BPMCHANGE 187.5
#SCROLL 1.333
000000100200000
#GOGOSTART
500, //72
#MEASURE 3/4
000000000000000000000000000000000008,
#MEASURE 4/4
#BPMCHANGE 250
#SCROLL 1
000000200100000100200010,
000200101221,
111222111202,
500000000000000000000008000000000000100000000000,
102100201001,
112221112221,
112221112221, //80
100200102101,
200102001202,
100201001200,
100201201222,
100104001100,
104001100400,
122222122222,
122222112203, //88
#GOGOEND
02,
22,
11,
11,
22,
22,
11,
100001102101, //96
001201100201,
102201100201,
101200202204,
002200101003,
000200112211,
001202122211,
021121121121,
202222122222,
111222111222,
322322322322, //106
0,
0033,
000
#GOGOSTART
400104001,
300404000122, //110
100202202203,
000400101101,
200202202104,
000400102100,
301202101201,
001201100202,
100200100201,
001222112212,
#GOGOEND
3333,
400104001200, //120
#GOGOSTART
102102102102,
202101202102,
102102102102,
201202221202,
101102201102,
202102202102,
201202201201,
102101122202, //128
102102102102,
202101202102,
102102102102,
201202221202,
101102201102,
202102202102,
#GOGOEND
3333,
400404002222, //136
100201102002,
100201001201,
100200100201,
001201101201,
100201102002,
100201001201,
101201101201,
001201101200, //144
#SCROLL 0.75
100200102000,
100201002202,
102202102201,
001201100200,
#SCROLL 0.5
100200002202,
200200200202,
0,
0, //152
#END
COURSE:Hard
LEVEL:7
BALLOON:8,7,13
SCOREINIT:1870
SCOREDIFF:0
#START
100100100201,
001100100200,
100100100201,
001100100200,
100100100201,
001100100200,
006000000000,
000000000000000000000008000000000000000000000000, //8
#GOGOSTART
100201000200,
100201000200,
100201000200,
101003000200,
100201000201,
000100101004,
#GOGOEND
0,
0,
0,
000004004003, //18
0202,
0202,
0202,
000200002200,
0202,
0202,
0202,
000200002200, //26
1111,
100101002200,
1111,
100101002200,
1111,
100101007000,
000008000000,
000001001003, //34
0212,
100201002201,
0222,
200202002201,
0212,
100201002001,
000200200202,
200202002001, //42
0212,
100201102201,
000200200204,
004000101003,
000200100201,
000200100201,
0700,
8, //50
#GOGOSTART
300202100201,
0212,
100200100201,
0212,
102202202203,
000400001100,
200202200204,
0400, //58
300202100201,
0212,
100200100201,
0212,
100202100201,
001201002000,
3333,
#GOGOEND
400004000400, //66
3023,
300002000300,
3023,
3003,
1111,
#MEASURE 7/8
400000000000000000004000
#BPMCHANGE 187.5
#SCROLL 1.333
000000000400000
#GOGOSTART
500, //72
#MEASURE 3/4
000000000000000000000000000000000008,
#MEASURE 4/4
#BPMCHANGE 250
#SCROLL 1
000000000100000200000010,
0211,
101100100100,
500000000000000000000000000000000000000000000008,
02,
6,
000000000000000000000000000000000000000000000008, //80
000200102001,
200102001100,
100002000200,
100002200000,
100004000100,
004000100400,
300004000300,
004000300004, //88
#GOGOEND
02,
22,
11,
11,
22,
22,
11,
100000100001, //96
000100100001,
000100100201,
000100100004,
000400101003,
000200100201,
000200100201,
0700,
0800,
4444,
3333, //106
0,
0033,
000
#GOGOSTART
400004000,
300404000400, //110
100202202203,
000400001100,
200202200204,
0400,
300202100201,
0212,
100200100201,
0212,
#GOGOEND
3333,
400004002200, //120
#GOGOSTART
100100100102,
100100100102,
100100102102,
100100102100,
100100102102,
100100102102,
100100102102,
100100102100, //128
100100100102,
100100100102,
100100102102,
100100102100,
100100102100,
102102102100,
#GOGOEND
3333,
400004004000, //136
100200102000,
100201001200,
100200100201,
002200100200,
100200102000,
100201001200,
100200100201,
002200100200, //144
#SCROLL 0.75
100200102000,
100201001200,
100200100201,
002200100200,
#SCROLL 0.5
100200002200,
200200200202,
0,
0, //152
#END
COURSE:Normal
LEVEL:7
BALLOON:6,4,8
SCOREINIT:2750
SCOREDIFF:0
#START
100100100001,
001100100000,
100100100001,
001100100000,
100100100001,
001100100000,
006000000000,
000000000000000000000008000000000000000000000000, //8
#GOGOSTART
100001000200,
100001000200,
100001000200,
100003000000,
100001000001,
000100101003,
#GOGOEND
0,
0,
0,
000000000003, //18
0202,
0202,
0202,
0202,
0202,
0202,
0202,
0202, //26
1110,
100101000000,
1110,
100101000000,
1110,
100101007000,
000008000000,
000000000003, //34
0011,
100001000000,
0220,
200002000001,
0011,
100001000000,
0220,
200002000001, //42
0011,
100001000000,
000200200006,
000000000000000000000008000000000000000000003000,
000000000001,
000000100001,
0700,
8, //50
#GOGOSTART
300000100101,
0210,
100100100001,
0210,
100200200003,
0400,
200200200004,
0400, //58
300000100101,
0210,
100100100001,
0210,
100000100005,
000000000000000000000008000000000000000000000000,
3333,
#GOGOEND
400004000400, //66
3003,
3003,
3003,
3003,
1110,
#MEASURE 7/8
400000000000000000004000
#BPMCHANGE 187.5
#SCROLL 1.333
000000000000000
#GOGOSTART
500, //72
#MEASURE 3/4
000000000000000000000000000000000008,
#MEASURE 4/4
#BPMCHANGE 250
#SCROLL 1
000000000100000000000020,
0200,
1011,
500000000000000000000000000000000000000000000008,
02,
6,
000000000000000000000000000000000000000000000008, //80
000200002000,
200002000000,
100002000200,
100002200000,
100004000100,
004000100400,
300004000300,
004000300004, //88
#GOGOEND
02,
02,
01,
01,
02,
02,
01,
000000100001, //96
000100100001,
000100100001,
000100100001,
000200200003,
000000000001,
000000100001,
0700,
0800,
4444,
3333, //106
0,
0033,
000
#GOGOSTART
400004000,
600000000000000000000000000008000000000000000000, //110
100200200003,
0400,
200200200004,
0400,
300000100101,
0210,
100100100001,
0210,
#GOGOEND
3333,
400004000000, //120
#GOGOSTART
1111,
1122,
1122,
1212,
1112,
1112,
1122,
1211, //128
1111,
1122,
1122,
1212,
1112,
1112,
#GOGOEND
3333,
400004000000, //136
1210,
100201000200,
100200100001,
0212,
1210,
100201000200,
100200100001,
0210, //144
#SCROLL 0.75
1210,
100201000200,
100200100001,
0210,
#SCROLL 0.5
1202,
200200200202,
0,
0, //152
#END
COURSE:Easy
LEVEL:5
BALLOON:4,6,9
SCOREINIT:3990
SCOREDIFF:0
#START
1110,
0,
1110,
0,
1110,
0,
006000000000,
000000000000000000000008000000000000000000000000, //8
#GOGOSTART
100001000000,
100001000000,
100001000000,
100003000000,
100001000001,
000100100003,
#GOGOEND
0,
0,
0,
000000000003, //18
0202,
0200,
0202,
0200,
0202,
0200,
0202,
0200, //26
11,
1,
11,
1,
11,
107,
000008000000,
000000000003, //34
01,
1,
02,
2,
01,
1,
02,
2, //42
01,
1,
000000200006,
000000000000000000000008000000000000000000003000,
000000000001,
000000100007,
0000,
8, //50
#GOGOSTART
300000100001,
0110,
100000100001,
0110,
100000100003,
0400,
200000200004,
0400, //58
300000100001,
0110,
100000100001,
0110,
100000100005,
000000000000000000000008000000000000000000000000,
3333,
#GOGOEND
4, //66
3,
3,
3,
3,
11,
#MEASURE 7/8
400000000000000000000000
#BPMCHANGE 187.5
#SCROLL 1.333
000000000000000
#GOGOSTART
500, //72
#MEASURE 3/4
000000000000000000000000000000000008,
#MEASURE 4/4
#BPMCHANGE 250
#SCROLL 1
000000000001,
0100,
01,
500000000000000000000000000000000000000000000008,
01,
6,
000000000000000000000000000000000000000000000008, //80
0,
2,
2,
22,
1001,
01,
3003,
000000300004, //88
#GOGOEND
02,
02,
01,
01,
02,
02,
01,
000000100001, //96
01,
01,
01,
000000100003,
000000000001,
000000100007,
0,
0800,
4444,
3333, //106
0,
0033,
0
#GOGOSTART
600,
000000000000000000000000000008000000000000000000, //110
100000100003,
0400,
200000200004,
0400,
300000100001,
0110,
100000100001,
0110,
#GOGOEND
3333,
4, //120
#GOGOSTART
1111,
1120,
1111,
1120,
1111,
1120,
1111,
1220, //128
1111,
1120,
1111,
1120,
1111,
1120,
#GOGOEND
3333,
4, //136
12,
100001000000,
100000200001,
02,
12,
100001000000,
100000200001,
02, //144
#SCROLL 0.75
12,
100001000000,
100000200001,
02,
#SCROLL 0.5
1,
2222,
0,
0, //152
#END