614 lines
6.7 KiB
Plaintext
614 lines
6.7 KiB
Plaintext
//TJADB Project
|
|
TITLE:EkiBEN 2000
|
|
TITLEJA:EkiBEN2000
|
|
SUBTITLE:--Linda AI-CUE
|
|
BPM:194
|
|
WAVE:EkiBEN 2000.ogg
|
|
OFFSET:-1.509
|
|
DEMOSTART:1.509
|
|
|
|
COURSE:Oni
|
|
LEVEL:10
|
|
SCOREINIT:400
|
|
SCOREDIFF:100
|
|
|
|
|
|
#START
|
|
|
|
|
|
#GOGOSTART
|
|
1111202020002000,
|
|
100000000000100000100000500000000008000000000000,
|
|
1111202020002000,
|
|
10112022,
|
|
1111202020002020,
|
|
1111202020002220,
|
|
#MEASURE 3/4
|
|
221010221010,
|
|
221010221010,
|
|
112011200010,
|
|
101010221010,
|
|
221010221010,
|
|
112011201120,//12
|
|
|
|
#GOGOEND
|
|
#MEASURE 2/4
|
|
00001111,
|
|
|
|
#MEASURE 4/4
|
|
,
|
|
,
|
|
,
|
|
,
|
|
1111200011112000,
|
|
1111211111112000,
|
|
1111200011112000,
|
|
1111211111112000,
|
|
#MEASURE 2/4
|
|
,
|
|
#MEASURE 4/4
|
|
1120112010112220,
|
|
1120112012010210,
|
|
1022102210221210,
|
|
0030300020022010,
|
|
2011221020112210,
|
|
2211201010112020,
|
|
30303303,
|
|
2211102211104000,
|
|
1011201020112010,
|
|
1111201021112010,
|
|
1011201120112010,
|
|
1111201010400040,
|
|
1011201021102110,
|
|
1011201121102000,
|
|
10101011,
|
|
1010101010111000,
|
|
1111202010212010,
|
|
2120201022104000,
|
|
2110202010212220,
|
|
1011122012104000,
|
|
#SCROLL 2.5
|
|
12021002,
|
|
11220222,
|
|
12021022,
|
|
11212202,
|
|
10221220,
|
|
11221020,
|
|
1110111011101110,
|
|
12112030,
|
|
#SCROLL 2.3
|
|
0000000011221120,
|
|
#SCROLL 2.1
|
|
00003434,
|
|
#SCROLL 1.9
|
|
0000000011221120,
|
|
#SCROLL 1.7
|
|
00004343,
|
|
#SCROLL 1.5
|
|
0000000011221120,
|
|
#SCROLL 1.3
|
|
000000000000500008000000300000400000300000400000,
|
|
#SCROLL 1.1
|
|
0000000011221120,
|
|
#SCROLL 1
|
|
1122112011221120,
|
|
1111202010212010,
|
|
#MEASURE 3/4
|
|
212021201111,
|
|
#MEASURE 4/4
|
|
2000202010212220,
|
|
#MEASURE 3/4
|
|
101110222020,
|
|
#MEASURE 4/4
|
|
1110303030202220,//63
|
|
|
|
#GOGOSTART
|
|
1111222020002020,
|
|
100000200200100100100050000000000000000008000000,
|
|
1111222020222000,
|
|
1000111022202220,
|
|
1111222020202220,
|
|
1111222022202220,
|
|
#MEASURE 3/4
|
|
221010221010,
|
|
221010221010,
|
|
112211200010,
|
|
101010221010,
|
|
221010221010,
|
|
112211202220,//75
|
|
|
|
#GOGOEND
|
|
#MEASURE 2/4
|
|
00001111,
|
|
#MEASURE 4/4
|
|
20020020,
|
|
02002002,
|
|
00200200,
|
|
20020020,
|
|
2220202022202020,
|
|
2220202222202020,
|
|
2220202020202020,
|
|
2220222222204040,
|
|
#MEASURE 2/4
|
|
4440,//85
|
|
|
|
#MEASURE 4/4
|
|
#GOGOSTART
|
|
1111222220002000,
|
|
100000000000500000000000000008000000100000000000,
|
|
1111222220002020,
|
|
10112022,
|
|
1111222220002220,
|
|
1111222220222020,
|
|
#MEASURE 3/4
|
|
221210221210,
|
|
221210221212,
|
|
112211202212,
|
|
121210221210,
|
|
221210221212,
|
|
112211202212,
|
|
121210221210,
|
|
221210221210,
|
|
221210221210,
|
|
221210221210,
|
|
201210201210,
|
|
201210201210,
|
|
201210201210,
|
|
201210201210,
|
|
211211,
|
|
211211,
|
|
011011,
|
|
011011,
|
|
#MEASURE 4/4
|
|
0500,
|
|
000000000008000000000000000000000000000000000000,//111
|
|
|
|
#GOGOEND
|
|
|
|
|
|
#END
|
|
|
|
|
|
COURSE:Hard
|
|
LEVEL:8
|
|
|
|
#START
|
|
|
|
#GOGOSTART
|
|
1110101020000000,
|
|
100000000000100000000000500000000008000000000000,
|
|
1110101020002000,
|
|
10112020,
|
|
1110202020002000,
|
|
1110202020002000,
|
|
#MEASURE 3/4
|
|
201110001110,
|
|
001110001110,
|
|
343400,
|
|
001110001110,
|
|
001110001110,
|
|
343434,//12
|
|
|
|
#GOGOEND
|
|
#MEASURE 2/4
|
|
,
|
|
#MEASURE 4/4
|
|
,
|
|
,
|
|
,
|
|
,
|
|
11201120,
|
|
11211020,
|
|
11201120,
|
|
11211020,
|
|
#MEASURE 2/4
|
|
,
|
|
#MEASURE 4/4
|
|
1011101010001000,
|
|
12121010,
|
|
1011101010002000,
|
|
12121210,
|
|
1011102010002000,
|
|
21214030,
|
|
1011102010001000,
|
|
21214040,
|
|
1011101010111000,
|
|
12121210,
|
|
1011101010111000,
|
|
12121020,
|
|
1011102020111000,
|
|
21212020,
|
|
1011102020111000,
|
|
1020102010111000,
|
|
1110202010202010,
|
|
22212040,
|
|
2010202010202220,
|
|
11121040,
|
|
12221020,
|
|
1110222010002000,
|
|
12221020,
|
|
1110222020002000,
|
|
12221020,
|
|
1110222010002000,
|
|
12221010,
|
|
1110222030003000,
|
|
1110111011101110,
|
|
20003434,
|
|
1110111011102220,
|
|
20004343,
|
|
1110111022202220,
|
|
200000000000500008000000300000400000300000400000,
|
|
1110222022202220,
|
|
2033,
|
|
1110202010202010,
|
|
#MEASURE 3/4
|
|
222120,
|
|
#MEASURE 4/4
|
|
2010202010202220,
|
|
#MEASURE 3/4
|
|
111210,
|
|
#MEASURE 4/4
|
|
30333040,//63
|
|
|
|
#GOGOSTART
|
|
1110101020000000,
|
|
100000000000100000000000500000000008000000000000,
|
|
1110101020002000,
|
|
10112020,
|
|
1110202020002000,
|
|
1110202020002000,
|
|
|
|
#MEASURE 3/4
|
|
201110001110,
|
|
001110001110,
|
|
343400,
|
|
001110001110,
|
|
001110001110,
|
|
343434,//75
|
|
|
|
#GOGOEND
|
|
#MEASURE 2/4
|
|
,
|
|
#MEASURE 4/4
|
|
20020020,
|
|
02002002,
|
|
00200200,
|
|
20020020,
|
|
02002002,
|
|
00200200,
|
|
20020020,
|
|
22222244,
|
|
#MEASURE 2/4
|
|
4440,//85
|
|
|
|
#GOGOSTART
|
|
#MEASURE 4/4
|
|
1110111020000000,
|
|
100000000000500000000000000000000008000000000000,
|
|
1110111020002000,
|
|
10112020,
|
|
1110222020002000,
|
|
1110222020002000,
|
|
#MEASURE 3/4
|
|
201120001120,
|
|
001120001120,
|
|
343401,
|
|
201120001120,
|
|
001120001120,
|
|
343434,
|
|
001120001120,
|
|
001120001120,
|
|
001120001120,
|
|
001120001120,
|
|
001110001110,
|
|
001110001110,
|
|
001110001110,
|
|
001110001110,
|
|
011011,
|
|
011011,
|
|
011011,
|
|
011011,
|
|
#MEASURE 4/4
|
|
0500,
|
|
000000000008000000000000000000000000000000000000,//111
|
|
|
|
#GOGOEND
|
|
,
|
|
,
|
|
#END
|
|
|
|
COURSE:Normal
|
|
LEVEL:7
|
|
|
|
|
|
|
|
#START
|
|
|
|
#GOGOSTART
|
|
1110,
|
|
100000000000100000000000500000000008000000000000,
|
|
1110,
|
|
1110,
|
|
1220,
|
|
1220,
|
|
#MEASURE 3/4
|
|
011011,
|
|
011011,
|
|
111101,
|
|
011011,
|
|
011011,
|
|
111101,//12
|
|
|
|
#GOGOEND
|
|
#MEASURE 2/4
|
|
,
|
|
#MEASURE 4/4
|
|
,
|
|
,
|
|
,
|
|
,
|
|
1212,
|
|
0002,
|
|
1212,
|
|
1,
|
|
#MEASURE 2/4
|
|
,
|
|
#MEASURE 4/4
|
|
1111,
|
|
11101010,
|
|
1111,
|
|
11101010,
|
|
1111,
|
|
11101010,
|
|
1111,
|
|
11104040,
|
|
1111,
|
|
11102020,
|
|
1111,
|
|
11102020,
|
|
1111,
|
|
11102020,
|
|
1111,
|
|
11102000,
|
|
1222,
|
|
20222000,
|
|
1222,
|
|
20222000,
|
|
1122,
|
|
11101010,
|
|
1122,
|
|
11101010,
|
|
1122,
|
|
11101010,
|
|
1122,
|
|
11103030,
|
|
1111,
|
|
10101210,
|
|
1111,
|
|
10101210,
|
|
1111,
|
|
100000000000500000000008000000000000000000000000,
|
|
1111,
|
|
1133,
|
|
1222,
|
|
#MEASURE 3/4
|
|
202220,
|
|
#MEASURE 4/4
|
|
2222,
|
|
#MEASURE 3/4
|
|
202220,
|
|
#MEASURE 4/4
|
|
3,//63
|
|
|
|
#GOGOSTART
|
|
10111000,
|
|
100000000000100000000000500000000008000000000000,
|
|
10111000,
|
|
1110,
|
|
10222000,
|
|
10222000,
|
|
#MEASURE 3/4
|
|
011011,
|
|
011011,
|
|
111101,
|
|
011011,
|
|
011011,
|
|
111101,//75
|
|
|
|
#GOGOEND
|
|
#MEASURE 2/4
|
|
,
|
|
#MEASURE 4/4
|
|
2002,
|
|
02,
|
|
0200,
|
|
2002,
|
|
02,
|
|
0200,
|
|
2002,
|
|
500000000000000000000000000000000000000000000008,
|
|
#MEASURE 2/4
|
|
,//85
|
|
|
|
#GOGOSTART
|
|
#MEASURE 4/4
|
|
10111000,
|
|
100000000000500000000000000000000008000000000000,
|
|
10111000,
|
|
10111000,
|
|
10111000,
|
|
10111000,
|
|
#MEASURE 3/4
|
|
011011,
|
|
011011,
|
|
111101,
|
|
011011,
|
|
011011,
|
|
111101,
|
|
011011,
|
|
011011,
|
|
011011,
|
|
011011,
|
|
011011,
|
|
011011,
|
|
011011,
|
|
011011,
|
|
001001,
|
|
001001,
|
|
001001,
|
|
001001,
|
|
#MEASURE 4/4
|
|
0500,
|
|
000000000008000000000000000000000000000000000000,//111
|
|
|
|
#GOGOEND
|
|
,
|
|
,
|
|
#END
|
|
|
|
COURSE:Easy
|
|
LEVEL:5
|
|
|
|
#START
|
|
|
|
#GOGOSTART
|
|
1110,
|
|
100000000000100000000000500000000008000000000000,
|
|
1110,
|
|
1110,
|
|
1120,
|
|
1120,
|
|
#MEASURE 3/4
|
|
111,
|
|
111,
|
|
331,
|
|
111,
|
|
111,
|
|
333,//12
|
|
|
|
#GOGOEND
|
|
#MEASURE 2/4
|
|
,
|
|
#MEASURE 4/4
|
|
,
|
|
,
|
|
,
|
|
,
|
|
2222,
|
|
0002,
|
|
2222,
|
|
2,
|
|
#MEASURE 2/4
|
|
,
|
|
#MEASURE 4/4
|
|
1111,
|
|
11,
|
|
1111,
|
|
11,
|
|
1111,
|
|
11,
|
|
1111,
|
|
1130,
|
|
1111,
|
|
1110,
|
|
1111,
|
|
1110,
|
|
1111,
|
|
1110,
|
|
1111,
|
|
1110,
|
|
0222,
|
|
0222,
|
|
0222,
|
|
0220,
|
|
1120,
|
|
1111,
|
|
1120,
|
|
1111,
|
|
1120,
|
|
1111,
|
|
1120,
|
|
1130,
|
|
11,
|
|
10001110,
|
|
11,
|
|
10001110,
|
|
11,
|
|
100000000000500000000008000000000000100000000000,
|
|
11,
|
|
10003330,
|
|
0222,
|
|
#MEASURE 3/4
|
|
022,
|
|
#MEASURE 4/4
|
|
0222,
|
|
#MEASURE 3/4
|
|
022,
|
|
#MEASURE 4/4
|
|
2,//63
|
|
|
|
#GOGOSTART
|
|
1111,
|
|
100000000000100000000000500000000008000000000000,
|
|
1111,
|
|
1110,
|
|
1120,
|
|
1120,
|
|
#MEASURE 3/4
|
|
111,
|
|
111,
|
|
331,
|
|
111,
|
|
111,
|
|
333,//75
|
|
|
|
#GOGOEND
|
|
#MEASURE 2/4
|
|
,
|
|
#MEASURE 4/4
|
|
2002,
|
|
02,
|
|
0200,
|
|
2002,
|
|
02,
|
|
0200,
|
|
2,
|
|
500000000000000000000000000000000000000000000008,
|
|
#MEASURE 2/4
|
|
,//85
|
|
|
|
#GOGOSTART
|
|
#MEASURE 4/4
|
|
1110,
|
|
100000000000500000000000000000000008000000000000,
|
|
1120,
|
|
1120,
|
|
1220,
|
|
1220,
|
|
#MEASURE 3/4
|
|
111,
|
|
111,
|
|
333,
|
|
111,
|
|
111,
|
|
333,
|
|
111,
|
|
111,
|
|
111,
|
|
111,
|
|
111,
|
|
111,
|
|
111,
|
|
101,
|
|
010,
|
|
101,
|
|
010,
|
|
101,
|
|
#MEASURE 4/4
|
|
0500,
|
|
000000000008000000000000000000000000000000000000,//111
|
|
|
|
#GOGOEND
|
|
,
|
|
,
|
|
#END |