624 lines
9.5 KiB
Plaintext
624 lines
9.5 KiB
Plaintext
//TJADB Project
|
|
TITLE:LUNATiC CiRCUiT
|
|
TITLEJA:LUNATiC CiRCUiT
|
|
SUBTITLE:--YOFUKASHi Sound Team from "Cosmic Radio 2024"
|
|
SUBTITLEJA:YOFUKASHi Sound Team from "Cosmic Radio 2024"
|
|
BPM:150
|
|
WAVE:LUNATiC CiRCUiT.ogg
|
|
OFFSET:-1.882
|
|
DEMOSTART:30.383
|
|
|
|
COURSE:Oni
|
|
LEVEL:10
|
|
BALLOON:8
|
|
SCOREINIT:970
|
|
SCOREDIFF:0
|
|
|
|
#START
|
|
1011201201500000,
|
|
000000000008000000000000200000200200000100200100, //2
|
|
|
|
1020102210221020,
|
|
100000200000100000200200100000200200100000202020,
|
|
1020102210221020,
|
|
1020112221010220,
|
|
|
|
1022102212221022,
|
|
1022102212212110,
|
|
1012101011111111,
|
|
#MEASURE 8/4
|
|
#BPMCHANGE 300
|
|
#SCROLL 0.5
|
|
10002220101010101000202020000000, //10
|
|
|
|
#MEASURE 4/4
|
|
#BPMCHANGE 150
|
|
#SCROLL 1
|
|
300000000000101010200200200100000100000200000100,
|
|
2101012021122211,
|
|
100000000000101010200200200100000100000200000100,
|
|
200100000100000200100000100200101010200100200000,
|
|
|
|
300000000000101010200200100200000200000200200200,
|
|
1202022212030300,
|
|
100000101010200000100100200000100200000100500000,
|
|
000000000000000008000000100200100000200000101010, //18
|
|
|
|
2010400122112012,
|
|
000000202020100100200100000100200200100100100200,
|
|
0010202101221012,
|
|
000000200000100200200100000200100000101010200000,
|
|
|
|
202020202020200000100100200200000100200200100200,
|
|
0211221211120122,
|
|
0010112122120222,
|
|
100200100200100100200200100200200100202020101010,
|
|
1010400010400100,
|
|
1010400100104000, //28
|
|
|
|
300000100222102002102002,
|
|
100200100222100202102002,
|
|
100001100001100101202100,
|
|
322322314140,
|
|
|
|
100020002001200020002002,
|
|
100020002001200000102102,
|
|
100202100202100202100202,
|
|
100010100010100010100000100000100000500008000000, //36
|
|
|
|
1000112210221202,
|
|
1220102212211210,
|
|
100000000000100200200200102020100000100100000200,
|
|
1222112210300300,
|
|
|
|
3000112212201202,
|
|
1202120211221222,
|
|
1000120212121050,
|
|
000008000000102020000102020000102020000102020000, //44
|
|
|
|
100000000000101010200200102020000102020000102020,
|
|
000102020000102020000100000200200200200200100100,
|
|
100000000000101010200200100200100200100200100200,
|
|
#MEASURE 8/4
|
|
#BPMCHANGE 300
|
|
#SCROLL 0.5
|
|
10222010202010202220102010202020,
|
|
|
|
#MEASURE 4/4
|
|
#BPMCHANGE 150
|
|
#SCROLL 1
|
|
100000200200100000100000102020202020100000200000,
|
|
#MEASURE 8/4
|
|
#BPMCHANGE 300
|
|
#SCROLL 0.5
|
|
10200010200020111020201000202020,
|
|
#MEASURE 4/4
|
|
#BPMCHANGE 150
|
|
#SCROLL 1
|
|
100000101010200000100100200000100200000100500000,
|
|
000000000000000008000000100000000000000000000000, //52
|
|
|
|
100020000000400000000000100020000000400000000400,
|
|
#MEASURE 2/4
|
|
0,
|
|
#MEASURE 4/4
|
|
#BPMCHANGE 170
|
|
2211111111104000, //55
|
|
|
|
1020102210221020,
|
|
100000200000100000200200100000200200100000202020,
|
|
1020102210221020,
|
|
1020112221010220,
|
|
|
|
1022102212221022,
|
|
1022102212212011,
|
|
1012101011111111,
|
|
1000221112221120, //63
|
|
|
|
#GOGOSTART
|
|
1112102212021120,
|
|
1112102212021211,
|
|
1202120211112212,
|
|
1021021012221212,
|
|
|
|
1102110212221122,
|
|
1102110212212210,
|
|
1112021120211120,
|
|
0030030030030030, //71
|
|
|
|
101010100000400000000000100000200100000200200200,
|
|
1022120101221122,
|
|
1001202212221022,
|
|
100200200100000200100200202010100000100000100000,
|
|
|
|
1112121211212212,
|
|
1112121211221212,
|
|
#MEASURE 8/4
|
|
#BPMCHANGE 340
|
|
#SCROLL 0.5
|
|
11102011102010201110201110202000,
|
|
#GOGOEND
|
|
#MEASURE 4/4
|
|
#BPMCHANGE 170
|
|
#SCROLL 1
|
|
100000200100200200100100202020100100200000100000, //79
|
|
|
|
3001221212212212,
|
|
1001022212212212,
|
|
1001122122112112,
|
|
100000000100100020002000300000000300000000300000,
|
|
|
|
000000100000100100200200100020001000200200100100,
|
|
2200110022001100,
|
|
2202110122021101,
|
|
2202110121212222, //87
|
|
|
|
1011201202101202,
|
|
5,
|
|
0,
|
|
000000000000000000000000000000000008000000700000,
|
|
08,
|
|
0, //93
|
|
#END
|
|
|
|
|
|
COURSE:Hard
|
|
LEVEL:8
|
|
BALLOON:6
|
|
SCOREINIT:1390
|
|
SCOREDIFF:0
|
|
|
|
#START
|
|
1010201101500000,
|
|
000000000008000000000000200000000200000000000000,
|
|
|
|
1020101110201000,
|
|
1020101110201000,
|
|
1020101110201000,
|
|
1020111022010220,
|
|
|
|
1020101110111020,
|
|
1020101110111020,
|
|
1011101011101111,
|
|
#MEASURE 8/4
|
|
#BPMCHANGE 300
|
|
#SCROLL 0.5
|
|
1020101110202000, //10
|
|
|
|
#MEASURE 4/4
|
|
#BPMCHANGE 150
|
|
#SCROLL 1
|
|
3000102022010200,
|
|
2201011020020020,
|
|
1000102022010100,
|
|
2201011020020020,
|
|
|
|
3000102022020220,
|
|
2202022011030300,
|
|
1011101020110150,
|
|
000000000000000008000000100100100000200000200200, //18
|
|
|
|
2010400110222011,
|
|
0020110101101102,
|
|
0010201101102022,
|
|
0020110100102220,
|
|
|
|
500000000008000000000000200200200000100100000100,
|
|
0110202011010222,
|
|
0010111022020220,
|
|
1110111022202011,
|
|
1010400010400100,
|
|
1010400100104000, //28
|
|
|
|
300000100200101002002002,
|
|
000000100200100202002002,
|
|
0000100010010010,
|
|
300000300000300040004000,
|
|
|
|
122122,
|
|
100020002000100000100100,
|
|
12121212,
|
|
100000100000100000100000000000000000500008000000, //36
|
|
|
|
1000101110202201,
|
|
1020102011101110,
|
|
1000102011102201,
|
|
1020102220300300,
|
|
|
|
3000102011102202,
|
|
0202020220111020,
|
|
1000220202011050,
|
|
000008000000100000000100000000100000000100000000, //44
|
|
|
|
3000102010010010,
|
|
0100100102220101,
|
|
1000102202020202,
|
|
#MEASURE 8/4
|
|
#BPMCHANGE 300
|
|
#SCROLL 0.5
|
|
1021021020111011,
|
|
|
|
#MEASURE 4/4
|
|
#BPMCHANGE 150
|
|
#SCROLL 1
|
|
1000101012012020,
|
|
#MEASURE 8/4
|
|
#BPMCHANGE 300
|
|
#SCROLL 0.5
|
|
1201202010010000,
|
|
#MEASURE 4/4
|
|
#BPMCHANGE 150
|
|
#SCROLL 1
|
|
1011101020110150,
|
|
000000000000000008000000100000000000000000000000, //52
|
|
|
|
200020000000400000000000200020000000400000000400,
|
|
#MEASURE 2/4
|
|
0,
|
|
#MEASURE 4/4
|
|
#BPMCHANGE 170
|
|
1114, //55
|
|
|
|
1020101110201000,
|
|
1020101110201000,
|
|
1020101110201000,
|
|
1020111022010220,
|
|
|
|
1020101110111020,
|
|
1020101110111020,
|
|
1011101011101111,
|
|
1000201022201020, //63
|
|
|
|
#GOGOSTART
|
|
1102102010201110,
|
|
1102102010201110,
|
|
1202020210111020,
|
|
1001001010201111,
|
|
|
|
1022010102201110,
|
|
1102010210210210,
|
|
1012010120210120,
|
|
0030030030030030, //71
|
|
|
|
3000400010210202,
|
|
1022020101021011,
|
|
1000200210111022,
|
|
2022010111101010,
|
|
|
|
1110202011101110,
|
|
1110202011102220,
|
|
#MEASURE 8/4
|
|
#BPMCHANGE 340
|
|
#SCROLL 0.5
|
|
1111022011110220,
|
|
#GOGOEND
|
|
#MEASURE 4/4
|
|
#BPMCHANGE 170
|
|
#SCROLL 1
|
|
1000220222202000, //79
|
|
|
|
3001020220110202,
|
|
1001020210210210,
|
|
1001022020110102,
|
|
1001000030030030,
|
|
|
|
000000100000100100100000200020002000200000100000,
|
|
2200110022001100,
|
|
2200110022001100,
|
|
2200110020202011, //87
|
|
|
|
1010201102201202,
|
|
5,
|
|
0,
|
|
000000000000000000000000000000000008000000700000,
|
|
08,
|
|
0, //93
|
|
#END
|
|
|
|
|
|
COURSE:Normal
|
|
LEVEL:7
|
|
BALLOON:5
|
|
SCOREINIT:2290
|
|
SCOREDIFF:0
|
|
|
|
#START
|
|
1000100100500000,
|
|
000000000008000000000000200000000000000000000000,
|
|
|
|
10111010,
|
|
10111010,
|
|
10111010,
|
|
1000101020020020,
|
|
|
|
10111011,
|
|
10111011,
|
|
10111110,
|
|
#MEASURE 8/4
|
|
#BPMCHANGE 300
|
|
#SCROLL 0.5
|
|
1012, //10
|
|
|
|
#MEASURE 4/4
|
|
#BPMCHANGE 150
|
|
#SCROLL 1
|
|
3000100020020000,
|
|
2002000020000000,
|
|
1000101020020000,
|
|
2002001010000000,
|
|
|
|
3000101010020200,
|
|
1002020010030300,
|
|
2000100010010050,
|
|
000000000000000008000000000000000000200000200000, //18
|
|
|
|
1000400010101002,
|
|
0000101010001002,
|
|
0000101010001002,
|
|
0000100200101000,
|
|
|
|
500000000008000000000000200000200000200000000200,
|
|
0010101010001002,
|
|
00101110,
|
|
11111120,
|
|
10400400,
|
|
1404, //28
|
|
|
|
300000100200100002000002,
|
|
000000100200100002000002,
|
|
0110,
|
|
300300303030,
|
|
|
|
22,
|
|
20002011,
|
|
10101212,
|
|
11110030, //36
|
|
|
|
10111020,
|
|
11111011,
|
|
10121010,
|
|
1020102010300300,
|
|
|
|
3000101010100202,
|
|
0202020200100020,
|
|
1000020202020050,
|
|
000008000000100000000100000000100000000100000000, //44
|
|
|
|
3000101010010010,
|
|
0100100102002010,
|
|
1000100202020200,
|
|
#MEASURE 8/4
|
|
#BPMCHANGE 300
|
|
#SCROLL 0.5
|
|
1001001000101010,
|
|
|
|
#MEASURE 4/4
|
|
#BPMCHANGE 150
|
|
#SCROLL 1
|
|
10111022,
|
|
#MEASURE 8/4
|
|
#BPMCHANGE 300
|
|
#SCROLL 0.5
|
|
1000202010010000,
|
|
#MEASURE 4/4
|
|
#BPMCHANGE 150
|
|
#SCROLL 1
|
|
1000100010010050,
|
|
000000000000000008000000000000000000000000000000, //52
|
|
|
|
4000000040004004,
|
|
#MEASURE 2/4
|
|
0,
|
|
#MEASURE 4/4
|
|
#BPMCHANGE 170
|
|
1114, //55
|
|
|
|
10111010,
|
|
10111010,
|
|
10111010,
|
|
1000101020020020,
|
|
|
|
10111011,
|
|
10111011,
|
|
10111110,
|
|
10202220, //63
|
|
|
|
#GOGOSTART
|
|
1002002000101010,
|
|
1002002000101010,
|
|
1002020200101020,
|
|
1001001010001000,
|
|
|
|
1002020200101010,
|
|
1002020200101010,
|
|
500000008000000500000008000000500000000008000000,
|
|
0030030030030030, //71
|
|
|
|
3000400010020200,
|
|
1002020201001000,
|
|
10201122,
|
|
2002010100101000,
|
|
|
|
11221110,
|
|
11221120,
|
|
#MEASURE 8/4
|
|
#BPMCHANGE 340
|
|
#SCROLL 0.5
|
|
1001020010010200,
|
|
#GOGOEND
|
|
#MEASURE 4/4
|
|
#BPMCHANGE 170
|
|
#SCROLL 1
|
|
10111020, //79
|
|
|
|
3001000010100100,
|
|
1001000010010010,
|
|
1001000010100100,
|
|
1001000030030030,
|
|
|
|
01102020,
|
|
0200010002000100,
|
|
0200010002000100,
|
|
2200110020202000, //87
|
|
|
|
1010202000100100,
|
|
5,
|
|
0,
|
|
000000000000000000000000000000000008000000700000,
|
|
08,
|
|
0, //93
|
|
#END
|
|
|
|
|
|
COURSE:Easy
|
|
LEVEL:5
|
|
BALLOON:4
|
|
SCOREINIT:4260
|
|
SCOREDIFF:0
|
|
|
|
#START
|
|
10100500,
|
|
000000000008000000000000200000000000000000000000,
|
|
|
|
1110,
|
|
1110,
|
|
1110,
|
|
1120,
|
|
|
|
1110,
|
|
1110,
|
|
1111,
|
|
#MEASURE 8/4
|
|
#BPMCHANGE 300
|
|
#SCROLL 0.5
|
|
12, //10
|
|
|
|
#MEASURE 4/4
|
|
#BPMCHANGE 150
|
|
#SCROLL 1
|
|
32,
|
|
22,
|
|
12,
|
|
21,
|
|
|
|
31,
|
|
1000000010030000,
|
|
00101005,
|
|
000000000000000008000000000000000000000000000000, //18
|
|
|
|
1000400010000002,
|
|
0000000010000002,
|
|
0000000010000002,
|
|
0000000200000000,
|
|
|
|
500000000008000000000000200000000000200000000000,
|
|
1000100010000002,
|
|
0011,
|
|
11101020,
|
|
10400400,
|
|
1404, //28
|
|
|
|
300000100000100000000002,
|
|
000000100000100000000002,
|
|
0110,
|
|
3330,
|
|
|
|
22,
|
|
22,
|
|
1111,
|
|
500000000000000008000000000000000000300000000000, //36
|
|
|
|
1112,
|
|
10111000,
|
|
1111,
|
|
1000100000300300,
|
|
|
|
3112,
|
|
10111000,
|
|
10102005,
|
|
000000000000000000000000000008000000000000000000, //44
|
|
|
|
3150,
|
|
000008000000000000000100000000000000000000000000,
|
|
1110,
|
|
#MEASURE 8/4
|
|
#BPMCHANGE 300
|
|
#SCROLL 0.5
|
|
500000000000000000000000000000000000000000000000000000000000000008000000000000000000000000000000,
|
|
|
|
#MEASURE 4/4
|
|
#BPMCHANGE 150
|
|
#SCROLL 1
|
|
1112,
|
|
#MEASURE 8/4
|
|
#BPMCHANGE 300
|
|
#SCROLL 0.5
|
|
1210,
|
|
#MEASURE 4/4
|
|
#BPMCHANGE 150
|
|
#SCROLL 1
|
|
00101005,
|
|
000000000000000008000000000000000000000000000000, //52
|
|
|
|
4000000040000006,
|
|
#MEASURE 2/4
|
|
000000008000000000000000,
|
|
#MEASURE 4/4
|
|
#BPMCHANGE 170
|
|
0004, //55
|
|
|
|
1110,
|
|
1110,
|
|
1110,
|
|
1120,
|
|
|
|
1110,
|
|
1110,
|
|
1111,
|
|
12, //63
|
|
|
|
#GOGOSTART
|
|
10020010,
|
|
10020010,
|
|
1111,
|
|
10010000,
|
|
|
|
1000000200001000,
|
|
10020010,
|
|
500000000000000000000000000000000008000000000000,
|
|
03003003, //71
|
|
|
|
0410,
|
|
1110,
|
|
1210,
|
|
1210,
|
|
|
|
11101010,
|
|
11101010,
|
|
#MEASURE 8/4
|
|
#BPMCHANGE 340
|
|
#SCROLL 0.5
|
|
1000100010010010,
|
|
#GOGOEND
|
|
#MEASURE 4/4
|
|
#BPMCHANGE 170
|
|
#SCROLL 1
|
|
0, //79
|
|
|
|
31,
|
|
3000000010010000,
|
|
31,
|
|
3000000030030030,
|
|
|
|
0022,
|
|
0200000002000000,
|
|
0200000002000000,
|
|
0200000020202000, //87
|
|
|
|
1010100000100100,
|
|
5,
|
|
0,
|
|
000000000000000000000000000000000008000000700000,
|
|
08,
|
|
0, //93
|
|
#END |