409 lines
4.7 KiB
Plaintext
409 lines
4.7 KiB
Plaintext
//TJADB Project
|
|
TITLE:Storyteller
|
|
TITLEJA:Storyteller
|
|
SUBTITLE:--TRUE / That Time I Got Reincarnated As A Slime
|
|
SUBTITLEJA:「転生したらスライムだった件」より
|
|
BPM:192
|
|
WAVE:Storyteller.ogg
|
|
OFFSET:-0.538
|
|
DEMOSTART:45.537
|
|
|
|
COURSE:Oni
|
|
LEVEL:7
|
|
BALLOON:20
|
|
SCOREINIT:2340
|
|
SCOREDIFF:0
|
|
|
|
#START
|
|
1000201000102011,
|
|
11202020,
|
|
1000201000102011,
|
|
11202020,
|
|
1000201000102011,
|
|
12020200,
|
|
|
|
10211221,
|
|
0010201000102011,
|
|
1000201010202011,
|
|
100000200000100000200000100000500000000000000008, //10
|
|
|
|
00101101,
|
|
02020202,
|
|
00101101,
|
|
02020202,
|
|
|
|
00101101,
|
|
02020202,
|
|
00000002,
|
|
1110003000300040, //18
|
|
|
|
0000200010102011,
|
|
1010201110202010,
|
|
1000200010102011,
|
|
1010201110202000,
|
|
|
|
1000201010002011,
|
|
2010201110107000,
|
|
0,
|
|
80001121, //26
|
|
|
|
21010121,
|
|
0022202010102010,
|
|
21010121,
|
|
0011202010102010,
|
|
|
|
2010001000102011,
|
|
1010201010221020,
|
|
33044033,
|
|
04403040,
|
|
12212212,
|
|
21221020, //36
|
|
|
|
#GOGOSTART
|
|
10201120,
|
|
1000200010102011,
|
|
1010201120102010,
|
|
01210220,
|
|
|
|
1010200011102220,
|
|
1010222011105000,
|
|
000000000000000000000000000000000000000000000008,
|
|
0000200020002011, //44
|
|
|
|
1000200020002011,
|
|
1000200020002011,
|
|
1000200020111020,
|
|
2010201010221020,
|
|
|
|
33330233,
|
|
33023332,
|
|
11111111,
|
|
2020202020202222, //52
|
|
|
|
10201120,
|
|
1000200010102011,
|
|
1010201120102010,
|
|
01210220,
|
|
|
|
1010200011102220,
|
|
1010222011105000,
|
|
000000000000000000000000000000000008000000200000,
|
|
500000000000000000000000000000000000000008000000, //60
|
|
|
|
0000200020002011,
|
|
1000200020002011,
|
|
1000200020222010,
|
|
2010201020112000,
|
|
|
|
1010201110102010,
|
|
0010201000102011,
|
|
2020102011201020,
|
|
0022202020221110, //68
|
|
#GOGOEND
|
|
|
|
06,
|
|
0,
|
|
000000000000000000000000000008000000000000000000,
|
|
0, //72
|
|
#END
|
|
|
|
|
|
COURSE:Hard
|
|
LEVEL:5
|
|
BALLOON:14,14
|
|
SCOREINIT:3310
|
|
SCOREDIFF:0
|
|
|
|
#START
|
|
10110111,
|
|
01202020,
|
|
10110111,
|
|
01202020,
|
|
10110111,
|
|
04040400,
|
|
|
|
10221011,
|
|
02020201,
|
|
10221011,
|
|
03030300, //10
|
|
|
|
00101101,
|
|
02020202,
|
|
00101101,
|
|
02020202,
|
|
|
|
00101101,
|
|
02020202,
|
|
00000002,
|
|
11030303, //18
|
|
|
|
00101102,
|
|
01120221,
|
|
00101102,
|
|
01120220,
|
|
|
|
10221011,
|
|
10210270,
|
|
0,
|
|
80001122, //26
|
|
|
|
11010112,
|
|
02201122,
|
|
11010112,
|
|
02201122,
|
|
|
|
11010112,
|
|
02202000,
|
|
33044033,
|
|
04403040,
|
|
7,
|
|
0800, //36
|
|
|
|
#GOGOSTART
|
|
10201120,
|
|
10201122,
|
|
02211221,
|
|
01120200,
|
|
|
|
10201120,
|
|
10221050,
|
|
000000000000000000000000000000000000000000000008,
|
|
0222, //44
|
|
|
|
1222,
|
|
1222,
|
|
10201122,
|
|
01122102,
|
|
|
|
33330233,
|
|
33023330,
|
|
600000000000000000000000000000000000000008000000,
|
|
00222020, //52
|
|
|
|
10201120,
|
|
10201122,
|
|
02211221,
|
|
01120200,
|
|
|
|
10201120,
|
|
10221050,
|
|
000000000000000000000000000000000008000000200000,
|
|
500000000000000000000000000000000000000008000000, //60
|
|
|
|
0222,
|
|
1222,
|
|
10202211,
|
|
02210200,
|
|
|
|
11220221,
|
|
01200120,
|
|
22112211,
|
|
02222110, //68
|
|
#GOGOEND
|
|
|
|
06,
|
|
0,
|
|
000000000000000000000000000008000000000000000000,
|
|
0, //72
|
|
#END
|
|
|
|
|
|
COURSE:Normal
|
|
LEVEL:4
|
|
BALLOON:10,12
|
|
SCOREINIT:6090
|
|
SCOREDIFF:0
|
|
|
|
#START
|
|
500000000000000000000000000000000000000000000008,
|
|
0222,
|
|
500000000000000000000000000000000000000000000008,
|
|
0222,
|
|
500000000000000000000000000000000000000008000000,
|
|
04040400,
|
|
|
|
10011001,
|
|
01010100,
|
|
10011003,
|
|
03030300, //10
|
|
|
|
0110,
|
|
01010101,
|
|
0110,
|
|
01010101,
|
|
|
|
0110,
|
|
01010101,
|
|
0,
|
|
30030303, //18
|
|
|
|
00101001,
|
|
01010101,
|
|
00101001,
|
|
01010100,
|
|
|
|
10011005,
|
|
0,
|
|
000008000000000000000000000000000000000000000000,
|
|
02, //26
|
|
|
|
11010101,
|
|
02,
|
|
11010101,
|
|
02,
|
|
|
|
11010101,
|
|
0220,
|
|
30030030,
|
|
03009000,
|
|
00000900,
|
|
8, //36
|
|
|
|
#GOGOSTART
|
|
1122,
|
|
00200220,
|
|
10102001,
|
|
01010100,
|
|
|
|
1122,
|
|
1125,
|
|
000000000000000000000000000000000000000000000008,
|
|
0222, //44
|
|
|
|
0222,
|
|
0222,
|
|
05,
|
|
000000000000000000000000000000000008000000000000,
|
|
|
|
30030030,
|
|
03003000,
|
|
7,
|
|
0800, //52
|
|
|
|
1122,
|
|
00200220,
|
|
10102001,
|
|
01010100,
|
|
|
|
1122,
|
|
1125,
|
|
0,
|
|
000000000000000000000000000000000000000008000000, //60
|
|
|
|
0222,
|
|
0222,
|
|
05,
|
|
000000000000000000000000000000000008000000000000,
|
|
|
|
11010101,
|
|
0001,
|
|
11010101,
|
|
01101010, //68
|
|
#GOGOEND
|
|
|
|
06,
|
|
0,
|
|
000000000000000000000000000008000000000000000000,
|
|
0, //72
|
|
#END
|
|
|
|
|
|
COURSE:Easy
|
|
LEVEL:3
|
|
BALLOON:8,9
|
|
SCOREINIT:10150
|
|
SCOREDIFF:0
|
|
|
|
#START
|
|
500000000000000000000000000000000000000008000000,
|
|
0111,
|
|
500000000000000000000000000000000000000008000000,
|
|
0111,
|
|
500000000000000000000000000000000008000000000000,
|
|
03030300,
|
|
|
|
10001001,
|
|
0,
|
|
10001005,
|
|
000000000000000000000000000000000000000008000000, //10
|
|
|
|
0110,
|
|
00010000,
|
|
0110,
|
|
00010000,
|
|
|
|
0110,
|
|
00010000,
|
|
0,
|
|
30030303, //18
|
|
|
|
00101001,
|
|
00010000,
|
|
00101001,
|
|
00010000,
|
|
|
|
20002005,
|
|
0,
|
|
000008000000000000000000000000000000000000000000,
|
|
0, //26
|
|
|
|
10010001,
|
|
0,
|
|
10010001,
|
|
0,
|
|
|
|
10010001,
|
|
0,
|
|
30030030,
|
|
03009000,
|
|
00000900,
|
|
8, //36
|
|
|
|
#GOGOSTART
|
|
1111,
|
|
00000500,
|
|
0,
|
|
000000000000000000000000000008000000000000000000,
|
|
|
|
1111,
|
|
0115,
|
|
000000000000000000000000000000000000000008000000,
|
|
0222, //44
|
|
|
|
0222,
|
|
0222,
|
|
05,
|
|
000000000000000000000000000008000000000000000000,
|
|
|
|
3003,
|
|
03,
|
|
7,
|
|
0800, //52
|
|
|
|
1111,
|
|
00000500,
|
|
0,
|
|
000000000000000000000000000008000000000000000000,
|
|
|
|
1111,
|
|
0115,
|
|
0,
|
|
000000000000000000000000000000000000000008000000, //60
|
|
|
|
0222,
|
|
0222,
|
|
05,
|
|
000000000000000000000000000008000000000000000000,
|
|
|
|
10000101,
|
|
0001,
|
|
10000001,
|
|
0111, //68
|
|
#GOGOEND
|
|
|
|
06,
|
|
0,
|
|
000000000000000000000000000008000000000000000000,
|
|
0, //72
|
|
#END
|