1009 lines
12 KiB
Plaintext
1009 lines
12 KiB
Plaintext
//TJADB Project
|
|
TITLE:Soulway
|
|
TITLEJA:Soulway
|
|
SUBTITLE:--CHUBAY
|
|
SUBTITLEJA:CHUBAY
|
|
BPM:185
|
|
WAVE:Soulway.ogg
|
|
OFFSET:-0.727
|
|
DEMOSTART:46.569
|
|
|
|
COURSE:Oni
|
|
LEVEL:10
|
|
BALLOON:2
|
|
SCOREINIT:900
|
|
SCOREDIFF:0
|
|
|
|
#START
|
|
2022202222222220,
|
|
2022202222222220,
|
|
2022222022222000,
|
|
202020200200200020002000500000000000000008000000, //4
|
|
|
|
#GOGOSTART
|
|
1011112011112011,
|
|
2011112011112011,
|
|
100000000000101010100100100100100100100100100000,
|
|
0, //8
|
|
#GOGOEND
|
|
|
|
10121011,
|
|
1020102012201022, //10
|
|
|
|
#BRANCHSTART r,7,7
|
|
#N
|
|
1000102010001022,
|
|
1010102010221120, //n12
|
|
|
|
1000102010101022,
|
|
21121212,
|
|
1010101111111111,
|
|
1000000030030030,
|
|
|
|
1010201110102011,
|
|
1010201110221020,
|
|
1011202011202022,
|
|
1010001110102211, //n20
|
|
|
|
1010201110102010,
|
|
300100000300100100111100,
|
|
1010201210102222,
|
|
1000001210000000,
|
|
|
|
100101101111,
|
|
100222222222,
|
|
200102201101,
|
|
3333, //n28
|
|
|
|
3000201110102010,
|
|
1010201020222020,
|
|
2011201020112010,
|
|
2011201020112010,
|
|
|
|
2010102010102011,
|
|
1020111020112011,
|
|
2222111122221111,
|
|
13000010, //n36
|
|
|
|
#GOGOSTART
|
|
3000201110102020,
|
|
1011201020002020,
|
|
1110202011102022,
|
|
1000201010222220,
|
|
|
|
3000201110102020,
|
|
1011201020002020,
|
|
1110202210102010,
|
|
1000201111101000, //n44
|
|
|
|
3000201110102020,
|
|
1011201020002020,
|
|
1000111111111111,
|
|
03303030,
|
|
|
|
3000201110102020,
|
|
1011201020221020,
|
|
1110201110201120,
|
|
30330330,
|
|
|
|
20222220,
|
|
2020202020000011,
|
|
1010101010002011,
|
|
1000103000301111, //n56
|
|
#GOGOEND
|
|
|
|
10303232,
|
|
30303232,
|
|
30303232,
|
|
30303232,
|
|
|
|
30012020,
|
|
101202,
|
|
500000000000000000000000000000000000000008000000, //n63
|
|
|
|
#E
|
|
1000102010001022,
|
|
1010102010221120, //e12
|
|
|
|
1000102010101022,
|
|
21121212,
|
|
1010101111111111,
|
|
1000000030030030,
|
|
|
|
1010201110102011,
|
|
1010201110221020,
|
|
1011202011202022,
|
|
1010001110102211, //e20
|
|
|
|
1010201110102010,
|
|
300100000300100100111100,
|
|
1010201210102222,
|
|
1000001210000000,
|
|
|
|
100101101111,
|
|
100222222222,
|
|
200102201101,
|
|
3333, //e28
|
|
|
|
3000201110102010,
|
|
1010201020222020,
|
|
2011201020112010,
|
|
2011201020112010,
|
|
|
|
2010102010102011,
|
|
1020111020112011,
|
|
2222111122221111,
|
|
13000010, //e36
|
|
|
|
#GOGOSTART
|
|
3000201110102020,
|
|
1011201020002020,
|
|
1110202011102022,
|
|
1000201010222220,
|
|
|
|
3000201110102020,
|
|
1011201020002020,
|
|
1110202210102010,
|
|
1000201111101000, //e44
|
|
|
|
3000201110102020,
|
|
1011201020002020,
|
|
1000111111111111,
|
|
03303030,
|
|
|
|
3000201110102020,
|
|
1011201020221020,
|
|
1110201110201120,
|
|
30330330,
|
|
|
|
20222220,
|
|
2020202020000011,
|
|
1010101010002011,
|
|
1000103000301111, //e56
|
|
#GOGOEND
|
|
|
|
10303232,
|
|
30303232,
|
|
30303232,
|
|
30303232,
|
|
|
|
30012020,
|
|
101202,
|
|
500000000000000000000000000000000000000008000000, //e63
|
|
|
|
#M
|
|
10121011,
|
|
1110201110201120, //m12
|
|
|
|
#LEVELHOLD
|
|
2022222211111111,
|
|
2222111122221122,
|
|
2111221121212120,
|
|
3000000030030030,
|
|
|
|
1010201011102011,
|
|
0110201222101222,
|
|
1011202011102010,
|
|
2020002000202222, //m20
|
|
|
|
1021121211212120,
|
|
7000801111112220,
|
|
3030121021101210,
|
|
300000000000111010111010,
|
|
|
|
101101101111,
|
|
100222222222,
|
|
200102201111,
|
|
111000300000300000300000, //m28
|
|
|
|
3010201110102012,
|
|
1010201110102011,
|
|
2011201120112011,
|
|
2011201120112010,
|
|
|
|
2121201212102121,
|
|
200000100200100200100000202020100100202020100100,
|
|
2211221122111111,
|
|
13000010, //m36
|
|
|
|
#GOGOSTART
|
|
3000201210102010,
|
|
1011201120102022,
|
|
1111202210102020,
|
|
1000201010222220,
|
|
|
|
3000201210102010,
|
|
1011201120102022,
|
|
1111202210102010,
|
|
1000201122202000, //m44
|
|
|
|
3000201210102010,
|
|
1011201020002020,
|
|
1011111111111111,
|
|
03303030,
|
|
|
|
3000201210102010,
|
|
1011201120221122,
|
|
1111201111202220,
|
|
3000301210101210,
|
|
|
|
2011211021102010,
|
|
2111201020112011,
|
|
100100100100100222200200,
|
|
3030003000301111, //m56
|
|
#GOGOEND
|
|
|
|
10303232,
|
|
30303232,
|
|
30303232,
|
|
30303232,
|
|
|
|
30012020,
|
|
101010202222,
|
|
500000000000000000000000000000000000000008000000, //m63
|
|
|
|
#BRANCHSTART p,-1,101
|
|
#N
|
|
2022202222222220, //n64
|
|
|
|
#GOGOSTART
|
|
3022201120120120,
|
|
1022201120020020,
|
|
0012111211121120,
|
|
1120202020020020,
|
|
|
|
0040401120020020,
|
|
1022011022011022,
|
|
1111222211221111,
|
|
1000001120101010, //n72
|
|
|
|
3000101210210210,
|
|
1012121012121010,
|
|
000000500080000500080000500080000500080000500000,
|
|
000000000008000000200200100100200000100100200000,
|
|
|
|
3000222000111000,
|
|
2220001110112222,
|
|
1012121212121212,
|
|
0000400030030030, //n80
|
|
#GOGOEND
|
|
|
|
1011101020101011,
|
|
1010201022201022,
|
|
1011101020101011,
|
|
1010201010111110,
|
|
|
|
30014000,
|
|
30014000,
|
|
3000001040101111,
|
|
20014010, //n88
|
|
|
|
111111111111,
|
|
1110111011101110,
|
|
2011111111111111,
|
|
2,
|
|
|
|
2,
|
|
00000022,
|
|
200000000000000000220000,
|
|
10011110,
|
|
|
|
#MEASURE 1/4
|
|
0, //n97
|
|
|
|
#E
|
|
2022202222222220, //e64
|
|
|
|
#GOGOSTART
|
|
3022201120120120,
|
|
1022201120020020,
|
|
0012111211121120,
|
|
1120202020020020,
|
|
|
|
0040401120020020,
|
|
1022011022011022,
|
|
1111222211221111,
|
|
1000001120101010, //e72
|
|
|
|
3000101210210210,
|
|
1012121012121010,
|
|
000000500080000500080000500080000500080000500000,
|
|
000000000008000000200200100100200000100100200000,
|
|
|
|
3000222000111000,
|
|
2220001110112222,
|
|
1012121212121212,
|
|
0000400030030030, //e80
|
|
#GOGOEND
|
|
|
|
1011101020101011,
|
|
1010201022201022,
|
|
1011101020101011,
|
|
1010201010111110,
|
|
|
|
30014000,
|
|
30014000,
|
|
3000001040101111,
|
|
20014010, //e88
|
|
|
|
111111111111,
|
|
1110111011101110,
|
|
2011111111111111,
|
|
2,
|
|
|
|
2,
|
|
00000022,
|
|
200000000000000000220000,
|
|
10011110,
|
|
|
|
#MEASURE 1/4
|
|
0, //e97
|
|
|
|
#M
|
|
2022202222222220, //m64
|
|
|
|
#GOGOSTART
|
|
3011201220120122,
|
|
1221201120120120,
|
|
200000100200101010200200100100200200101010200200,
|
|
1121212120120110,
|
|
|
|
0040401121121120,
|
|
1022011022011022,
|
|
100200100100200200100100101010200200100100200200,
|
|
1000001120101010, //m72
|
|
|
|
3000101210210210,
|
|
1012121212112211,
|
|
000000101010000101010000101010000101010000101010,
|
|
2020102212201220,
|
|
|
|
3000222020111010,
|
|
2220201111112212,
|
|
1012121212121212,
|
|
0000400030030030,//m80
|
|
#GOGOEND
|
|
|
|
1011101020101011,
|
|
1010201022201022,
|
|
1011101020101011,
|
|
1010201010111110,
|
|
|
|
300000000110400000000000,
|
|
300000000110400000000000,
|
|
100010001000100010001000400000101010100100100100,
|
|
20014010, //m88
|
|
|
|
111111111111,
|
|
1111111111111111,
|
|
200000100100100100100100100100100100101010101010,
|
|
220000000000000000000000,
|
|
|
|
2,
|
|
00000022,
|
|
200000000000000000220000,
|
|
10011110,
|
|
|
|
#MEASURE 1/4
|
|
0, //m97
|
|
|
|
#BRANCHSTART p,-2,-1
|
|
#N
|
|
#BARLINEOFF
|
|
#MEASURE 3/4
|
|
#GOGOSTART
|
|
301111111111,
|
|
#BARLINEON
|
|
#MEASURE 4/4
|
|
2121212122112211,
|
|
1010201110102011,
|
|
1010201110112222,
|
|
|
|
1010201110102010,
|
|
1011201020002022,
|
|
1111201110102022,
|
|
1111202211102210, //n105
|
|
|
|
3022203022203022,
|
|
2030222030002222,
|
|
2222222211111111,
|
|
#GOGOEND
|
|
1,
|
|
0,
|
|
|
|
#GOGOSTART
|
|
2011112011112011,
|
|
100100200000100100100100200000101010200200200200,
|
|
2011222011222011,
|
|
200200200000100100200200200000101010200000400000, //n114
|
|
#GOGOEND
|
|
|
|
0,
|
|
0,
|
|
0,
|
|
0, //n118
|
|
|
|
#E
|
|
#BARLINEOFF
|
|
#MEASURE 3/4
|
|
#GOGOSTART
|
|
301111111111,
|
|
#BARLINEON
|
|
#MEASURE 4/4
|
|
2121212122112211,
|
|
1010201110102011,
|
|
1010201110112222,
|
|
|
|
1010201110102010,
|
|
1011201020002022,
|
|
1111201110102022,
|
|
1111202211102210, //e105
|
|
|
|
3022203022203022,
|
|
2030222030002222,
|
|
2222222211111111,
|
|
#GOGOEND
|
|
1,
|
|
0,
|
|
|
|
#GOGOSTART
|
|
2011112011112011,
|
|
100100200000100100100100200000101010200200200200,
|
|
2011222011222011,
|
|
200200200000100100200200200000101010200000400000, //e114
|
|
#GOGOEND
|
|
|
|
0,
|
|
0,
|
|
0,
|
|
0, //e118
|
|
|
|
#M
|
|
#BARLINEOFF
|
|
#MEASURE 3/4
|
|
#GOGOSTART
|
|
301111111111,
|
|
#BARLINEON
|
|
#MEASURE 4/4
|
|
2121212122112211,
|
|
1010201110102011,
|
|
1010201110112222,
|
|
|
|
1010201110102010,
|
|
1011201020002022,
|
|
1111201110102022,
|
|
1111202211102210, //m105
|
|
|
|
3022203022203022,
|
|
2030222030002222,
|
|
2222222211111111,
|
|
#GOGOEND
|
|
1,
|
|
0,
|
|
|
|
#GOGOSTART
|
|
2011112011112011,
|
|
100100200000100100100100200000101010200200200200,
|
|
2011222011222011,
|
|
200200200000100100200200200000101010200000400000, //m114
|
|
#GOGOEND
|
|
|
|
0,
|
|
0,
|
|
0,
|
|
0, //m118
|
|
#BRANCHEND
|
|
#END
|
|
|
|
|
|
COURSE:Hard
|
|
LEVEL:6
|
|
BALLOON:10,9,12,12
|
|
SCOREINIT:2020
|
|
SCOREDIFF:0
|
|
|
|
#START
|
|
22202020,
|
|
22202020,
|
|
22222070,
|
|
08, //4
|
|
|
|
#GOGOSTART
|
|
10101110,
|
|
10101110,
|
|
10111115,
|
|
000000000000000000000000000000000008000000000000, //8
|
|
#GOGOEND
|
|
|
|
10121010,
|
|
10101110,
|
|
10121010,
|
|
10101110, //12
|
|
|
|
20222022,
|
|
02011010,
|
|
1010101010101110,
|
|
3000000030030030,
|
|
|
|
1000201010100011,
|
|
11110210,
|
|
1000201010100011,
|
|
11011211, //20
|
|
|
|
10211120,
|
|
31031111,
|
|
01201120,
|
|
500000000000000000000000000000000008000000000000,
|
|
|
|
100101100100,
|
|
100202200200,
|
|
200102200100,
|
|
3333, //28
|
|
|
|
30201120,
|
|
11112011,
|
|
10201120,
|
|
10201120,
|
|
|
|
500000000000000000000000000000000008000000000000,
|
|
600000000000000000000000000000000008000000000000,
|
|
7008,
|
|
33000000, //36
|
|
|
|
#GOGOSTART
|
|
3000201110002000,
|
|
1011100010002020,
|
|
11201120,
|
|
10211110,
|
|
|
|
3000201110002000,
|
|
1011100010002020,
|
|
11201120,
|
|
10211120, //44
|
|
|
|
3000201110002000,
|
|
1011100010002020,
|
|
10111111,
|
|
03303030,
|
|
|
|
3000201110002000,
|
|
1011100010002010,
|
|
20111111,
|
|
500000000000000000000000000000000008000000000000,
|
|
|
|
20222220,
|
|
2020202020000011,
|
|
11111001,
|
|
10130300, //56
|
|
#GOGOEND
|
|
|
|
1111,
|
|
1111,
|
|
1111,
|
|
1111,
|
|
|
|
1,
|
|
202202,
|
|
500000000000000000000000000000000000000008000000,
|
|
0, //64
|
|
|
|
#GOGOSTART
|
|
3111,
|
|
1110101020000000,
|
|
10101110,
|
|
1110101020002000,
|
|
|
|
04402020,
|
|
2121,
|
|
2220202020202000,
|
|
11, //72
|
|
|
|
3212,
|
|
12121210,
|
|
1020102010201110,
|
|
500000000000000000000000000000000000000000000008,
|
|
|
|
00200200,
|
|
10010111,
|
|
9009,
|
|
8, //80
|
|
#GOGOEND
|
|
|
|
1111,
|
|
11102010,
|
|
1111,
|
|
11102020,
|
|
|
|
34,
|
|
34,
|
|
34,
|
|
3011, //88
|
|
|
|
6,
|
|
000000000000000000000000000000000008000000000000,
|
|
7,
|
|
8,
|
|
|
|
2,
|
|
0,
|
|
0,
|
|
10011110, //96
|
|
|
|
#MEASURE 1/4
|
|
0,
|
|
#BARLINEOFF
|
|
#MEASURE 3/4
|
|
#GOGOSTART
|
|
311111,
|
|
#BARLINEON
|
|
#MEASURE 4/4
|
|
1010101011101000,
|
|
1000200011101000,
|
|
1000200011101000,
|
|
|
|
1000201110002000,
|
|
1011100010002020,
|
|
10211120,
|
|
10102200, //105
|
|
|
|
30230230,
|
|
23023060,
|
|
008,
|
|
#GOGOEND
|
|
3,
|
|
0,
|
|
|
|
#GOGOSTART
|
|
21121121,
|
|
12112022,
|
|
21121121,
|
|
12112044, //114
|
|
#GOGOEND
|
|
|
|
0,
|
|
0,
|
|
0,
|
|
0, //118
|
|
#END
|
|
|
|
|
|
COURSE:Normal
|
|
LEVEL:6
|
|
BALLOON:7,6,9,9
|
|
SCOREINIT:2760
|
|
SCOREDIFF:0
|
|
|
|
#START
|
|
2,
|
|
2,
|
|
20020070,
|
|
08, //4
|
|
|
|
#GOGOSTART
|
|
1110,
|
|
1110,
|
|
10101115,
|
|
000000000000000000000000000000000008000000000000, //8
|
|
#GOGOEND
|
|
|
|
11,
|
|
10101110,
|
|
11,
|
|
10101110, //12
|
|
|
|
20002002,
|
|
02001010,
|
|
11111110,
|
|
3000000030030030,
|
|
|
|
1212,
|
|
10220110,
|
|
1212,
|
|
10220111, //20
|
|
|
|
1212,
|
|
30030110,
|
|
1210,
|
|
500000000000000000000000000000000008000000000000,
|
|
|
|
1011,
|
|
1022,
|
|
2021,
|
|
3333, //28
|
|
|
|
3012,
|
|
11101010,
|
|
10201110,
|
|
10201110,
|
|
|
|
500000000000000000000000000000000008000000000000,
|
|
600000000000000000000000000000000008000000000000,
|
|
7008,
|
|
33000000, //36
|
|
|
|
#GOGOSTART
|
|
3012,
|
|
11101011,
|
|
1212,
|
|
2011,
|
|
|
|
3012,
|
|
11101011,
|
|
1212,
|
|
1022, //44
|
|
|
|
3012,
|
|
11101011,
|
|
10201111,
|
|
0033,
|
|
|
|
3012,
|
|
11101020,
|
|
20011010,
|
|
500000000000000000000000000000000008000000000000,
|
|
|
|
22,
|
|
20202001,
|
|
11111001,
|
|
30130300, //56
|
|
#GOGOEND
|
|
|
|
1111,
|
|
1111,
|
|
1111,
|
|
1111,
|
|
|
|
1,
|
|
22,
|
|
500000000000000000000000000000000000000008000000,
|
|
0, //64
|
|
|
|
#GOGOSTART
|
|
3111,
|
|
11102000,
|
|
10101110,
|
|
500000000000000000000000000000000000000008000000,
|
|
|
|
04402020,
|
|
2121,
|
|
22202020,
|
|
11, //72
|
|
|
|
3212,
|
|
11101010,
|
|
11102220,
|
|
500000000000000000000000000000000000000000000008,
|
|
|
|
00200200,
|
|
10010111,
|
|
9009,
|
|
8, //80
|
|
#GOGOEND
|
|
|
|
1111,
|
|
11101010,
|
|
1111,
|
|
11101010,
|
|
|
|
34,
|
|
34,
|
|
34,
|
|
3011, //88
|
|
|
|
6,
|
|
000000000000000000000000000000000008000000000000,
|
|
7,
|
|
8,
|
|
|
|
2,
|
|
0,
|
|
0,
|
|
20011110, //96
|
|
|
|
#MEASURE 1/4
|
|
0,
|
|
#BARLINEOFF
|
|
#MEASURE 3/4
|
|
#GOGOSTART
|
|
311,
|
|
#BARLINEON
|
|
#MEASURE 4/4
|
|
11110220,
|
|
10210110,
|
|
10210110,
|
|
|
|
1012,
|
|
10111011,
|
|
10201110,
|
|
10102200, //105
|
|
|
|
30130130,
|
|
13013060,
|
|
008,
|
|
#GOGOEND
|
|
3,
|
|
0,
|
|
|
|
#GOGOSTART
|
|
22220220,
|
|
22022020,
|
|
22220220,
|
|
22022044, //114
|
|
#GOGOEND
|
|
|
|
0,
|
|
0,
|
|
0,
|
|
0, //118
|
|
#END
|
|
|
|
|
|
COURSE:Easy
|
|
LEVEL:3
|
|
BALLOON:5,7,7
|
|
SCOREINIT:5270
|
|
SCOREDIFF:0
|
|
|
|
#START
|
|
0,
|
|
0,
|
|
0,
|
|
0, //4
|
|
|
|
#GOGOSTART
|
|
1,
|
|
1,
|
|
10001005,
|
|
000000000000000000000000000008000000000000000000, //8
|
|
#GOGOEND
|
|
|
|
1,
|
|
1,
|
|
1,
|
|
1, //12
|
|
|
|
20000002,
|
|
01,
|
|
1,
|
|
3,
|
|
|
|
11,
|
|
11,
|
|
2,
|
|
1, //20
|
|
|
|
11,
|
|
30030000,
|
|
11,
|
|
500000000000000000000000000008000000000000000000,
|
|
|
|
1,
|
|
1,
|
|
21,
|
|
3333, //28
|
|
|
|
31,
|
|
1110,
|
|
11,
|
|
1110,
|
|
|
|
500000000000000000000000000000000008000000000000,
|
|
600000000000000000000000000000000008000000000000,
|
|
7008,
|
|
3, //36
|
|
|
|
#GOGOSTART
|
|
32,
|
|
1110,
|
|
11,
|
|
1011,
|
|
|
|
32,
|
|
1110,
|
|
11,
|
|
1011, //44
|
|
|
|
32,
|
|
1110,
|
|
10001001,
|
|
0033,
|
|
|
|
32,
|
|
1110,
|
|
22,
|
|
500000000000000000000000000008000000000000000000,
|
|
|
|
22,
|
|
2220,
|
|
11,
|
|
30030000, //56
|
|
#GOGOEND
|
|
|
|
1,
|
|
1,
|
|
1,
|
|
11,
|
|
|
|
1,
|
|
22,
|
|
500000000000000000000000000000000000000008000000,
|
|
0, //64
|
|
|
|
#GOGOSTART
|
|
31,
|
|
1110,
|
|
1111,
|
|
500000000000000000000000000000000000000008000000,
|
|
|
|
0420,
|
|
2220,
|
|
22,
|
|
1, //72
|
|
|
|
32,
|
|
1210,
|
|
1212,
|
|
500000000000000000000000000000000000000008000000,
|
|
|
|
00200200,
|
|
10010010,
|
|
9009,
|
|
8, //80
|
|
#GOGOEND
|
|
|
|
11,
|
|
1110,
|
|
11,
|
|
1110,
|
|
|
|
3,
|
|
3,
|
|
3,
|
|
31, //88
|
|
|
|
6,
|
|
000000000000000000000000000000000008000000000000,
|
|
7,
|
|
8,
|
|
|
|
2,
|
|
0,
|
|
0,
|
|
2011, //96
|
|
|
|
#MEASURE 1/4
|
|
0,
|
|
#BARLINEOFF
|
|
#MEASURE 3/4
|
|
#GOGOSTART
|
|
301,
|
|
#BARLINEON
|
|
#MEASURE 4/4
|
|
1101,
|
|
10010010,
|
|
10010020,
|
|
|
|
21,
|
|
1110,
|
|
1110,
|
|
1120, //105
|
|
|
|
30030030,
|
|
03003060,
|
|
000000000000080000000000,
|
|
#GOGOEND
|
|
3,
|
|
0,
|
|
|
|
#GOGOSTART
|
|
20020020,
|
|
02002020,
|
|
20020020,
|
|
02002040, //114
|
|
#GOGOEND
|
|
|
|
0,
|
|
0,
|
|
0,
|
|
0, //118
|
|
#END |