755 lines
7.6 KiB
Plaintext
755 lines
7.6 KiB
Plaintext
//TJADB Project
|
|
TITLE:+♂ -Plus Danshi-
|
|
TITLEJA:+♂ (プラス男子)
|
|
SUBTITLE:--RΞOL feat. Kagamine Len
|
|
SUBTITLEJA:ギガれをる feat.鏡音レン
|
|
BPM:180
|
|
WAVE:+♂ -Plus Danshi-.ogg
|
|
OFFSET:-1.604
|
|
DEMOSTART:44.03
|
|
|
|
//Shinuchi: 3520/2700/1910/1490/980
|
|
|
|
COURSE:Edit
|
|
LEVEL:9
|
|
BALLOON:108,2,2,2,2,2,2,2,2,2,2
|
|
SCOREINIT:360,1100
|
|
SCOREDIFF:73
|
|
|
|
#START
|
|
#BARLINEOFF
|
|
#MEASURE 1/4
|
|
0,
|
|
|
|
#BARLINEON
|
|
#MEASURE 4/4
|
|
#GOGOSTART
|
|
100000200000100000200200100000200000100000202020,
|
|
1022102010201202,
|
|
1222102010201022,
|
|
1020101012121022,
|
|
|
|
100000200000100000200200100000200000100000202020,
|
|
1022102010201202,
|
|
100000000000100000000000100100101010200000200000,
|
|
#GOGOEND
|
|
12002111, //9
|
|
|
|
1220122210221020,
|
|
1220102010201010,
|
|
12121212,
|
|
1010102012201010,
|
|
|
|
1022122010221202,
|
|
1020102010201012,
|
|
1020102010201022,
|
|
1202102010101020, //17
|
|
|
|
1022102010201010,
|
|
1020102012221010,
|
|
1220102012221020,
|
|
1202102010201011,
|
|
|
|
1022102010201010,
|
|
1022102010201020,
|
|
1122122210221010,
|
|
1121112111211012, //25
|
|
|
|
7,
|
|
0,
|
|
0,
|
|
0,
|
|
|
|
0,
|
|
80003333,
|
|
400000300030000000000000200200200200202020202020,
|
|
10000222, //33
|
|
|
|
#GOGOSTART
|
|
1000102010221020,
|
|
1022102012221010,
|
|
1022102212221020,
|
|
1022120210201010,
|
|
|
|
1022102010221020,
|
|
1020102210101020,
|
|
1022101022101022,
|
|
1022102012227080, //41
|
|
|
|
1002102010221212,
|
|
1002102012221212,
|
|
1002102010221010,
|
|
100200100000100000500008000000100000700000800000,
|
|
|
|
1222102012221020,
|
|
1222102010221020,
|
|
100000200200100000200200100000100000200000500008,
|
|
0022102011102220, //49
|
|
#GOGOEND
|
|
|
|
3000222030002020,
|
|
3020302030222020,
|
|
3000222030002020,
|
|
32323232,
|
|
|
|
3000222030002020,
|
|
3020302030222020,
|
|
3000222030002020,
|
|
32323000, //57
|
|
|
|
7080100010221022,
|
|
7080222212021000,
|
|
7080102010221022,
|
|
1222102070801212,
|
|
|
|
1202100012221020,
|
|
1222102012221020,
|
|
1222708012221020,
|
|
1212121010007080, //65
|
|
|
|
100000101010100100100100100000200000100000100000,
|
|
2220101020001022,
|
|
1010102210201022,
|
|
100200200200100000200000100000000000202020200000,
|
|
|
|
1020102012221010,
|
|
2011201022221000,
|
|
1022102012221020,
|
|
1022122010001000,
|
|
4444,
|
|
02222222, //75
|
|
|
|
#GOGOSTART
|
|
1000102010221020,
|
|
1022102012221010,
|
|
1022102212221020,
|
|
1022120210201010,
|
|
|
|
1022102010221020,
|
|
1020102210101020,
|
|
1022101022101022,
|
|
100000200200100000200000100000202020700000800000, //83
|
|
|
|
1002102010221212,
|
|
1002102012221212,
|
|
1002102010221010,
|
|
100200100000100000500008000000100000700000800000,
|
|
|
|
1222102012221020,
|
|
1222102010221020,
|
|
100000200200100000200200100000100000200000500008,
|
|
0011202010102220,
|
|
1020102210201222,
|
|
1212102010221000, //93
|
|
|
|
100000200000100000200200100000200000100000202020,
|
|
1022102010201202,
|
|
1222102010201022,
|
|
1020101012121000,
|
|
|
|
100000200000100000200200100000200000100000202020,
|
|
1022102010201202,
|
|
100000000000100000000000100100101010200000200000,
|
|
#GOGOEND
|
|
12002040,
|
|
|
|
0,
|
|
0,
|
|
0, //104
|
|
#END
|
|
|
|
|
|
COURSE:Oni
|
|
LEVEL:7
|
|
BALLOON:108,4,4,4,2,2,2
|
|
SCOREINIT:460,1700
|
|
SCOREDIFF:113
|
|
|
|
#START
|
|
#BARLINEOFF
|
|
#MEASURE 1/4
|
|
0,
|
|
|
|
#BARLINEON
|
|
#MEASURE 4/4
|
|
#GOGOSTART
|
|
10221201,
|
|
01221122,
|
|
10221201,
|
|
1020100012121000,
|
|
|
|
10221201,
|
|
01221122,
|
|
1000100011102020,
|
|
#GOGOEND
|
|
10000111, //9
|
|
|
|
10101012,
|
|
12101210,
|
|
20202121,
|
|
21201110,
|
|
|
|
10101210,
|
|
12101211,
|
|
12121011,
|
|
12101211, //17
|
|
|
|
10121202,
|
|
12121110,
|
|
12121202,
|
|
2022202010200020,
|
|
|
|
2022002020102010,
|
|
2022002010201000,
|
|
2022002020102010,
|
|
2022002022202020, //25
|
|
|
|
7,
|
|
0,
|
|
0,
|
|
0,
|
|
|
|
0,
|
|
0,
|
|
0008,
|
|
20000222, //33
|
|
|
|
#GOGOSTART
|
|
1000102010011020,
|
|
1001102010200020,
|
|
1020202010222010,
|
|
0010202010222000,
|
|
|
|
11221122,
|
|
12010112,
|
|
12212212,
|
|
21224040, //41
|
|
|
|
1002102010201010,
|
|
1002102010111010,
|
|
1002102010201020,
|
|
1010201000111000,
|
|
|
|
1001102010011020,
|
|
1001102010202020,
|
|
11221121,
|
|
01221120, //49
|
|
#GOGOEND
|
|
|
|
33,
|
|
3330,
|
|
33,
|
|
3333,
|
|
|
|
33,
|
|
3330,
|
|
33,
|
|
3330, //57
|
|
|
|
7833,
|
|
70801200,
|
|
7833,
|
|
12007811,
|
|
|
|
12023030,
|
|
12021202,
|
|
12783030,
|
|
33333078, //65
|
|
|
|
1011101010102020,
|
|
11221000,
|
|
11102022,
|
|
12221000,
|
|
|
|
11112020,
|
|
1010101020222000,
|
|
1010100022202020,
|
|
2022202020000000,
|
|
4444,
|
|
0, //75
|
|
|
|
#GOGOSTART
|
|
1000102010011020,
|
|
1001102010200020,
|
|
1020202010222010,
|
|
0010202010222020,
|
|
|
|
11221122,
|
|
12010112,
|
|
1020201020201022,
|
|
2010222040004000, //83
|
|
|
|
1002102010201010,
|
|
1002102010111010,
|
|
1002102010201020,
|
|
1010201000111000,
|
|
|
|
1001102010011020,
|
|
1001102010202020,
|
|
11221121,
|
|
01221120,
|
|
1000202210102010,
|
|
2222201020102000, //93
|
|
|
|
10221201,
|
|
0010202010102220,
|
|
10221201,
|
|
1020100012121000,
|
|
|
|
10221201,
|
|
0010202010102220,
|
|
1000100011101010,
|
|
#GOGOEND
|
|
1002,
|
|
|
|
0,
|
|
0,
|
|
0, //104
|
|
#END
|
|
|
|
|
|
COURSE:Hard
|
|
LEVEL:6
|
|
BALLOON:
|
|
SCOREINIT:460,2070
|
|
SCOREDIFF:120
|
|
|
|
#START
|
|
#BARLINEOFF
|
|
#MEASURE 1/4
|
|
0,
|
|
|
|
#BARLINEON
|
|
#MEASURE 4/4
|
|
#GOGOSTART
|
|
10221101,
|
|
02201010,
|
|
10221101,
|
|
0010100010111000,
|
|
|
|
10221101,
|
|
02201010,
|
|
500000000000000000000000000000000000000008000000,
|
|
#GOGOEND
|
|
10000222, //9
|
|
|
|
10101011,
|
|
10101210,
|
|
10101011,
|
|
10102220,
|
|
|
|
10101011,
|
|
10101210,
|
|
10101011,
|
|
1000100022202000, //17
|
|
|
|
10101210,
|
|
12121110,
|
|
10101210,
|
|
12101011,
|
|
|
|
1110102020102000,
|
|
1110102020102000,
|
|
1110102020102000,
|
|
1110102020102000, //25
|
|
|
|
5,
|
|
0,
|
|
0,
|
|
0,
|
|
|
|
0,
|
|
0,
|
|
000000000000000000000000000000000000000008000000,
|
|
2, //33
|
|
|
|
#GOGOSTART
|
|
10111012,
|
|
10121202,
|
|
12221121,
|
|
01201220,
|
|
|
|
12121212,
|
|
12010120,
|
|
11022011,
|
|
02204040, //41
|
|
|
|
10120211,
|
|
10120211,
|
|
10120211,
|
|
12220120,
|
|
|
|
10221022,
|
|
10221202,
|
|
11221122,
|
|
02111110, //49
|
|
#GOGOEND
|
|
|
|
33,
|
|
3330,
|
|
33,
|
|
3333,
|
|
|
|
33,
|
|
3330,
|
|
33,
|
|
3330, //57
|
|
|
|
1033,
|
|
10002200,
|
|
1033,
|
|
22001022,
|
|
|
|
22003030,
|
|
22002200,
|
|
22103030,
|
|
33333010, //65
|
|
|
|
1022202010002000,
|
|
12201000,
|
|
12201220,
|
|
12221000,
|
|
|
|
11102020,
|
|
11112020,
|
|
12201220,
|
|
22022000,
|
|
0,
|
|
01111111, //75
|
|
|
|
#GOGOSTART
|
|
10111012,
|
|
10121202,
|
|
12221121,
|
|
01201220,
|
|
|
|
12121212,
|
|
12010120,
|
|
11022011,
|
|
02204040, //83
|
|
|
|
10120211,
|
|
10120211,
|
|
10120211,
|
|
12220120,
|
|
|
|
10221022,
|
|
10221202,
|
|
11221122,
|
|
02111120,
|
|
10201121,
|
|
22101210, //93
|
|
|
|
10221101,
|
|
02201010,
|
|
10221101,
|
|
0010100010111000,
|
|
|
|
10221101,
|
|
02201010,
|
|
500000000000000000000000000000000000000008000000,
|
|
#GOGOEND
|
|
1002,
|
|
|
|
0,
|
|
0,
|
|
0, //104
|
|
#END
|
|
|
|
|
|
COURSE:Normal
|
|
LEVEL:5
|
|
BALLOON:
|
|
SCOREINIT:510,3040
|
|
SCOREDIFF:130
|
|
|
|
#START
|
|
#BARLINEOFF
|
|
#MEASURE 1/4
|
|
0,
|
|
|
|
#BARLINEON
|
|
#MEASURE 4/4
|
|
#GOGOSTART
|
|
10001102,
|
|
01102020,
|
|
10001102,
|
|
01102020,
|
|
|
|
10001102,
|
|
01102020,
|
|
500000000000000000000000000000000000000000000008,
|
|
#GOGOEND
|
|
0, //9
|
|
|
|
1011,
|
|
10001110,
|
|
1011,
|
|
10001110,
|
|
|
|
1011,
|
|
10001110,
|
|
1011,
|
|
10001110, //17
|
|
|
|
1202,
|
|
1212,
|
|
1202,
|
|
1212,
|
|
|
|
10002120,
|
|
10002120,
|
|
10002120,
|
|
10002120, //25
|
|
|
|
6,
|
|
0,
|
|
0,
|
|
0,
|
|
|
|
0,
|
|
000000000000000000000000000000000008000000000000,
|
|
3,
|
|
2, //33
|
|
|
|
#GOGOSTART
|
|
10101011,
|
|
1110,
|
|
10101011,
|
|
01102020,
|
|
|
|
1111,
|
|
11010110,
|
|
40040040,
|
|
04004040, //41
|
|
|
|
10110100,
|
|
10110100,
|
|
10110100,
|
|
10110110,
|
|
|
|
1212,
|
|
1212,
|
|
10101101,
|
|
01101010, //49
|
|
#GOGOEND
|
|
|
|
33,
|
|
3330,
|
|
33,
|
|
3333,
|
|
|
|
33,
|
|
3330,
|
|
33,
|
|
3330, //57
|
|
|
|
1022,
|
|
10002200,
|
|
1022,
|
|
11001022,
|
|
|
|
22001010,
|
|
22002200,
|
|
2122,
|
|
600000000000000000000000000000000008000000000000, //65
|
|
|
|
1212,
|
|
11011000,
|
|
1212,
|
|
11101000,
|
|
|
|
1212,
|
|
11102020,
|
|
1212,
|
|
22022000,
|
|
0,
|
|
0, //75
|
|
|
|
#GOGOSTART
|
|
10101011,
|
|
1110,
|
|
10101011,
|
|
01102020,
|
|
|
|
1111,
|
|
11010110,
|
|
40040040,
|
|
04004040, //83
|
|
|
|
10110100,
|
|
10110100,
|
|
10110100,
|
|
10110110,
|
|
|
|
1212,
|
|
1212,
|
|
10101101,
|
|
01101010,
|
|
10201105,
|
|
000000000008000000000000200000000000200000000000, //93
|
|
|
|
10001102,
|
|
01102020,
|
|
10001102,
|
|
01102020,
|
|
|
|
10001102,
|
|
01102020,
|
|
500000000000000000000000000000000000000000000008,
|
|
#GOGOEND
|
|
0,
|
|
|
|
0,
|
|
0,
|
|
0, //104
|
|
#END
|
|
|
|
|
|
COURSE:Easy
|
|
LEVEL:4
|
|
BALLOON:
|
|
SCOREINIT:390,4160
|
|
SCOREDIFF:105
|
|
|
|
#START
|
|
#BARLINEOFF
|
|
#MEASURE 1/4
|
|
0,
|
|
|
|
#BARLINEON
|
|
#MEASURE 4/4
|
|
#GOGOSTART
|
|
11,
|
|
1110,
|
|
11,
|
|
1022,
|
|
|
|
11,
|
|
1110,
|
|
500000000000000000000000000000000000000000000008,
|
|
#GOGOEND
|
|
0, //9
|
|
|
|
11,
|
|
1011,
|
|
11,
|
|
1022,
|
|
|
|
11,
|
|
1011,
|
|
11,
|
|
1110, //17
|
|
|
|
1011,
|
|
1022,
|
|
1011,
|
|
1022,
|
|
|
|
1011,
|
|
1022,
|
|
11,
|
|
1110, //25
|
|
|
|
6,
|
|
0,
|
|
0,
|
|
0,
|
|
|
|
0,
|
|
000000000000000000000000000000000000000000000008,
|
|
0,
|
|
2, //33
|
|
|
|
#GOGOSTART
|
|
1110,
|
|
1110,
|
|
1212,
|
|
1110,
|
|
|
|
11,
|
|
1101,
|
|
30030030,
|
|
03003000, //41
|
|
|
|
1202,
|
|
1202,
|
|
1202,
|
|
1101,
|
|
|
|
1011,
|
|
1011,
|
|
10101003,
|
|
0440, //49
|
|
#GOGOEND
|
|
|
|
33,
|
|
3330,
|
|
33,
|
|
3333,
|
|
|
|
33,
|
|
3330,
|
|
33,
|
|
3330, //57
|
|
|
|
1022,
|
|
12,
|
|
1022,
|
|
11,
|
|
|
|
1022,
|
|
12,
|
|
1122,
|
|
600000000000000000000000000008000000000000000000, //65
|
|
|
|
1202,
|
|
1110,
|
|
1202,
|
|
1110,
|
|
|
|
1202,
|
|
1110,
|
|
1202,
|
|
2220,
|
|
0,
|
|
0, //75
|
|
|
|
#GOGOSTART
|
|
1110,
|
|
1110,
|
|
1212,
|
|
1110,
|
|
|
|
11,
|
|
1101,
|
|
30030030,
|
|
03003000, //83
|
|
|
|
1202,
|
|
1202,
|
|
1202,
|
|
1101,
|
|
|
|
1011,
|
|
1011,
|
|
10101003,
|
|
0440,
|
|
1212,
|
|
1120, //93
|
|
|
|
11,
|
|
1110,
|
|
11,
|
|
1022,
|
|
|
|
11,
|
|
1110,
|
|
500000000000000000000000000000000000000000000008,
|
|
#GOGOEND
|
|
0,
|
|
|
|
0,
|
|
0,
|
|
0, //104
|
|
#END |