Files
TJA-by-song-no/tja/193.tja
2026-03-07 15:37:31 +09:00

506 lines
5.8 KiB
Plaintext

//TJADB Project
TITLE:Scroll Mika
TITLEJA:スクロール・ミカ
SUBTITLE:--Yuuji Masubuchi feat. Mika Sato
BPM:150.05
WAVE:Scroll Mika.ogg
OFFSET:-2.024
DEMOSTART:21.594
COURSE:Oni
LEVEL:7
BALLOON:30
SCOREINIT:410
SCOREDIFF:98
#START
#BARLINEOFF
#MEASURE 1/4
4,
#BARLINEON
#MEASURE 5/4
10102010001120104000,
10102010001120104040,
10102010001120104000,
10102010001120102222,
#MEASURE 6/4
100010001022102210102020,
100010001022102210102020,
#MEASURE 4/4
11020111,
0020001010102222,
1001201020102222,
100222,
#MEASURE 5/4
10111020001020201020,
10111020001020201020,
20112010001020102010,
20112010001120102011,
10111020001020201020,
10111020001020201020,
20112010001020102011,
22201110222011102222,
10111020001120201020,
10111020001120201020,
20112010001120102010,
20112010001120102011,
10112010001120112010,
10112010001120112210,
#MEASURE 4/4
333444,
#GOGOSTART
1010200210102002,
1010200212102002,
111222,
1011200210112002,
1011200212112002,
11211211,
23000000,
#GOGOEND
#MEASURE 6/4
100120010120,
100120100201,
100120010120,
100000200010100000200011,
120200101202,
100010201112101020102010,
101201101200,
100010200011102020101000,
101201101201,
#MEASURE 4/4
1010201210102012,
11113333,
3000300010122011,
11221010,
3000300010122011,
1010202030111111,
1010200010102011,
1010200010102011,
11212103,
0010202110202010,
1010200010102011,
1010200010102011,
10222201,
0010222022202220,
1010201010102011,
1010201010102011,
1010201210200010,
0010102210122010,
1011201010102011,
1011201010102011,
100000100000500000000000000000000008000000000000,
3003,
#GOGOSTART
1010200210102002,
1010200212102002,
111222,
1011201212112012,
1011201212212012,
111222,
1010201110112010,
1010201111102011,
11211211,
2010102222112222,
#GOGOEND
#MEASURE 5/4
10112010001120104000,
10112010001120104040,
10112010001120104000,
10112010001120102222,
#MEASURE 6/4
101110201020112211221020,
101110201020112211221111,
#MEASURE 4/4
11020111,
0020001010102222,
1001201120112222,
#MEASURE 6/4
100222000,
#MEASURE 4/4
7,
,
,
,
0008,
2210000000000000,
#END
COURSE:Hard
LEVEL:7
BALLOON:8
SCOREINIT:350
SCOREDIFF:100
#START
#BARLINEOFF
#MEASURE 1/4
4,
#BARLINEON
#MEASURE 5/4
1121012140,
1121012144,
1121012140,
10102010001020102222,
#MEASURE 6/4
100010001022102010102000,
100010001022102010102000,
#MEASURE 4/4
11020111,
02011121,
2001201020102010,
3,
#MEASURE 5/4
1021012212,
1021012212,
2021012121,
2021012121,
1021012212,
1021012212,
1021012121,
22201110222011103000,
1021012212,
1021012212,
2021012121,
2021012121,
10102010001120102000,
10102010001120102000,
#MEASURE 4/4
333444,//26
#GOGOSTART
1010200210102002,
1010200210102002,
111222,
1010200210102002,
1010200210102002,
11011011,
03000000,//33
#MEASURE 6/4
#GOGOEND
100120010120,
100120100201,
100120010120,
100120100120,
120200101202,
101200112121,
101201101200,
100010200010102220100000,
101201101200,
#MEASURE 4/4
1010200210102002,
11111111,
3000300010222010,
11221010,
3000300010222010,
12223000,
11201120,
11201120,
11212103,
01221221,
11201120,
11201120,
00222201,
0010222010102220,
11201120,
11201120,
11212102,
0010102220102010,
1010201010102011,
1010201010102011,
100000100000500000000000000000000008000000000000,
3003,//64
#GOGOSTART
1010200210102002,
1010200210102002,
111222,
1010200210102002,
1010200211102002,
111222,
1010201110102010,
1010201110102010,
11211211,
27000800,//74
#MEASURE 5/4
#GOGOEND
10102010001120104000,
10102010001120104040,
10102010001120104000,
10102010001120102222,
#MEASURE 6/4
100010001022102210102000,
100010001022102210102010,
#MEASURE 4/4
11020111,
02011121,
2001201020102222,
#MEASURE 6/4
100222000,
#MEASURE 4/4
3,
,
,
,
,
2210000000000000,
,
#END
COURSE:Normal
LEVEL:6
SCOREINIT:410
SCOREDIFF:120
#START
#BARLINEOFF
#MEASURE 1/4
4,
#BARLINEON
#MEASURE 5/4
1011011020,
1011011022,
1011011020,
1011011022,
#MEASURE 6/4
101010001120,
101010001120,
#MEASURE 4/4
10020010,
02001010,
20202121,
1,
#MEASURE 5/4
1011011020,
1011011020,
2021011010,
2021011010,
1011011020,
1011011020,
2021011010,
22223,
1011011020,
1011011020,
2021011010,
2021011010,
1011011020,
1011011020,
#MEASURE 4/4
111222,//26
#GOGOSTART
1000200210002000,
1000200210002000,
111222,
1000200210002000,
1000200210002000,
10010010,
03000000,//33
#MEASURE 6/4
#GOGOEND
100020010020,
100020100200,
100020010020,
100200100220,
120200100200,
100200102020,
1212,
100200100220,
100200101200,
#MEASURE 4/4
11101110,
20202222,
3300,
02021010,
3300,
02023000,
10201120,
10201120,
10201101,
00201220,
10201120,
10201120,
00222201,
0240,
10201120,
10201120,
00222201,
00212000,
11201120,
11201120,
500000000000000000000000000000000008000000000000,
3003,//64
#GOGOSTART
1000200210002000,
1000200210002000,
111222,
1000200210002000,
1000200210002000,
111222,
1000200210102000,
1000200210102000,
10010010,
01001111,//74
#MEASURE 5/4
#GOGOEND
1011011020,
1011011022,
1011011020,
1011011022,
#MEASURE 6/4
101012121110,
101012121110,
#MEASURE 4/4
10020010,
02001010,
20202121,
#MEASURE 6/4
1,
#MEASURE 4/4
3,
,
,
,
,
2,
,
#END
COURSE:Easy
LEVEL:4
SCOREINIT:490
SCOREDIFF:150
#START
#BARLINEOFF
#MEASURE 1/4
,
#BARLINEON
#MEASURE 5/4
1001000020,
1001000020,
1001000020,
1001000020,
#MEASURE 6/4
110000,
110000,
#MEASURE 4/4
1001,
01,
2222,
1,
#MEASURE 5/4
10012,
10012,
20011,
20011,
10012,
10012,
20011,
20203,
00112,
00112,
00221,
00221,
00112,
00112,
#MEASURE 4/4
1,//26
#GOGOSTART
1202,
1202,
1,
1202,
1202,
1001,
03000000,//33
#MEASURE 6/4
#GOGOEND
120,
120,
120,
102220,
12,
12,
1012,
1210,
1012,
#MEASURE 4/4
1111,
500000000000000000000000000000000008000000000000,
3300,
12,
3300,
13,
11,
10001100,
10000001,
02,
11,
10001100,
10000001,
02,
11,
10001100,
00101001,
,
12,
1,
500000000000000000000000000000000008000000000000,
3003,//64
#GOGOSTART
1202,
1202,
1,
1202,
1202,
1,
1212,
1120,
1001,
01000000,//74
#MEASURE 5/4
#GOGOEND
1001000020,
1001000020,
1001000020,
1001000020,
#MEASURE 6/4
111020,
111020,
#MEASURE 4/4
1001,
0011,
2222,
#MEASURE 6/4
1,
#MEASURE 4/4
3,
,
,
,
,
,
,
#END