556 lines
7.0 KiB
Plaintext
556 lines
7.0 KiB
Plaintext
//TJADB Project
|
|
TITLE:Kechadon 2000
|
|
TITLEJA:ケチャドン2000
|
|
SUBTITLE:--Linda AI-CUE
|
|
BPM:110
|
|
WAVE:Kechadon 2000.ogg
|
|
OFFSET:-2.714
|
|
DEMOSTART:9.202
|
|
|
|
COURSE:Oni
|
|
LEVEL:9
|
|
SCOREINIT:600
|
|
SCOREDIFF:140
|
|
|
|
|
|
#START
|
|
|
|
|
|
1212,
|
|
1212,
|
|
#MEASURE 6/4
|
|
12
|
|
#BPMCHANGE 220
|
|
#GOGOSTART
|
|
0333,//3
|
|
|
|
#MEASURE 8/4
|
|
1122120122011120,
|
|
1122120122011120,
|
|
1122120122011120,
|
|
1122120122011120,
|
|
1121221021212210,
|
|
1121221021212210,
|
|
1121222012121120,
|
|
1121222012121120,//11
|
|
|
|
#BARLINEOFF
|
|
#BPMCHANGE 110
|
|
#GOGOEND
|
|
#MEASURE 3/4
|
|
,
|
|
022220,
|
|
102222,
|
|
101222,
|
|
101022,
|
|
221012,
|
|
222010,
|
|
#MEASURE 6/4
|
|
100000000000600008000000
|
|
#SCROLL 1.06
|
|
#BPMCHANGE 220
|
|
#GOGOSTART
|
|
000000000000300000000000300000000000300000000000,//19
|
|
|
|
#BRANCHSTART r,1,2
|
|
#N
|
|
#BARLINEON
|
|
#SCROLL 1
|
|
#MEASURE 8/4
|
|
#BPMCHANGE 240
|
|
200200100200100100000200200100100100101010100000,
|
|
200200100200100100000200200100100100101010100000,
|
|
200200100200100100000200200100100100101010100000,
|
|
200200100200100100000200200100100100101010100000,
|
|
200200100100200200000100100200000200101010200000,
|
|
200200100100200200000100100200000200101010200000,
|
|
200200100100200200000100100200000200101010200000,
|
|
200200100100200200000100100200000200101010200000,//N27
|
|
|
|
#BARLINEOFF
|
|
#BPMCHANGE 120
|
|
#MEASURE 3/4
|
|
#GOGOEND
|
|
,
|
|
222200222,
|
|
211,
|
|
222200222,
|
|
211,
|
|
222200222,
|
|
211,
|
|
222200222,
|
|
#MEASURE 4/4
|
|
20110000,
|
|
#MEASURE 6/4
|
|
01
|
|
#SCROLL 1.06
|
|
#BPMCHANGE 240
|
|
#GOGOSTART
|
|
0333,//N37
|
|
|
|
#BARLINEON
|
|
#SCROLL 1
|
|
#MEASURE 8/4
|
|
#BPMCHANGE 250
|
|
10102010102010102010001011101000,
|
|
10102010102010102010001011101000,
|
|
10101020202010201020001011101000,
|
|
10102010202010201020001011101000,
|
|
10102020102010201010202011101000,
|
|
10102020102010201010202011101000,
|
|
10102010202010201020201011101000,
|
|
10102010202010201020201011101000,
|
|
1112111211221122,
|
|
1212121212121222,
|
|
1112112212221212,
|
|
10202010202010202010202011101000,//N49
|
|
#E
|
|
#BARLINEON
|
|
#SCROLL 1
|
|
#MEASURE 8/4
|
|
#BPMCHANGE 240
|
|
200200000200200000200200000200200000101010100000,
|
|
200200000200200000200200100000100100101010100000,
|
|
100100000100100000100100000100100000202020200000,
|
|
100100000100100000100100000200200200202020200000,
|
|
200200000100200200000100200200000100101010100000,
|
|
200200000100200200000100200200100000202020200000,
|
|
200200000100200200000100200200000100101010200000,
|
|
200200000100200200000100200200100000202020100000,//E27
|
|
|
|
#BARLINEOFF
|
|
#BPMCHANGE 120
|
|
#MEASURE 3/4
|
|
#GOGOEND
|
|
,
|
|
222200222,
|
|
211,
|
|
222200222,
|
|
211,
|
|
222200222,
|
|
211,
|
|
222200222,
|
|
#MEASURE 4/4
|
|
20110000,
|
|
#MEASURE 6/4
|
|
01
|
|
#SCROLL 1.06
|
|
#BPMCHANGE 240
|
|
#GOGOSTART
|
|
0333,//E37
|
|
|
|
#BARLINEON
|
|
#SCROLL 1
|
|
#MEASURE 8/4
|
|
#BPMCHANGE 250
|
|
1121112111211121,
|
|
1121112111211212,
|
|
1112111211211212,
|
|
1222122211211212,
|
|
1121112121211212,
|
|
1121112121211212,
|
|
1211211121211212,
|
|
1211211121211212,
|
|
1112112211221212,
|
|
11101020101020201010202010201020,
|
|
11101020111020201110102011101020,
|
|
11111020101110201111102011103000,//E48
|
|
#M
|
|
#BARLINEON
|
|
#SCROLL 1
|
|
#MEASURE 8/4
|
|
#BPMCHANGE 240
|
|
100010100020100010100010200020000020100100200000,
|
|
102102101101202002111200,
|
|
100010100020100010100010200020000020100100200000,
|
|
102102101101202002111200,
|
|
100010100020100010100010200020000020100100200000,
|
|
102102101101202002111200,
|
|
100010100020100010100010200020000020100100200000,
|
|
102102101101202002111200,//M27
|
|
|
|
#BARLINEOFF
|
|
#BPMCHANGE 120
|
|
#MEASURE 3/4
|
|
#GOGOEND
|
|
,
|
|
222200222,
|
|
211,
|
|
222200222,
|
|
211,
|
|
222200222,
|
|
211,
|
|
222200222,
|
|
#MEASURE 4/4
|
|
20110000,
|
|
#MEASURE 6/4
|
|
01
|
|
#SCROLL 1.06
|
|
#BPMCHANGE 240
|
|
#GOGOSTART
|
|
0333,//M37
|
|
|
|
#BARLINEON
|
|
#SCROLL 1
|
|
#MEASURE 8/4
|
|
#BPMCHANGE 250
|
|
100010100020100010200010200020100020100100200000,
|
|
102102101201202102111200,
|
|
100010100020100010200010200020100020100100200000,
|
|
102102101201202102111200,
|
|
100010100020100010200010200020100020100100200000,
|
|
102102101201202102112200,
|
|
100010100020100010200010200020100020100100200000,
|
|
102102101201202102112200,
|
|
100010100020100010200010200020100020100100200000,
|
|
102102101201202102211200,
|
|
100010100020100010200010200020100020100100200200,
|
|
102102111201202102111200,//M49
|
|
|
|
#BRANCHEND
|
|
#BARLINEOFF
|
|
#MEASURE 4/4
|
|
#BPMCHANGE 229
|
|
#GOGOEND
|
|
,
|
|
0001,
|
|
#BPMCHANGE 426
|
|
,
|
|
#SCROLL 3
|
|
3,
|
|
|
|
|
|
#END
|
|
|
|
|
|
COURSE:Hard
|
|
LEVEL:8
|
|
SCOREINIT:520
|
|
SCOREDIFF:140
|
|
|
|
#START
|
|
1212,
|
|
1212,
|
|
#MEASURE 6/4
|
|
12
|
|
#SCROLL 0.5
|
|
#BPMCHANGE 220
|
|
#GOGOSTART
|
|
0333,//3
|
|
|
|
#MEASURE 8/4
|
|
1111110111011110,
|
|
1111110111011110,
|
|
1111110111011110,
|
|
1111110111011110,
|
|
1111120112011120,
|
|
1111120112011120,
|
|
1111120112011120,
|
|
1111120112011120,//11
|
|
|
|
#SCROLL 1
|
|
#BPMCHANGE 110
|
|
#GOGOEND
|
|
#MEASURE 3/4
|
|
111100,
|
|
011110,
|
|
001111,
|
|
000111,
|
|
000011,
|
|
110001,
|
|
111000,
|
|
#MEASURE 6/4
|
|
00
|
|
#SCROLL 0.5
|
|
#BPMCHANGE 220
|
|
#GOGOSTART
|
|
0333,//19
|
|
|
|
#MEASURE 8/4
|
|
#BPMCHANGE 240
|
|
1111210121012110,
|
|
1111210121012110,
|
|
1111210121012110,
|
|
1111210121012110,
|
|
1121210121012120,
|
|
1121210121012120,
|
|
1121210121012120,
|
|
1121210121012120,//27
|
|
|
|
#SCROLL 1
|
|
#BPMCHANGE 120
|
|
#MEASURE 3/4
|
|
#GOGOEND
|
|
1,
|
|
100000111,
|
|
1,
|
|
100000111,
|
|
1,
|
|
100000111,
|
|
1,
|
|
100000111,
|
|
#MEASURE 4/4
|
|
1,
|
|
#MEASURE 6/4
|
|
00
|
|
#SCROLL 1.06
|
|
#BPMCHANGE 240
|
|
#GOGOSTART
|
|
0333,//37
|
|
|
|
#SCROLL 1
|
|
#MEASURE 8/4
|
|
#BPMCHANGE 250
|
|
1111110111011110,
|
|
1111110111011110,
|
|
1111120112011120,
|
|
1111120112011120,
|
|
1111210121012110,
|
|
1111210121012110,
|
|
1121210121012120,
|
|
1121210121012120,
|
|
1111111122222220,
|
|
1111222211112220,
|
|
1122112211221120,
|
|
1212121212121210,//49
|
|
|
|
#MEASURE 4/4
|
|
#BPMCHANGE 229
|
|
#GOGOEND
|
|
,
|
|
0001,
|
|
#SCROLL 0.54
|
|
#BPMCHANGE 426
|
|
,
|
|
3,
|
|
#BARLINEOFF
|
|
,
|
|
,
|
|
,
|
|
,
|
|
,
|
|
,
|
|
,
|
|
,
|
|
#END
|
|
|
|
COURSE:Normal
|
|
LEVEL:6
|
|
SCOREINIT:750
|
|
SCOREDIFF:210
|
|
|
|
#START
|
|
1212,
|
|
1212,
|
|
#MEASURE 6/4
|
|
12
|
|
#SCROLL 0.5
|
|
#BPMCHANGE 220
|
|
#GOGOSTART
|
|
0333,//3
|
|
|
|
#MEASURE 8/4
|
|
1000111010001000,
|
|
1000111010001000,
|
|
1000111010001000,
|
|
1000111010001000,
|
|
1000111010002000,
|
|
1000111010002000,
|
|
1000111010002000,
|
|
1000111010002000,//11
|
|
|
|
#SCROLL 1
|
|
#BPMCHANGE 110
|
|
#GOGOEND
|
|
#MEASURE 3/4
|
|
111,
|
|
,
|
|
111,
|
|
,
|
|
111,
|
|
,
|
|
111,
|
|
#MEASURE 6/4
|
|
00
|
|
#GOGOSTART
|
|
#SCROLL 0.5
|
|
#BPMCHANGE 220
|
|
0333,//19
|
|
|
|
#MEASURE 8/4
|
|
#BPMCHANGE 240
|
|
1000110010011000,
|
|
1000110010011000,
|
|
1000110010011000,
|
|
1000110010011000,
|
|
1000110020011000,
|
|
1000110020011000,
|
|
1000110020011000,
|
|
1000110020011000,//27
|
|
|
|
#SCROLL 1
|
|
#BPMCHANGE 120
|
|
#MEASURE 3/4
|
|
#GOGOEND
|
|
1,
|
|
111,
|
|
1,
|
|
111,
|
|
1,
|
|
111,
|
|
1,
|
|
111,
|
|
#MEASURE 4/4
|
|
1,
|
|
#MEASURE 6/4
|
|
00
|
|
#SCROLL 0.5
|
|
#BPMCHANGE 240
|
|
#GOGOSTART
|
|
0333,//37
|
|
|
|
#MEASURE 8/4
|
|
#BPMCHANGE 250
|
|
1000110101011000,
|
|
1000110101011000,
|
|
1000110101011000,
|
|
1000110101011000,
|
|
1000110101011000,
|
|
1000110101011000,
|
|
1000110101011000,
|
|
1000110101011000,
|
|
1000110202011000,
|
|
1000110202011000,
|
|
1000110202011000,
|
|
1000110202011000,//49
|
|
|
|
#BPMCHANGE 229
|
|
#MEASURE 4/4
|
|
#GOGOEND
|
|
,
|
|
0001,
|
|
#SCROLL 0.33
|
|
#BPMCHANGE 426
|
|
,
|
|
3,
|
|
#BARLINEOFF
|
|
,
|
|
,
|
|
,
|
|
,
|
|
,
|
|
,
|
|
,
|
|
,
|
|
#END
|
|
|
|
COURSE:Easy
|
|
LEVEL:5
|
|
SCOREINIT:540
|
|
SCOREDIFF:160
|
|
|
|
#START
|
|
1212,
|
|
1212,
|
|
#MEASURE 6/4
|
|
12
|
|
#SCROLL 0.5
|
|
#BPMCHANGE 220
|
|
#GOGOSTART
|
|
0333,//3
|
|
|
|
#MEASURE 8/4
|
|
1111,
|
|
1111,
|
|
1111,
|
|
1111,
|
|
1122,
|
|
1122,
|
|
1122,
|
|
1122,//11
|
|
|
|
#SCROLL 1
|
|
#BPMCHANGE 110
|
|
#GOGOEND
|
|
#MEASURE 3/4
|
|
111,
|
|
,
|
|
111,
|
|
,
|
|
111,
|
|
,
|
|
111,
|
|
#MEASURE 6/4
|
|
00
|
|
#GOGOSTART
|
|
#SCROLL 0.5
|
|
#BPMCHANGE 220
|
|
0333,//19
|
|
|
|
#MEASURE 8/4
|
|
#SCROLL 1
|
|
#BPMCHANGE 240
|
|
10111010,
|
|
10111010,
|
|
10111010,
|
|
10111010,
|
|
10111020,
|
|
10111020,
|
|
10111020,
|
|
10111020,//27
|
|
|
|
#SCROLL 1
|
|
#BPMCHANGE 120
|
|
#MEASURE 3/4
|
|
#GOGOEND
|
|
1,
|
|
111,
|
|
1,
|
|
111,
|
|
1,
|
|
111,
|
|
1,
|
|
111,
|
|
#MEASURE 4/4
|
|
1,
|
|
#MEASURE 6/4
|
|
00
|
|
#SCROLL 0.5
|
|
#BPMCHANGE 240
|
|
#GOGOSTART
|
|
0333,//37
|
|
|
|
#MEASURE 8/4
|
|
#BPMCHANGE 250
|
|
11101110,
|
|
11101010,
|
|
11101110,
|
|
11101010,
|
|
11101110,
|
|
11102020,
|
|
11101110,
|
|
11102020,
|
|
11101110,
|
|
11102020,
|
|
11101110,
|
|
11101110,//49
|
|
|
|
#MEASURE 4/4
|
|
#BPMCHANGE 229
|
|
#GOGOEND
|
|
,
|
|
0001,
|
|
#SCROLL 0.33
|
|
#BPMCHANGE 426
|
|
,
|
|
3,
|
|
#BARLINEOFF
|
|
,
|
|
,
|
|
,
|
|
,
|
|
,
|
|
,
|
|
,
|
|
,
|
|
#END |