Files
TJA-by-song-no/tja/233.tja
2026-03-07 15:37:31 +09:00

303 lines
3.6 KiB
Plaintext

//TJADB Project
TITLE:Detective Conan Main Theme
TITLEJA:名探偵コナン メイン・テーマ
SUBTITLE:--Katsuo Oono/Detective Conan
SUBTITLEJA:アニメ映画「名探偵コナン」
BPM:135
WAVE:Detective Conan Main Theme.ogg
OFFSET:-2.002
DEMOSTART:15.779
COURSE:Oni
LEVEL:6
SCOREINIT:740
SCOREDIFF:208
#START
1002002001002010,
1002002001001000,
1002002001002010,
11210100,
1002002001002010,
1002002001001000,
1002002001002010,
11210011,
1000201011012010,
1010201011012010,
1020102011011010,
1000100010102202,
1000201011012010,
1010201011012010,
1010201011012010,
1020020010011110,
1000201011012010,
1010201011012010,
1020102011011010,
1000100010102202,
1010201011012010,
1010201011012010,
500000000000000000000000000000000000000008000000,
1020020010201110,
#GOGOSTART
1001201001102010,
1011201001102220,
1001201000102010,
1011201012201220,
1001201001102010,
1011201010100050,
000000000000000000000000000000000008000000000000,
3000003000111010,
#GOGOEND
1000201011012010,
1010201011012010,
1020102011011010,
10201105,
000000000000000000000000000000000000000008000000,
03333333,
1000201011012010,
1010201011012010,
1020102011011010,
1000200010100022,
#GOGOSTART
1102201102201000,
2201102201101000,
1102201102201110,
11210300,
1102201102201000,
2201102201101000,
1102201102201020,
1010202000101111,
1010101010101011,
11221121,
0300,
#GOGOEND
#END
COURSE:Hard
LEVEL:5
BALLOON:16
SCOREINIT:970
SCOREDIFF:240
#START
1002002000001000,
1002002000001000,
1002002000001000,
11110100,
1002002000001000,
1002002000001000,
1002002000001000,
11110011,
1000200011011000,
1000200011011000,
12121020,
10201100,
1000200011011000,
1000200011011000,
5,
000000000000000008000000000000000000100000100000,
1000200011011000,
1000200011011000,
12121020,
10201100,
1000200011011000,
1000200011011000,
5,
000000000000000000000008000000000000100000100000,
#GOGOSTART
10200111,
11010000,
10210125,
000000000000000000000008000000100000100000100000,
10210000,
10211205,
000000000000000000000000000000000008000000000000,
30030011,//32
#GOGOEND
1000200011011000,
1000200011011000,
12121010,
10201105,
000000000000000000000000000000000000000008000000,
01111110,
1000200011011000,
1000200011011000,
12121010,
10201107,//42
#GOGOSTART
,
8,
1002002001001000,
11210300,
1002002001001000,
1002002001001000,
1002002001001000,
1010202000101110,
500000000000000000000000000000000008000000000000,
11221121,
0300,//53
#GOGOEND
,
,
#END
COURSE:Normal
LEVEL:1
BALLOON:12
SCOREINIT:740
SCOREDIFF:370
#START
10010000,
10010000,
10010000,
30030000,
10010000,
10010000,
10010000,
30030000,
1100,
12,
1111,
12,
1110,
1111,
5,
000000000000000000000008000000000000000000000000,
1100,
12,
1111,
12,
1110,
1111,
5,
000000000000000000000008000000000000000000000000,//24
#GOGOSTART
1120,
1120,
1111,
1,
1120,
10102005,
000000000000000000000000000000000008000000000000,
3,//32
#GOGOEND
1100,
12,
1111,
10001105,
000000000000000000000000000000000000000008000000,
,
1200,
12,
1111,
10001107,//42
#GOGOSTART
,
8,
10010000,
10110300,
10010000,
10010000,
10010000,
10110300,
500000000000000000000000000000000008000000000000,
10101011,
0300,//53
#GOGOEND
,
,
#END
COURSE:Easy
LEVEL:3
BALLOON:8
SCOREINIT:1390
SCOREDIFF:680
#START
1,
1,
1,
10010000,
1,
1,
1,
10010000,
1,
1,
1110,
11,
11,
11,
500000000000000000000000000000000000000000000008,
,
1,
1,
1110,
11,
11,
11,
500000000000000000000000000000000000000000000008,
,//24
#GOGOSTART
12,
12,
1111,
1,
12,
12,
500000000000000000000000000008000000000000000000,
3,//32
#GOGOEND
1,
11,
1110,
1110,
500000000000000000000000000000000000000000000008,
,
1,
11,
1110,
1110,//42
#GOGOSTART
9009,
8,
,
,
1,
1,
1,
10010000,
500000000000000000000000000008000000000000000000,
1111,
0300,//53
#GOGOEND
,
,
#END