Files
TJA-by-song-no/tja/321.tja
2026-03-07 15:37:31 +09:00

359 lines
4.6 KiB
Plaintext
Raw Permalink Blame History

This file contains ambiguous Unicode characters
This file contains Unicode characters that might be confused with other characters. If you think that this is intentional, you can safely ignore this warning. Use the Escape button to reveal them.
//TJADB Project
TITLE:Knuckle Heads Ouburoukou
TITLEJA:ナックルヘッズ 鷹舞狼吼
SUBTITLE:--Takayuki Aihara/KNUCKLE HEADS
BPM:138
WAVE:Knuckle Heads Ouburoukou.ogg
OFFSET:-2.005
DEMOSTART:22.871
COURSE:Oni
LEVEL:8
BALLOON:16,46,6,16
SCOREINIT:470
SCOREDIFF:115
#START
3003004004002210,
2220222022202220,
3003004004001010,
7008,
100000000100000000300000000000202020100100100100,
1001002002003000,
100000200000200000100000200000200000202020200200,
1021001021007000,
,
0008,
3003004000211020,
500000000000000000000008000000000200200000200000,
1010100101211020,
1110100101211020,
1010100101211020,
1110100101211020,
1010100101211020,
1110100101211020,
1010100101211020,
1021020110210201,
1010100101211020,
1120100101211030,
1010100101211020,
1120100101211030,
1010100101211020,
1120100101211030,
1010100101211020,
1021020110212111,
0011201110102022,
2022101111201122,
0011201110102022,
2020203000022000,
10112113,
01112441,
10112113,
0010102210210210,
10112113,
01112441,
21121112,
0011201012111212,//40
#GOGOSTART
1010102101211020,
1010102101211020,
4004004002212022,
1010102101211020,
1010102101211020,
1022122101201030,
1010102101211020,
1021102110211120,
1020102101201120,
1020102101201120,
4004004002212022,
1020102101201120,
1020102101201120,
1020102101201120,
1011222122212221,
2121212170000080,
1011102011021011,
1020112020112010,
1011102011021011,
1020112011011020,
1011102011021011,
1020112020112010,
1011102011021011,
1020112011111110,//64
#GOGOEND
3003000000002020,
3003004004002210,
2220222022202220,
3003004004001010,
7008,
100000000100000000300000000000202020100100100100,
1001002002003000,
100000200000200000100000200000200000202020200200,
1021001021001010,
3003000000000000,
#END
COURSE:Hard
LEVEL:7
BALLOON:12,35,25,12
#START
1001002002000000,
1110111011101000,
1001002002000000,
7008,
1001002002000000,
1001002002000000,
1001002002000000,
3003004004007000,
,
0008,
3003004000300000,
500000000000000000000000000000000008000000000000,
1010100101111000,
1010200101111000,
1010100101111000,
1010200101111000,
1010100101111000,
1110111011101010,
1000001110002000,
500000000000000000000000000000000008000000000000,
1010100101111000,
1010200101111000,
1010100101111000,
1010200101111000,
1010100101111000,
1110111011101010,
1000001110002000,
500000000000000000000000000000000008000000000000,
1011101010102000,
1011102010101010,
1011101010102000,
3030404000022000,
10012011,
01102220,
10012011,
0010100011102000,
10012011,
01102220,
10012011,
0010100011101110,//40
#GOGOSTART
1000101101101010,
1000101101101000,
3003003000000000,
1000101101101010,
1000101101101000,
1000101101101010,
1000101101101000,
1011101110111010,
1000101101102010,
1010101101101000,
3003004000000000,
1000101101102010,
1010101101101000,
1000101101102010,
7,
0008,
1011101010111010,
1011101010102000,
1011101010111010,
1011101010102000,
1011101010111010,
1011101010102000,
1011101010111010,
1011101010102020,//64
#GOGOEND
3003000000002020,
1001002002000000,
1110111011101000,
3003004004001010,
7008,
1001002002000000,
3003004004000000,
1001002002000000,
3003004004001010,
3003000000000000,
,
#END
COURSE:Normal
LEVEL:5
BALLOON:8,20,40,8
#START
30030000,
,
30030000,
7008,
30030000,
30030000,
30030000,
30030070,
,
0008,
30030000,
500000000000000000000000000000000008000000000000,
11100000,
1000001100000000,
11100000,
1000001100000000,
11100000,
11101110,
11,
1,
11100000,
1000001100000000,
11100000,
1000001100000000,
11100000,
11101110,
11,
1,
01111010,
22201000,
01111010,
10220000,
10012000,
11000000,
10012000,
11002000,
10012000,
11000000,
10012000,
11000000,//40
#GOGOSTART
1010001100002000,
1010001100000000,
3003003000000000,
1010001100002000,
1010001100000000,
1010001100002000,
10000111,
1,
1010001100002000,
1010001100000000,
3003003000000000,
1010001100002000,
1010001100000000,
1010001100000000,
500000000000000000000000000000000000000000000008,
,
0011100000000000,
0011100000000000,
0011100000000000,
0011100010101000,
7,
,
,
0008,//64
#GOGOEND
3,
3003004000000000,
,
3003003000000000,
7008,
3003004000000000,
3003003000000000,
3003004000000000,
3003003000000000,
3003000000000000,
,
#END
COURSE:Easy
LEVEL:4
BALLOON:8,20,30,8
#START
3,
,
30030000,
7008,
3,
30030000,
3,
30030070,
,
0008,
30030000,
500000000000000000000000000000000008000000000000,
1201,
1,
1201,
1,
1201,
1,
11,
1110,
1201,
1,
1201,
1,
1201,
1,
11,
1110,
1112,
1110,
1112,
10110000,
12,
11000000,
12,
11001000,
12,
11000000,
12,
11000000,//40
#GOGOSTART
1202,
1200,
3003003000000000,
1202,
1202,
1202,
1202,
1,
1202,
1200,
3003003000000000,
1202,
1202,
1200,
3003003000000000,
,
12,
11000000,
12,
11000000,
7,
,
,
0008,//64
#GOGOEND
3,
,
,
30030000,
7008,
10010000,
30030000,
10010000,
30030000,
3003000000000000,
,
#END