688 lines
7.6 KiB
Plaintext
688 lines
7.6 KiB
Plaintext
//TJADB Project
|
|
TITLE:Rocking Heart!
|
|
TITLEJA:ロックン・ハート!
|
|
SUBTITLE:--Kira Kira Girls/Tamagotchi! Yume Kira Dream
|
|
SUBTITLEJA:「たまごっち!ゆめキラドリーム」より
|
|
BPM:177
|
|
WAVE:Rocking Heart!.ogg
|
|
OFFSET:-1.573
|
|
DEMOSTART:54.411
|
|
|
|
COURSE:Oni
|
|
LEVEL:5
|
|
SCOREINIT:630
|
|
SCOREDIFF:178
|
|
|
|
|
|
#START
|
|
|
|
|
|
10201120,//1
|
|
|
|
#GOGOSTART
|
|
1020102011102220,
|
|
11220120,
|
|
1010202010111020,
|
|
000000100000100000100000500000000000000008000000,//5
|
|
|
|
#GOGOEND
|
|
11110120,
|
|
2011102000102000,
|
|
12120201,
|
|
1022201022201000,
|
|
11110120,
|
|
2011102000102000,
|
|
22110120,
|
|
11110120,
|
|
1000200010102011,
|
|
10201120,
|
|
10201212,
|
|
0011101030003000,
|
|
1000200010102011,
|
|
10210120,
|
|
10030334,
|
|
00040000,
|
|
1000200010102011,
|
|
10201120,
|
|
1000200010100011,
|
|
1010200022202000,
|
|
1000200010100011,
|
|
11211220,
|
|
3030002220222000,
|
|
40140011,
|
|
10120120,
|
|
10120120,
|
|
10022020,
|
|
1110002220000000,
|
|
11220220,
|
|
20120110,
|
|
1333,
|
|
30120125,
|
|
000000000000000000000000000000000008000000000000,
|
|
1110222011100000,//39
|
|
|
|
#GOGOSTART
|
|
3000403000400022,
|
|
2020201000111000,
|
|
40340302,
|
|
2000101020222000,
|
|
30430402,
|
|
2010102020111000,
|
|
4000304000111010,
|
|
22110440,
|
|
3000403000400022,
|
|
2020201000111000,
|
|
40340302,
|
|
2000101020222000,
|
|
30430402,
|
|
2010102020111000,
|
|
4000304000111010,
|
|
22110440,
|
|
1020102011102220,
|
|
11220120,
|
|
1010202010111020,
|
|
000000100000100000100000500000000000000008000000,//59
|
|
|
|
#GOGOEND
|
|
11110120,
|
|
2011102000102000,
|
|
22110120,
|
|
12120110,
|
|
5,
|
|
000000000000000000000000000000000000000000000008,
|
|
0000030000000000,
|
|
|
|
|
|
#END
|
|
|
|
|
|
COURSE:Hard
|
|
LEVEL:5
|
|
SCOREINIT:630
|
|
SCOREDIFF:180
|
|
|
|
#START
|
|
10201120,//1
|
|
|
|
#GOGOSTART
|
|
3322,
|
|
11220120,
|
|
11221102,
|
|
000000500000000000000000000000000000000008000000,//5
|
|
|
|
#GOGOEND
|
|
11110220,
|
|
1011101000202000,
|
|
11110220,
|
|
12202200,
|
|
11110220,
|
|
1011101000202000,
|
|
22110220,
|
|
33440000,
|
|
10201122,
|
|
00201120,
|
|
10201122,
|
|
0011100030003000,
|
|
10201122,
|
|
00201120,
|
|
10030114,
|
|
00040000,
|
|
10201212,
|
|
00201120,
|
|
10201212,
|
|
0010200022202000,
|
|
10201212,
|
|
00201120,
|
|
3030002220202000,
|
|
40140000,
|
|
20110102,
|
|
0111,
|
|
20011012,
|
|
,
|
|
11220220,
|
|
20120110,
|
|
1333,
|
|
30120125,
|
|
000000000000000000000000000000000008000000000000,
|
|
1110111010100000,//39
|
|
|
|
#GOGOSTART
|
|
30330302,
|
|
02210110,
|
|
40340301,
|
|
10111200,
|
|
30330302,
|
|
21122110,
|
|
30140121,
|
|
500000000000000000000008000000400000400000000000,
|
|
30330302,
|
|
02210110,
|
|
40340301,
|
|
10111200,
|
|
30330302,
|
|
21122110,
|
|
30140121,
|
|
500000000000000000000008000000400000000000000000,
|
|
3322,
|
|
11220120,
|
|
11221101,
|
|
000000500000000000000000000000000000000008000000,//59
|
|
|
|
#GOGOEND
|
|
11110220,
|
|
1011101000202000,
|
|
22110220,
|
|
12120110,
|
|
5,
|
|
000000000000000000000000000000000000000000000008,
|
|
0000030000000000,
|
|
,
|
|
#END
|
|
|
|
COURSE:Normal
|
|
LEVEL:5
|
|
|
|
STYLE:Single
|
|
BALLOON:5,10
|
|
SCOREINIT:700
|
|
SCOREDIFF:235
|
|
|
|
#START
|
|
#SCROLL 0.9
|
|
1112,//1
|
|
|
|
#GOGOSTART
|
|
3322,
|
|
10110110,
|
|
10101105,
|
|
000000000000000000000000000000000008000000000000,//5
|
|
|
|
#GOGOEND
|
|
10010100,
|
|
10020000,
|
|
10010105,
|
|
000000000000000000000008000000000000000000000000,
|
|
10010100,
|
|
20020000,
|
|
30030000,
|
|
33330000,
|
|
01,
|
|
1111,
|
|
01,
|
|
100000000000100000000000500000000000000000000008,
|
|
01,
|
|
10110110,
|
|
00030303,
|
|
00030000,
|
|
01,
|
|
1111,
|
|
01,
|
|
100000000000100000000000500000000000000000000008,
|
|
01,
|
|
10110110,
|
|
300000000000000000500000000000000008000000000000,
|
|
30030000,
|
|
10010000,
|
|
10010000,
|
|
10010010,
|
|
20020000,
|
|
10100110,
|
|
10110000,
|
|
0333,
|
|
30110117,
|
|
,
|
|
8,//39
|
|
|
|
#GOGOSTART
|
|
30330301,
|
|
01102020,
|
|
30330301,
|
|
10102200,
|
|
30330301,
|
|
01101010,
|
|
30330301,
|
|
33330000,
|
|
30330301,
|
|
01102020,
|
|
30330301,
|
|
10102200,
|
|
30330301,
|
|
01101010,
|
|
30330300,
|
|
33330000,
|
|
3322,
|
|
10110110,
|
|
10101105,
|
|
000000000000000000000000000000000008000000000000,//59
|
|
|
|
#GOGOEND
|
|
10010100,
|
|
20020000,
|
|
10010000,
|
|
33330000,
|
|
9,
|
|
09,
|
|
8,
|
|
,
|
|
#END
|
|
|
|
STYLE:Double
|
|
BALLOON:5,10
|
|
SCOREINIT:800
|
|
SCOREDIFF:280
|
|
|
|
#START P1
|
|
#SCROLL 0.9
|
|
1112,//1
|
|
|
|
#GOGOSTART
|
|
3300,
|
|
10110110,
|
|
10101105,
|
|
000000000000000000000000000008000000000000000000,//5
|
|
|
|
#GOGOEND
|
|
10010100,
|
|
10020000,
|
|
10010105,
|
|
000000000000000000000008000000000000000000000000,
|
|
10010100,
|
|
20020000,
|
|
30030000,
|
|
33330000,
|
|
01,
|
|
1111,
|
|
01,
|
|
100000000000100000000000500000000000000000000008,
|
|
01,
|
|
10110110,
|
|
00030303,
|
|
00030000,
|
|
01,
|
|
1111,
|
|
01,
|
|
100000000000100000000000500000000000000000000008,
|
|
01,
|
|
10110110,
|
|
300000000000000000500000000000000008000000000000,
|
|
30030000,
|
|
10010000,
|
|
10010000,
|
|
10010010,
|
|
20020000,
|
|
10100110,
|
|
10110000,
|
|
0333,
|
|
10110117,
|
|
,
|
|
8,//39
|
|
|
|
#GOGOSTART
|
|
30400001,
|
|
01102020,
|
|
30400001,
|
|
10102200,
|
|
30400001,
|
|
01101010,
|
|
30330300,
|
|
33330000,
|
|
00030401,
|
|
01102040,
|
|
00030401,
|
|
1144,
|
|
00030401,
|
|
01101040,
|
|
30330300,
|
|
500000000000000008000000000000400000400000000000,
|
|
0044,
|
|
10110110,
|
|
10101105,
|
|
000000000000000000000000000000000008000000000000,//59
|
|
|
|
#GOGOEND
|
|
10010100,
|
|
20020000,
|
|
10010000,
|
|
33330000,
|
|
9,
|
|
09,
|
|
8,
|
|
,
|
|
#END
|
|
|
|
BALLOON:5,10
|
|
SCOREINIT:800
|
|
SCOREDIFF:280
|
|
|
|
#START P2
|
|
#SCROLL 0.9
|
|
1112,//1
|
|
|
|
#GOGOSTART
|
|
0044,
|
|
10110110,
|
|
10101105,
|
|
000000000000000000000000000008000000000000000000,//5
|
|
|
|
#GOGOEND
|
|
10010100,
|
|
10020000,
|
|
10010105,
|
|
000000000000000000000008000000000000000000000000,
|
|
10010100,
|
|
20020000,
|
|
30030000,
|
|
33330000,
|
|
01,
|
|
1111,
|
|
01,
|
|
100000000000100000000000500000000000000000000008,
|
|
01,
|
|
10110110,
|
|
00030303,
|
|
00030000,
|
|
01,
|
|
1111,
|
|
01,
|
|
100000000000100000000000500000000000000000000008,
|
|
01,
|
|
10110110,
|
|
300000000000000000500000000000000008000000000000,
|
|
30030000,
|
|
10010000,
|
|
10010000,
|
|
10010010,
|
|
20020000,
|
|
10100110,
|
|
10110000,
|
|
0333,
|
|
10110117,
|
|
,
|
|
8,//39
|
|
|
|
#GOGOSTART
|
|
00030401,
|
|
01102040,
|
|
00030401,
|
|
1144,
|
|
00030401,
|
|
01101040,
|
|
30330300,
|
|
500000000000000008000000000000400000400000000000,
|
|
30400001,
|
|
01102020,
|
|
30400001,
|
|
10102200,
|
|
30400001,
|
|
01101010,
|
|
30330300,
|
|
33330000,
|
|
3300,
|
|
10110110,
|
|
10101105,
|
|
000000000000000000000000000000000008000000000000,//59
|
|
|
|
#GOGOEND
|
|
10010100,
|
|
20020000,
|
|
10010000,
|
|
33330000,
|
|
9,
|
|
09,
|
|
8,
|
|
,
|
|
#END
|
|
|
|
COURSE:Easy
|
|
LEVEL:2
|
|
|
|
STYLE:Single
|
|
BALLOON:4,8
|
|
SCOREINIT:830
|
|
SCOREDIFF:555
|
|
|
|
#START
|
|
#SCROLL 0.9
|
|
,//1
|
|
|
|
#GOGOSTART
|
|
3300,
|
|
11,
|
|
10001005,
|
|
000000000000000000000000000008000000000000000000,//5
|
|
|
|
#GOGOEND
|
|
1,
|
|
2,
|
|
1,
|
|
22,
|
|
1,
|
|
2,
|
|
1,
|
|
2,
|
|
01,
|
|
11,
|
|
01,
|
|
100000000000000000000000500000000000000000000008,
|
|
01,
|
|
11,
|
|
00001003,
|
|
00030000,
|
|
01,
|
|
11,
|
|
01,
|
|
100000000000000000000000500000000000000000000008,
|
|
01,
|
|
11,
|
|
000000000000500000000000000008000000000000000000,
|
|
30030000,
|
|
1,
|
|
2,
|
|
1,
|
|
2,
|
|
11,
|
|
1,
|
|
0333,
|
|
30001007,
|
|
,
|
|
8,//39
|
|
|
|
#GOGOSTART
|
|
30030000,
|
|
0220,
|
|
30030000,
|
|
22,
|
|
30030000,
|
|
2220,
|
|
30030000,
|
|
600000000000000000000000008000000000000000000000,
|
|
30030000,
|
|
0220,
|
|
30030000,
|
|
22,
|
|
30030000,
|
|
2220,
|
|
30030000,
|
|
600000000000000000000000008000000000000000000000,
|
|
3300,
|
|
11,
|
|
10001005,
|
|
000000000000000000000000000008000000000000000000,//59
|
|
|
|
#GOGOEND
|
|
1,
|
|
2,
|
|
2,
|
|
1,
|
|
9,
|
|
09,
|
|
8,
|
|
,
|
|
#END
|
|
|
|
STYLE:Double
|
|
BALLOON:4,8
|
|
SCOREINIT:830
|
|
SCOREDIFF:555
|
|
|
|
#START P1
|
|
#SCROLL 0.9
|
|
,//1
|
|
|
|
#GOGOSTART
|
|
3300,
|
|
11,
|
|
10001005,
|
|
000000000000000000000000000008000000000000000000,//5
|
|
|
|
#GOGOEND
|
|
1,
|
|
2,
|
|
1,
|
|
22,
|
|
1,
|
|
2,
|
|
1,
|
|
2,
|
|
01,
|
|
11,
|
|
01,
|
|
100000000000000000000000500000000000000000000008,
|
|
01,
|
|
11,
|
|
00001003,
|
|
00030000,
|
|
01,
|
|
11,
|
|
01,
|
|
100000000000000000000000500000000000000000000008,
|
|
01,
|
|
11,
|
|
000000000000500000000000000008000000000000000000,
|
|
30030000,
|
|
1,
|
|
2,
|
|
1,
|
|
2,
|
|
11,
|
|
1,
|
|
0333,
|
|
30001007,
|
|
,
|
|
8,//39
|
|
|
|
#GOGOSTART
|
|
3300,
|
|
0220,
|
|
3300,
|
|
22,
|
|
3300,
|
|
2220,
|
|
30030000,
|
|
600000000000000000000000008000000000000000000000,
|
|
00030300,
|
|
0220,
|
|
00030300,
|
|
22,
|
|
00030300,
|
|
2220,
|
|
30030000,
|
|
600000000000000000000000008000000000000000000000,
|
|
0033,
|
|
11,
|
|
10001005,
|
|
000000000000000000000000000008000000000000000000,//59
|
|
|
|
#GOGOEND
|
|
1,
|
|
2,
|
|
2,
|
|
1,
|
|
9,
|
|
09,
|
|
8,
|
|
,
|
|
#END
|
|
|
|
BALLOON:4,8
|
|
SCOREINIT:830
|
|
SCOREDIFF:555
|
|
|
|
#START P2
|
|
#SCROLL 0.9
|
|
,//1
|
|
|
|
#GOGOSTART
|
|
0033,
|
|
11,
|
|
10001005,
|
|
000000000000000000000000000008000000000000000000,//5
|
|
|
|
#GOGOEND
|
|
1,
|
|
2,
|
|
1,
|
|
22,
|
|
1,
|
|
2,
|
|
1,
|
|
2,
|
|
01,
|
|
11,
|
|
01,
|
|
100000000000000000000000500000000000000000000008,
|
|
01,
|
|
11,
|
|
00001003,
|
|
00030000,
|
|
01,
|
|
11,
|
|
01,
|
|
100000000000000000000000500000000000000000000008,
|
|
01,
|
|
11,
|
|
000000000000500000000000000008000000000000000000,
|
|
30030000,
|
|
1,
|
|
2,
|
|
1,
|
|
2,
|
|
11,
|
|
1,
|
|
0333,
|
|
30001007,
|
|
,
|
|
8,//39
|
|
|
|
#GOGOSTART
|
|
00030300,
|
|
0220,
|
|
00030300,
|
|
22,
|
|
00030300,
|
|
2220,
|
|
30030000,
|
|
600000000000000000000000008000000000000000000000,
|
|
3300,
|
|
0220,
|
|
3300,
|
|
22,
|
|
3300,
|
|
2220,
|
|
30030000,
|
|
600000000000000000000000008000000000000000000000,
|
|
3300,
|
|
11,
|
|
10001005,
|
|
000000000000000000000000000008000000000000000000,//59
|
|
|
|
#GOGOEND
|
|
1,
|
|
2,
|
|
2,
|
|
1,
|
|
9,
|
|
09,
|
|
8,
|
|
,
|
|
#END |