Files
TJA-by-song-no/tja/374.tja
2026-03-07 15:37:31 +09:00

661 lines
19 KiB
Plaintext

//TJADB Project
TITLE:Guren no Yumiya -Original Version-
TITLEJA:紅蓮の弓矢 -Original Version-
SUBTITLE:--Linked Horizon/Attack on Titan
SUBTITLEJA:「進撃の巨人」より
BPM:178.251
WAVE:Guren no Yumiya -Original Version-.ogg
OFFSET:-0.067
DEMOSTART:46.548
COURSE:Oni
LEVEL:8
BALLOON:8
SCOREINIT:600
SCOREDIFF:130
#START
#SCROLL 1.01
300000000000200000200000000000200000200000200000,
#BPMCHANGE 180.501
#SCROLL 1.00
000000200000200000200000000000200000100100100100,
#BPMCHANGE 180.911
#GOGOSTART
100000100100100000100000000000100000200000100000,
#BPMCHANGE 179.490
#SCROLL 1.01
000000100000200000100000000000200000100100100100,
100000100100100000100000000000100000200000100000,
#BPMCHANGE 184.153
#SCROLL 0.98
000000100000200000100000000000100000200200200200,
#BPMCHANGE 180.501
#SCROLL 1.00
100000200200200000100000000000100000200000100000,
#BPMCHANGE 182.144
#SCROLL 0.99
000000100000200000100000000000100000200200200200,
#BPMCHANGE 180.339
#SCROLL 1.00
100000200200200000100000000000100000200000100000,
000000100000200000100000000000200000000000000000,
#BPMCHANGE 180.991
#SCROLL 0.99
#GOGOEND
100000200000200000100000200000100100200000000000,
#BPMCHANGE 179.853
#SCROLL 1.01
200000000000200000000000200000000000200000100000,
200000000000200000000000200000100000200000100000,
#BPMCHANGE 183.311
#SCROLL 0.99
200000000000200000000000200000000000200000200200,
#BPMCHANGE 179.050
#SCROLL 1.01
100000000000200000000000200000100000200200200200,
#BPMCHANGE 181.152
#SCROLL 1.00
100000000000200000000000200000000000200000200200,
#BPMCHANGE 178.890
#SCROLL 1.01
100000000000200000000000200000100000200000100000,
#BPMCHANGE 181.236
#SCROLL 1.00
200000000000200000000000200000000000200000200200,
#BPMCHANGE 182.681
#SCROLL 0.99
100000000000200000000000200000400000000000000000,
#BPMCHANGE 180.197
#SCROLL 1.00
100000000000100000000000100000100100200000200000,
100000100100200000200000100000200100100100200000,
#BPMCHANGE 180.502
100000000000100000000000100000100100200000200000,
100000100100200000200000100000200200100100100000,
#BPMCHANGE 180.787
100000000000100000000000100000100100200000200000,
100000100100200000200000100000200100100100200000,
#BPMCHANGE 181.790
#SCROLL 0.99
100000000000100000000000100000100100200000200000,
#BPMCHANGE 181.258
#SCROLL 1.00
100000200200100200200000100000000000000000000000,
#BPMCHANGE 179.530
#SCROLL 1.01
100000000000200000000000200000100100200000100000,
#BPMCHANGE 178.890
100000000000200000000000200000100100200000001000,
#BPMCHANGE 181.978
#SCROLL 0.99
100000000000100000002000200000000000200000001000,
#BPMCHANGE 181.566
#SCROLL 1.00
100000000000100000002000200000000000200000300000,
#BPMCHANGE 180.895
000000100000200000000000100100100000200000000000,
#BPMCHANGE 180.433
200000100000200000100000000000200000000000300000,
#BPMCHANGE 180.926
000000100000200000000000100100100000200000000000,
#BPMCHANGE 179.514
#SCROLL 1.01
700000000000000000000000800000000000000000000000,
#BPMCHANGE 180.481
#SCROLL 1.00
#GOGOSTART
100100100000200000100000100000100100200100100000,
000000100000100000100000100000200200100100100000,
100100100000200000100000100000200200200000500000,
000008000000200200200000000000400000000000000000,
#BPMCHANGE 182.725
#SCROLL 0.99
100100100000200000100000100000100100200100100000,
#BPMCHANGE 179.047
#SCROLL 1.01
000000100000100000100000100000200200100100100000,
#BPMCHANGE 180.991
#SCROLL 1.00
100100100000200000100000100000200100100100200000,
000000500000000008000000400000000000000000000000,
#BPMCHANGE 180.745
100100100100200000100000100000100100200100100000,
000000200000100000100000200100100100200000100000,
#BPMCHANGE 180.339
100100100100200000100000100000200200200000500000,
000008000000200200200000000000400000000000000000,
#BPMCHANGE 180.869
100100100100200000100000100000100100200100100000,
000000200000100000100000200100100100200100100100,
#BPMCHANGE 180.337
#GOGOEND
100000000000000000000000200000100100100100100100,
#BPMCHANGE 180.705
#GOGOSTART
100000100100100000100000000000100000200000100000,
000000100000200000100000000000200000100100100100,
#BPMCHANGE 180.909
100000100100100000100000000000100000200000100000,
000000100000200000100000000000100000200200200200,
#BPMCHANGE 180.095
100000200200200000100000000000100000200000100000,
000000100000200000100000000000100000200200200200,
#BPMCHANGE 181.320
100000200200200000100000000000100000200000100000,
000000100000200000100000200200100200200200100200,
#BPMCHANGE 180.501
200000000000200000100000200000100100200000100000,
#BPMCHANGE 181.725
#SCROLL 0.99
200000100100200000100000200000100000200000100100,
#BPMCHANGE 179.859
#SCROLL 1.01
200000000000200000100000200000100100200000100000,
#BPMCHANGE 180.745
#SCROLL 1.00
200000100100200000100000200000100000200100100100,
200000100000200200100200200000100000200100100100,
#BPMCHANGE 180.339
200000100000200200100200200000100000200200100000,
400000000000300000300000000000400000400000000000,
#BPMCHANGE 182.062
#SCROLL 0.99
300000200200100100100000600000000000000000000000,
#BPMCHANGE 180.679
#SCROLL 1.00
000000000000000000000000000000000000000000000008,
#GOGOEND
#END
COURSE:Hard
LEVEL:6
BALLOON:6
#START
#SCROLL 1.01
300000000000000000000000000000000000000000000000,
#BPMCHANGE 180.501
#SCROLL 1.00
000000000000000000000000000000000000000000000000,
#BPMCHANGE 180.911
#GOGOSTART
300000000000200000100000000000200000000000100000,
#BPMCHANGE 179.490
#SCROLL 1.01
000000200000000000100000000000200000000000000000,
300000000000200000100000000000200000000000100000,
#BPMCHANGE 184.153
#SCROLL 0.98
000000200000000000100000000000200000000000000000,
#BPMCHANGE 180.501
#SCROLL 1.00
300000000000200000100000000000200000000000100000,
#BPMCHANGE 182.144
#SCROLL 0.99
000000200000000000100000000000200000000000000000,
#BPMCHANGE 180.339
#SCROLL 1.00
300000000000200000100000000000200000000000100000,
000000200000000000100000000000200000000000000000,
#BPMCHANGE 180.991
#SCROLL 0.99
#GOGOEND
500000000000000000000000000000000008000000000000,
#BPMCHANGE 179.853
#SCROLL 1.01
200000000000200000000000200000000000200000100000,
200000000000200000000000200000100000200000000000,
#BPMCHANGE 183.311
#SCROLL 0.99
200000000000200000000000200000000000200000100000,
#BPMCHANGE 179.050
#SCROLL 1.01
200000000000200000000000200000100000200000000000,
#BPMCHANGE 181.152
#SCROLL 1.00
200000000000200000000000200000000000200000100000,
#BPMCHANGE 178.890
#SCROLL 1.01
200000000000200000000000200000100000200000000000,
#BPMCHANGE 181.236
#SCROLL 1.00
200000000000200000000000200000000000200000100000,
#BPMCHANGE 182.681
#SCROLL 0.99
200000000000200000000000200000400000000000000000,
#BPMCHANGE 180.197
#SCROLL 1.00
100000000000100000000000100000100100100000000000,
100000000000100000000000200000100100100000000000,
#BPMCHANGE 180.502
100000000000100000000000100000100100100000000000,
100000000000100000000000200000100100100000000000,
#BPMCHANGE 180.787
100000000000100000000000100000100100100000000000,
100000000000100000000000200000100100100000000000,
#BPMCHANGE 181.790
#SCROLL 0.99
100000000000100000000000100000100100100000000000,
#BPMCHANGE 181.258
#SCROLL 1.00
200000000000100000000000200000000000000000000000,
#BPMCHANGE 179.530
#SCROLL 1.01
100000000000200000000000200000000000200000100000,
#BPMCHANGE 178.890
100000000000200000000000200000000000200000000000,
#BPMCHANGE 181.978
#SCROLL 0.99
300000000000000000000000400000000000000000000000,
#BPMCHANGE 181.566
#SCROLL 1.00
300000000000000000000000400000000000000000300000,
#BPMCHANGE 180.895
000000100000200000000000100000100000200000000000,
#BPMCHANGE 180.433
100000000000200000100000000000200000000000300000,
#BPMCHANGE 180.926
000000100000200000000000100000100000200000000000,
#BPMCHANGE 179.514
#SCROLL 1.01
700000000000000000000000800000000000000000000000,
#BPMCHANGE 180.481
#SCROLL 1.00
#GOGOSTART
100100100000100000100000000000200000000000100100,
100000100000100000100000000000200000000000000000,
100100100000100000100000000000200000000000200000,
000000000000100000100000000000400000000000000000,
#BPMCHANGE 182.725
#SCROLL 0.99
100100100000100000100000000000200000000000100100,
#BPMCHANGE 179.047
#SCROLL 1.01
100000100000100000100000000000200000000000000000,
#BPMCHANGE 180.991
#SCROLL 1.00
100100100000100000100000000000200000200000200000,
000000500000000008000000400000000000000000000000,
#BPMCHANGE 180.745
100100100000100000100000000000200000000000100100,
100000100000100000100000000000200000000000000000,
#BPMCHANGE 180.339
100100100000100000100000000000200000000000200000,
000000000000100000100000000000400000000000000000,
#BPMCHANGE 180.869
100100100000100000100000000000200000000000100100,
100000100000100000100000000000200000000000000000,
#BPMCHANGE 180.337
#GOGOEND
300000000000000000000000000000000000000000000000,
#BPMCHANGE 180.705
#GOGOSTART
300000000000200000100000000000200000000000100000,
000000200000000000100000000000200000000000000000,
#BPMCHANGE 180.909
300000000000200000100000000000200000000000100000,
000000200000000000100000000000200000000000000000,
#BPMCHANGE 180.095
300000000000200000100000000000200000000000100000,
000000200000000000100000000000200000000000000000,
#BPMCHANGE 181.320
300000000000200000100000000000200000000000100000,
000000200000000000100000000000200000000000000000,
#BPMCHANGE 180.501
200000000000200000000000200000100000200000100000,
#BPMCHANGE 181.725
#SCROLL 0.99
200000000000200000000000100100100000200000000000,
#BPMCHANGE 179.859
#SCROLL 1.01
200000000000200000000000200000100000200000100000,
#BPMCHANGE 180.745
#SCROLL 1.00
200000000000200000000000100100100000200000000000,
200000000000200000000000100100100000200000000000,
#BPMCHANGE 180.339
200000000000200000000000100100100000200000000000,
400000000000300000300000000000400000400000000000,
#BPMCHANGE 182.062
#SCROLL 0.99
000000000000000000000000600000000000000000000000,
#BPMCHANGE 180.679
#SCROLL 1.00
000000000000000000000000000000000000000000000008,
#GOGOEND
#END
COURSE:Normal
LEVEL:6
BALLOON:5
#START
#SCROLL 1.01
300000000000000000000000000000000000000000000000,
#BPMCHANGE 180.501
#SCROLL 1.00
000000000000000000000000000000000000000000000000,
#BPMCHANGE 180.911
#GOGOSTART
100000000000100000100000000000200000000000100000,
#BPMCHANGE 179.490
#SCROLL 1.01
000000100000000000200000000000200000000000000000,
100000000000100000100000000000200000000000100000,
#BPMCHANGE 184.153
#SCROLL 0.98
000000100000000000200000000000200000000000000000,
#BPMCHANGE 180.501
#SCROLL 1.00
100000000000200000200000000000200000000000100000,
#BPMCHANGE 182.144
#SCROLL 0.99
000000100000000000200000000000200000000000000000,
#BPMCHANGE 180.339
#SCROLL 1.00
100000000000200000200000000000200000000000100000,
000000100000000000200000000000200000000000000000,
#BPMCHANGE 180.991
#SCROLL 0.99
#GOGOEND
500000000000000000000000000008000000000000000000,
#BPMCHANGE 179.853
#SCROLL 1.01
100000000000000000000000100000000000000000000000,
100000000000000000000000100000000000100000000000,
#BPMCHANGE 183.311
#SCROLL 0.99
100000000000000000000000100000000000000000000000,
#BPMCHANGE 179.050
#SCROLL 1.01
100000000000000000000000100000000000100000000000,
#BPMCHANGE 181.152
#SCROLL 1.00
200000000000000000000000200000000000000000000000,
#BPMCHANGE 178.890
#SCROLL 1.01
200000000000000000000000200000000000200000000000,
#BPMCHANGE 181.236
#SCROLL 1.00
200000000000000000000000200000000000000000000000,
#BPMCHANGE 182.681
#SCROLL 0.99
200000000000000000000000200000400000000000000000,
#BPMCHANGE 180.197
#SCROLL 1.00
100000000000100000000000100000000000100000000000,
100000000000100000000000200000000000100000100000,
#BPMCHANGE 180.502
100000000000100000000000100000000000100000000000,
100000000000100000000000200000000000100000100000,
#BPMCHANGE 180.787
100000000000100000000000100000000000100000000000,
100000000000100000000000200000000000100000100000,
#BPMCHANGE 181.790
#SCROLL 0.99
100000000000100000000000200000000000100000000000,
#BPMCHANGE 181.258
#SCROLL 1.00
200000000000100000000000200000000000000000000000,
#BPMCHANGE 179.530
#SCROLL 1.01
100000000000200000000000200000000000200000100000,
#BPMCHANGE 178.890
100000000000200000000000200000000000200000000000,
#BPMCHANGE 181.978
#SCROLL 0.99
300000000000000000000000400000000000000000000000,
#BPMCHANGE 181.566
#SCROLL 1.00
300000000000000000000000400000000000000000300000,
#BPMCHANGE 180.895
000000000000200000000000100000100000200000000000,
#BPMCHANGE 180.433
100000000000000000200000000000200000000000300000,
#BPMCHANGE 180.926
000000000000200000000000100000100000200000000000,
#BPMCHANGE 179.514
#SCROLL 1.01
700000000000000000000000800000000000000000000000,
#BPMCHANGE 180.481
#SCROLL 1.00
#GOGOSTART
100000000000100000100000000000200000000000100000,
000000100000100000100000000000200000000000000000,
100000000000100000100000000000200000000000100000,
000000000000200000200000000000400000000000000000,
#BPMCHANGE 182.725
#SCROLL 0.99
100000000000100000100000000000200000000000100000,
#BPMCHANGE 179.047
#SCROLL 1.01
000000100000100000100000000000200000000000000000,
#BPMCHANGE 180.991
#SCROLL 1.00
100000000000100000100000000000100000100000100000,
000000600000000000000000000008000000000000000000,
#BPMCHANGE 180.745
100000000000100000100000000000200000000000100000,
000000100000100000100000000000200000000000000000,
#BPMCHANGE 180.339
100000000000100000100000000000200000000000100000,
000000000000200000200000000000400000000000000000,
#BPMCHANGE 180.869
100000000000100000100000000000200000000000100000,
000000100000100000100000000000200000000000000000,
#BPMCHANGE 180.337
#GOGOEND
300000000000000000000000000000000000000000000000,
#BPMCHANGE 180.705
#GOGOSTART
100000000000100000100000000000200000000000100000,
000000100000000000200000000000200000000000000000,
#BPMCHANGE 180.909
100000000000100000100000000000200000000000100000,
000000100000000000200000000000200000000000000000,
#BPMCHANGE 180.095
100000000000200000200000000000200000000000100000,
000000100000000000200000000000200000000000000000,
#BPMCHANGE 181.320
100000000000200000200000000000200000000000100000,
000000100000000000200000000000200000000000000000,
#BPMCHANGE 180.501
200000000000100000000000100000000000100000000000,
#BPMCHANGE 181.725
#SCROLL 0.99
200000000000100000000000100000100000200000000000,
#BPMCHANGE 179.859
#SCROLL 1.01
200000000000100000000000100000000000100000000000,
#BPMCHANGE 180.745
#SCROLL 1.00
200000000000100000000000100000100000200000000000,
200000000000200000000000100000100000200000000000,
#BPMCHANGE 180.339
200000000000200000000000100000100000200000000000,
400000000000300000300000000000400000400000000000,
#BPMCHANGE 182.062
#SCROLL 0.99
000000000000000000000000600000000000000000000000,
#BPMCHANGE 180.679
#SCROLL 1.00
000000000000000000000000000000000000000000000008,
#GOGOEND
#END
COURSE:Easy
LEVEL:4
BALLOON:3,4
#START
#SCROLL 1.01
300000000000000000000000000000000000000000000000,
#BPMCHANGE 180.501
#SCROLL 1.00
000000000000000000000000000000000000000000000000,
#BPMCHANGE 180.911
#GOGOSTART
100000000000100000000000000000100000000000100000,
#BPMCHANGE 179.490
#SCROLL 1.01
000000100000000000100000000000100000000000000000,
100000000000100000000000000000100000000000100000,
#BPMCHANGE 184.153
#SCROLL 0.98
000000100000000000100000000000100000000000000000,
#BPMCHANGE 180.501
#SCROLL 1.00
200000000000200000000000000000100000000000100000,
#BPMCHANGE 182.144
#SCROLL 0.99
000000100000000000100000000000200000000000000000,
#BPMCHANGE 180.339
#SCROLL 1.00
200000000000200000000000000000100000000000100000,
000000100000000000100000000000200000000000000000,
#BPMCHANGE 180.991
#SCROLL 0.99
#GOGOEND
500000000000000000000000000008000000000000000000,
#BPMCHANGE 179.853
#SCROLL 1.01
100000000000000000000000100000000000000000000000,
100000000000100000000000100000000000000000000000,
#BPMCHANGE 183.311
#SCROLL 0.99
100000000000000000000000100000000000000000000000,
#BPMCHANGE 179.050
#SCROLL 1.01
100000000000100000000000100000000000000000000000,
#BPMCHANGE 181.152
#SCROLL 1.00
200000000000000000000000200000000000000000000000,
#BPMCHANGE 178.890
#SCROLL 1.01
200000000000200000000000200000000000000000000000,
#BPMCHANGE 181.236
#SCROLL 1.00
200000000000000000000000200000000000000000000000,
#BPMCHANGE 182.681
#SCROLL 0.99
200000000000200000000000200000000000000000000000,
#BPMCHANGE 180.197
#SCROLL 1.00
100000000000000000000000100000000000000000000000,
100000000000000000000000100000000000100000000000,
#BPMCHANGE 180.502
100000000000000000000000200000000000000000000000,
100000000000000000000000100000000000100000000000,
#BPMCHANGE 180.787
100000000000000000000000100000000000000000000000,
100000000000000000000000100000000000100000000000,
#BPMCHANGE 181.790
#SCROLL 0.99
100000000000000000000000200000000000000000000000,
#BPMCHANGE 181.258
#SCROLL 1.00
100000000000000000000000000000000000000000000000,
#BPMCHANGE 179.530
#SCROLL 1.01
100000000000100000000000200000000000000000000000,
#BPMCHANGE 178.890
100000000000100000000000200000000000000000000000,
#BPMCHANGE 181.978
#SCROLL 0.99
300000000000000000000000400000000000000000000000,
#BPMCHANGE 181.566
#SCROLL 1.00
300000000000000000000000400000000000000000300000,
#BPMCHANGE 180.895
000000000000100000000000100000000000100000000000,
#BPMCHANGE 180.433
700000000000000000800000000000000000000000300000,
#BPMCHANGE 180.926
000000000000100000000000100000000000100000000000,
#BPMCHANGE 179.514
#SCROLL 1.01
700000000000000000000000800000000000000000000000,
#BPMCHANGE 180.481
#SCROLL 1.00
#GOGOSTART
100000000000100000000000100000000000000000100000,
000000000000000000200000000000200000000000000000,
100000000000100000000000100000000000000000100000,
000000000000000000400000000000400000000000000000,
#BPMCHANGE 182.725
#SCROLL 0.99
100000000000100000000000100000000000000000100000,
#BPMCHANGE 179.047
#SCROLL 1.01
000000000000000000200000000000200000000000000000,
#BPMCHANGE 180.991
#SCROLL 1.00
100000000000100000000000100000000000000000000000,
000000600000000000000000000008000000000000000000,
#BPMCHANGE 180.745
100000000000100000000000200000000000000000100000,
000000000000000000200000000000200000000000000000,
#BPMCHANGE 180.339
100000000000100000000000200000000000000000100000,
000000000000000000400000000000400000000000000000,
#BPMCHANGE 180.869
100000000000100000000000200000000000000000100000,
000000000000000000200000000000200000000000000000,
#BPMCHANGE 180.337
#GOGOEND
300000000000000000000000000000000000000000000000,
#BPMCHANGE 180.705
#GOGOSTART
100000000000100000000000000000100000000000100000,
000000100000000000100000000000100000000000000000,
#BPMCHANGE 180.909
100000000000100000000000000000100000000000100000,
000000100000000000100000000000100000000000000000,
#BPMCHANGE 180.095
200000000000200000000000000000100000000000100000,
000000100000000000100000000000200000000000000000,
#BPMCHANGE 181.320
200000000000200000000000000000100000000000100000,
000000100000000000100000000000200000000000000000,
#BPMCHANGE 180.501
200000000000100000000000100000000000100000000000,
#BPMCHANGE 181.725
#SCROLL 0.99
100000000000100000000000100000000000200000000000,
#BPMCHANGE 179.859
#SCROLL 1.01
200000000000100000000000100000000000100000000000,
#BPMCHANGE 180.745
#SCROLL 1.00
100000000000100000000000100000000000200000000000,
200000000000100000000000100000000000100000000000,
#BPMCHANGE 180.339
200000000000100000000000100000000000100000000000,
300000000000300000300000000000400000400000000000,
#BPMCHANGE 182.062
#SCROLL 0.99
000000000000000000000000600000000000000000000000,
#BPMCHANGE 180.679
#SCROLL 1.00
000000000000000000000000000000000000000000000008,
#GOGOEND
#END