573 lines
8.2 KiB
Plaintext
573 lines
8.2 KiB
Plaintext
//TJADB Project
|
|
TITLE:Yawaraka Sensha
|
|
TITLEJA:やわらか戦車
|
|
SUBTITLE:--Rarecho/Yawaraka Sensha
|
|
BPM:155.629
|
|
WAVE:Yawaraka Sensha.ogg
|
|
OFFSET:-1.800
|
|
DEMOSTART:14.588
|
|
|
|
COURSE:Edit
|
|
LEVEL:9
|
|
SCOREINIT:380
|
|
SCOREDIFF:95
|
|
|
|
|
|
#START
|
|
|
|
|
|
#SCROLL 0.957
|
|
1111
|
|
#BPMCHANGE 151.166
|
|
#SCROLL 0.985
|
|
2211
|
|
#BPMCHANGE 149.092
|
|
#SCROLL 1
|
|
10102211,
|
|
#BPMCHANGE 150.122
|
|
11112211
|
|
22112211,
|
|
#BPMCHANGE 150.136
|
|
1111221110102211,
|
|
1111221122112211,
|
|
1021202010121010,
|
|
1020121220201000,
|
|
1111222210102222,
|
|
#BPMCHANGE 149.171
|
|
1111222210102000,
|
|
#BPMCHANGE 150
|
|
2211221122112211,
|
|
2211221122112211,
|
|
#BPMCHANGE 150.375
|
|
1111111122222222,
|
|
#BPMCHANGE 149.992
|
|
1111111122112211,
|
|
#BPMCHANGE 150.148
|
|
2211221122112211,
|
|
2211221122112211,
|
|
1111111122222222,
|
|
#BPMCHANGE 149.866
|
|
1111111122112211,
|
|
1111211121112111,
|
|
2111211121112111,
|
|
2222122212221222,
|
|
#BPMCHANGE 150.099
|
|
1222122212221222,
|
|
1111211121112111,
|
|
2111211121112111,
|
|
#BPMCHANGE 149.884
|
|
2222122212221222,
|
|
1222122212221222,
|
|
#GOGOSTART
|
|
1111222211112222,
|
|
1111222211112222,
|
|
#BPMCHANGE 150.17
|
|
1111222211112222,
|
|
#BPMCHANGE 149.559
|
|
1111222211112222,
|
|
#BPMCHANGE 150.787
|
|
1111111111111111,
|
|
#BPMCHANGE 150.06
|
|
2222222222222222,
|
|
1122112211221122,
|
|
1122112212121000,
|
|
#GOGOEND
|
|
#BPMCHANGE 150.136
|
|
,
|
|
,
|
|
#BPMCHANGE 149.589
|
|
,
|
|
,
|
|
#BPMCHANGE 150.154
|
|
2211221122112211,
|
|
2211221122112211,
|
|
1111111122222222,
|
|
1111111122112211,
|
|
2211221122112211,
|
|
2211221122112211,
|
|
1111111122222222,
|
|
1111111122112211,
|
|
#BPMCHANGE 148.886
|
|
1111211121112111,
|
|
#BPMCHANGE 150.119
|
|
2111211121112111,
|
|
2222122212221222,
|
|
#BPMCHANGE 150.111
|
|
1222122212221222,
|
|
1111211121112111,
|
|
#BPMCHANGE 150.222
|
|
2111211121112111,
|
|
#BPMCHANGE 149.843
|
|
2222122212221222,
|
|
1222122212221222,
|
|
#GOGOSTART
|
|
1111222211112222,
|
|
1111222211112222,
|
|
#BPMCHANGE 150.193
|
|
1111222211112222,
|
|
1111222211112222,
|
|
1212121212121212,
|
|
#BPMCHANGE 150.071
|
|
1212121212121212,
|
|
1122112211221122,
|
|
1122112212121000,
|
|
#BPMCHANGE 149.096
|
|
1021202010121010,
|
|
1020121220201000,
|
|
#SCROLL 2
|
|
#BPMCHANGE 150
|
|
4000001110000000,
|
|
#GOGOEND
|
|
#SCROLL 1
|
|
,
|
|
,
|
|
#END
|
|
|
|
COURSE:Oni
|
|
LEVEL:6
|
|
SCOREINIT:540
|
|
SCOREDIFF:145
|
|
|
|
#START
|
|
#SCROLL 0.957
|
|
1
|
|
#BPMCHANGE 151.166
|
|
#SCROLL 0.985
|
|
0
|
|
#BPMCHANGE 149.092
|
|
#SCROLL 1
|
|
10,
|
|
#BPMCHANGE 150.122
|
|
10001120,
|
|
#BPMCHANGE 150.136
|
|
1011100010111000,
|
|
1011111110104000,
|
|
1012100020212000,
|
|
1020121210102000,
|
|
1011101020203000,
|
|
#BPMCHANGE 149.171
|
|
4011101020201000,
|
|
#BPMCHANGE 150
|
|
1001102010201020,
|
|
1001202010102020,
|
|
#BPMCHANGE 150.375
|
|
32223000,
|
|
#BPMCHANGE 149.992
|
|
34443222,
|
|
#BPMCHANGE 150.148
|
|
1001102010201020,
|
|
1001202010102020,
|
|
1110202011102020,
|
|
#BPMCHANGE 149.866
|
|
1001201020003000,
|
|
1022102010221020,
|
|
1022102010221010,
|
|
1020102010111020,
|
|
#BPMCHANGE 150.099
|
|
1020102010222020,
|
|
1022102010221020,
|
|
1022102010221010,
|
|
#BPMCHANGE 149.884
|
|
1020102010111020,
|
|
12124444,//24
|
|
#GOGOSTART
|
|
3002102010201020,
|
|
3002102030303000,
|
|
#BPMCHANGE 150.17
|
|
3002102030201000,
|
|
#BPMCHANGE 149.559
|
|
3002102010112000,
|
|
#BPMCHANGE 150.787
|
|
30011223,
|
|
#BPMCHANGE 150.06
|
|
30021222,
|
|
3002202030002000,
|
|
500000000000000000000000000008000000400000000000,//32
|
|
#GOGOEND
|
|
#BPMCHANGE 150.136
|
|
1012100020212000,
|
|
1020121210102000,
|
|
#BPMCHANGE 149.589
|
|
3011101020203000,
|
|
4011101020201022,
|
|
#BPMCHANGE 150.154
|
|
1001102010201020,
|
|
1001202010102020,
|
|
32123000,
|
|
34343222,
|
|
1001102010201020,
|
|
1001202010102020,
|
|
1110202011102020,
|
|
1001201020003000,
|
|
#BPMCHANGE 148.886
|
|
1022102010221020,
|
|
#BPMCHANGE 150.119
|
|
1022102010221011,
|
|
1020102010111020,
|
|
#BPMCHANGE 150.111
|
|
1020102010222020,
|
|
1022102010221020,
|
|
#BPMCHANGE 150.222
|
|
1022102010221011,
|
|
#BPMCHANGE 149.843
|
|
1020102010111020,
|
|
12124444,//52
|
|
#GOGOSTART
|
|
3002102010201022,
|
|
1002102030303000,
|
|
#BPMCHANGE 150.193
|
|
3002102030201020,
|
|
3002102010111020,
|
|
30011223,
|
|
#BPMCHANGE 150.071
|
|
30021222,
|
|
3002202030002000,
|
|
600000000000000000000000000008000000400000000000,
|
|
#BPMCHANGE 149.096
|
|
1012100020212000,
|
|
1020121210303030,
|
|
#SCROLL 2
|
|
#BPMCHANGE 150
|
|
600000000008000000300300300000000000000000000000,//63
|
|
#GOGOEND
|
|
#SCROLL 1
|
|
,
|
|
,
|
|
#END
|
|
|
|
COURSE:Hard
|
|
LEVEL:6
|
|
SCOREINIT:640
|
|
SCOREDIFF:185
|
|
|
|
#START
|
|
#SCROLL 0.957
|
|
1
|
|
#BPMCHANGE 151.166
|
|
#SCROLL 0.985
|
|
0
|
|
#BPMCHANGE 149.092
|
|
#SCROLL 1
|
|
10,
|
|
#BPMCHANGE 150.122
|
|
11,
|
|
#BPMCHANGE 150.136
|
|
1011100010111000,
|
|
1011100010102000,
|
|
1011100020222000,
|
|
1010111110000000,
|
|
30002210,
|
|
#BPMCHANGE 149.171
|
|
30002210,
|
|
#BPMCHANGE 150
|
|
1001101020002000,
|
|
1001101010002000,
|
|
#BPMCHANGE 150.375
|
|
33,
|
|
#BPMCHANGE 149.992
|
|
30003222,
|
|
#BPMCHANGE 150.148
|
|
1001101020002000,
|
|
1001101010002000,
|
|
11221122,
|
|
#BPMCHANGE 149.866
|
|
1001101010000000,
|
|
12101010,
|
|
12101011,
|
|
12101010,
|
|
#BPMCHANGE 150.099
|
|
12101022,
|
|
12101010,
|
|
12101011,
|
|
#BPMCHANGE 149.884
|
|
12101010,
|
|
12102020,//24
|
|
#GOGOSTART
|
|
3001101020002000,
|
|
3001101020002000,
|
|
#BPMCHANGE 150.17
|
|
3232,
|
|
#BPMCHANGE 149.559
|
|
3333,
|
|
#BPMCHANGE 150.787
|
|
30001110,
|
|
#BPMCHANGE 150.06
|
|
30001122,
|
|
3232,
|
|
500000000000000000000000000008000000400000000000,//32
|
|
#GOGOEND
|
|
#BPMCHANGE 150.136
|
|
1011100020222000,
|
|
1010111110000000,
|
|
#BPMCHANGE 149.589
|
|
1011100020201000,
|
|
1011100020201000,
|
|
#BPMCHANGE 150.154
|
|
1001101020002000,
|
|
1001101020202000,
|
|
33,
|
|
30003222,
|
|
1001101020002000,
|
|
1001101010002000,
|
|
11221122,
|
|
1001101010003000,
|
|
#BPMCHANGE 148.886
|
|
12101210,
|
|
#BPMCHANGE 150.119
|
|
12101211,
|
|
12101210,
|
|
#BPMCHANGE 150.111
|
|
12101222,
|
|
12101210,
|
|
#BPMCHANGE 150.222
|
|
12101211,
|
|
#BPMCHANGE 149.843
|
|
12101210,
|
|
12102222,//52
|
|
|
|
#GOGOSTART
|
|
3001101020002000,
|
|
3001101030303000,
|
|
#BPMCHANGE 150.193
|
|
3232,
|
|
3344,
|
|
30001110,
|
|
#BPMCHANGE 150.071
|
|
30001122,
|
|
3434,
|
|
600000000000000000000000000008000000400000000000,
|
|
#BPMCHANGE 149.096
|
|
1011100020222000,
|
|
1010111110002000,
|
|
#BPMCHANGE 150
|
|
600000000008000000100100100000000000000000000000,//63
|
|
#GOGOEND
|
|
,
|
|
,
|
|
#END
|
|
|
|
COURSE:Normal
|
|
LEVEL:5
|
|
SCOREINIT:800
|
|
SCOREDIFF:290
|
|
|
|
#START
|
|
#SCROLL 0.957
|
|
1
|
|
#BPMCHANGE 151.166
|
|
#SCROLL 0.985
|
|
0
|
|
#BPMCHANGE 149.092
|
|
#SCROLL 1
|
|
10,
|
|
#BPMCHANGE 150.122
|
|
11,
|
|
#BPMCHANGE 150.136
|
|
1111,
|
|
1112,
|
|
34,
|
|
10101110,
|
|
3,
|
|
#BPMCHANGE 149.171
|
|
3,
|
|
#BPMCHANGE 150
|
|
10101110,
|
|
1110,
|
|
#BPMCHANGE 150.375
|
|
33,
|
|
#BPMCHANGE 149.992
|
|
33,
|
|
#BPMCHANGE 150.148
|
|
10101110,
|
|
1110,
|
|
1212,
|
|
#BPMCHANGE 149.866
|
|
1110,
|
|
1112,
|
|
1112,
|
|
11,
|
|
#BPMCHANGE 150.099
|
|
11,
|
|
1112,
|
|
1112,
|
|
#BPMCHANGE 149.884
|
|
11,
|
|
11,//24
|
|
#GOGOSTART
|
|
10101110,
|
|
10101110,
|
|
#BPMCHANGE 150.17
|
|
33,
|
|
#BPMCHANGE 149.559
|
|
3333,
|
|
#BPMCHANGE 150.787
|
|
3011,
|
|
#BPMCHANGE 150.06
|
|
3022,
|
|
33,
|
|
500000000000000000000008000000000000400000000000,//32
|
|
#GOGOEND
|
|
#BPMCHANGE 150.136
|
|
34,
|
|
10101110,
|
|
#BPMCHANGE 149.589
|
|
3,
|
|
3,
|
|
#BPMCHANGE 150.154
|
|
10101110,
|
|
1110,
|
|
33,
|
|
33,
|
|
10101110,
|
|
1110,
|
|
1212,
|
|
1110,
|
|
#BPMCHANGE 148.886
|
|
1112,
|
|
#BPMCHANGE 150.119
|
|
1112,
|
|
1012,
|
|
#BPMCHANGE 150.111
|
|
1022,
|
|
1112,
|
|
#BPMCHANGE 150.222
|
|
1112,
|
|
#BPMCHANGE 149.843
|
|
1012,
|
|
1022,//52
|
|
|
|
#GOGOSTART
|
|
10101110,
|
|
10101110,
|
|
#BPMCHANGE 150.193
|
|
33,
|
|
3333,
|
|
3011,
|
|
#BPMCHANGE 150.071
|
|
3022,
|
|
33,
|
|
600000000000000000000008000000000000400000000000,
|
|
#BPMCHANGE 149.096
|
|
34,
|
|
10101110,
|
|
#BPMCHANGE 150
|
|
600000000000000000000008000000000000000000000000,//63
|
|
#GOGOEND
|
|
,
|
|
,
|
|
#END
|
|
|
|
COURSE:Easy
|
|
LEVEL:3
|
|
BALLOON:5,5
|
|
SCOREINIT:610
|
|
SCOREDIFF:223
|
|
|
|
#START
|
|
#SCROLL 0.957
|
|
1
|
|
#BPMCHANGE 151.166
|
|
#SCROLL 0.985
|
|
0
|
|
#BPMCHANGE 149.092
|
|
#SCROLL 1
|
|
10,
|
|
#BPMCHANGE 150.122
|
|
11,
|
|
#BPMCHANGE 150.136
|
|
1110,
|
|
1110,
|
|
12,
|
|
1120,
|
|
32,
|
|
#BPMCHANGE 149.171
|
|
32,
|
|
#BPMCHANGE 150
|
|
1011,
|
|
1022,
|
|
#BPMCHANGE 150.375
|
|
11,
|
|
#BPMCHANGE 149.992
|
|
33,
|
|
#BPMCHANGE 150.148
|
|
1011,
|
|
1022,
|
|
11,
|
|
#BPMCHANGE 149.866
|
|
2220,
|
|
1110,
|
|
1110,
|
|
1210,
|
|
#BPMCHANGE 150.099
|
|
1210,
|
|
1110,
|
|
1110,
|
|
#BPMCHANGE 149.884
|
|
1210,
|
|
1210,//24
|
|
|
|
#GOGOSTART
|
|
31,
|
|
32,
|
|
#BPMCHANGE 150.17
|
|
33,
|
|
#BPMCHANGE 149.559
|
|
3333,
|
|
#BPMCHANGE 150.787
|
|
500000000000000000000000000008000000000000000000,
|
|
#BPMCHANGE 150.063
|
|
7008,
|
|
33,
|
|
600000000000000000000000000008000000000000000000,//32
|
|
|
|
#BPMCHANGE 150.136
|
|
#GOGOEND
|
|
12,
|
|
1120,
|
|
#BPMCHANGE 149.589
|
|
32,
|
|
32,
|
|
#BPMCHANGE 150.154
|
|
1011,
|
|
1022,
|
|
11,
|
|
33,
|
|
1011,
|
|
1022,
|
|
11,
|
|
2220,
|
|
#BPMCHANGE 148.886
|
|
1110,
|
|
#BPMCHANGE 150.119
|
|
1110,
|
|
1210,
|
|
#BPMCHANGE 150.111
|
|
1210,
|
|
1110,
|
|
#BPMCHANGE 150.222
|
|
1110,
|
|
#BPMCHANGE 149.843
|
|
1210,
|
|
1210,//52
|
|
|
|
#GOGOSTART
|
|
31,
|
|
32,
|
|
#BPMCHANGE 150.193
|
|
33,
|
|
3333,
|
|
500000000000000000000000000008000000000000000000,
|
|
#BPMCHANGE 150.071
|
|
7008,
|
|
33,
|
|
600000000000000000000000000008000000000000000000,
|
|
#BPMCHANGE 149.096
|
|
12,
|
|
1122,
|
|
#BPMCHANGE 150
|
|
600000000000000000000008000000000000000000000000,//63
|
|
|
|
#GOGOEND
|
|
,
|
|
,
|
|
#END |