Files
TJA-by-song-no/tja/42.tja
2026-03-07 15:37:31 +09:00

282 lines
3.0 KiB
Plaintext

//TJADB Project
TITLE:Anpanman no March -New Audio-
TITLEJA:アンパンマンのマーチ -New Audio-
SUBTITLE:--DREAM!ing/Anpanman
BPM:96.4
WAVE:Anpanman no March -New Audio-.ogg
OFFSET:-2.508
DEMOSTART:42.466
COURSE:Oni
LEVEL:1
SCOREINIT:540
SCOREDIFF:145
#START
#GOGOSTART
#SCROLL 2
1010102011011020,
#BPMCHANGE 96.05
11101110,
1010102011011020,
11111220,
#GOGOEND
1120112011111020,
1011102210111020,
1120112011111020,
1111102210221020,
1101102010111020,
1011102011011020,
1101102010111020,
1011102011011010,
1120112010101020,
1120112010101020,
1120112011201010,
1011101030000000,
#GOGOSTART
1010102011111020,
1111102010101020,
1010102011111020,
1111102010202000,
1010102011111020,
1111102010101020,
1010102011111020,
500000000000000000000000000000000000000008000000,
#GOGOEND
0000000011101000,
0000000010111000,
1120112011201000,
1111102210221020,
1101102010111020,
1011102011011020,
1101102010111020,
1011102011011010,
1120112010101020,
1120112010101020,
1120112011201010,
1011101030000000,
#GOGOSTART
1010102011111020,
1111102010101020,
1010102011111020,
1111102010202000,
1010102011111020,
1111102010101020,
1010102011111020,
500000000000000000000000000000000000000008000000,
#GOGOEND
#END
COURSE:Hard
LEVEL:5
BALLOON:8
SCOREINIT:740
SCOREDIFF:220
#START
#GOGOSTART
1010100011101000,
#BPMCHANGE 96.05
10112210,
1010100011101000,
10121120,
#GOGOEND
,
1011102010111000,
1020102010111000,
1011102010111000,
1011101010111000,
1011101010102000,
1011101010111000,
1011101030004000,
1110111010201000,
1110111010201000,
1110111010201020,
500000000000000000000000000000000008000000000000,//16
#GOGOSTART
1010100011101020,
10112210,
1010100011101020,
10121120,
30303330,
10112210,
3000300010111020,
500000000000000000000000000000000000000000000008,//24
#GOGOEND
,
1011101010111000,
1020102010111000,
1011102010111000,
1011101010111000,
1011101010102000,
1011101010111000,
1011101030004000,
1110111010201000,
1110111010201000,
1110111010201020,
500000000000000000000000000000000008000000000000,//36
#GOGOSTART
1010100011101020,
10112210,
1010100011101020,
10121120,
30303330,
10112210,
3000300010111020,
9009,//44
#GOGOEND
8,
,
,
#END
COURSE:Normal
LEVEL:1
BALLOON:10,10,6
#START
#GOGOSTART
11,
#BPMCHANGE 96.05
1112,
11,
1112,//4
#GOGOEND
,
33,
,
1111,
11,
1111,
11,
1111,
1022,
1022,
1022,
500000000000000000000000000000000008000000000000,//16
#GOGOSTART
11,
1112,
11,
7008,
33,
1111,
33,
500000000000000000000000000000000000000000000008,//24
#GOGOEND
,
33,
,
1111,
11,
1111,
11,
1111,
1022,
1022,
1022,
500000000000000000000000000000000008000000000000,//36
#GOGOSTART
12,
1112,
12,
7008,
33,
1112,
11,
9009,//44
#GOGOEND
8,
,
,
#END
COURSE:Easy
LEVEL:2
BALLOON:5
#START
#GOGOSTART
11,
#BPMCHANGE 96.05
1011,
11,
1111,//4
#GOGOEND
01,
0011,
01,
0011,
11,
1011,
11,
1111,
02,
02,
02,
1130,//16
#GOGOSTART
11,
1011,
11,
1111,
11,
1011,
11,
500000000000000000000000000000000000000008000000,//24
#GOGOEND
01,
0011,
01,
0011,
11,
1011,
11,
1111,
02,
02,
02,
1130,//36
#GOGOSTART
11,
1011,
11,
1111,
11,
1011,
11,
9009,//44
#GOGOEND
8,
,
,
#END