530 lines
4.3 KiB
Plaintext
530 lines
4.3 KiB
Plaintext
//TJADB Project
|
|
TITLE:Yuujou Pop
|
|
TITLEJA:友情ぽっぷ
|
|
SUBTITLE:--Mirai feat. Chata
|
|
BPM:174
|
|
WAVE:Yuujou Pop.ogg
|
|
OFFSET:-1.482
|
|
DEMOSTART:0.745
|
|
|
|
COURSE:Oni
|
|
LEVEL:6
|
|
BALLOON:27,25,25,25,38
|
|
SCOREINIT:450
|
|
SCOREDIFF:90
|
|
|
|
|
|
#START
|
|
|
|
|
|
#GOGOSTART
|
|
1000200011102000,
|
|
1110201011102010,
|
|
1000200011102000,
|
|
1011200011102010,
|
|
1000200011102000,
|
|
1000201011102010,
|
|
1000200011102000,
|
|
2022200010201021,
|
|
1000200011102000,
|
|
1000201011102010,
|
|
1000200011102000,
|
|
1110200010201120,
|
|
30330330,
|
|
33033030,
|
|
7,
|
|
,
|
|
0800000000000030,
|
|
|
|
#GOGOEND
|
|
03300000,
|
|
10201120,
|
|
11201120,
|
|
10201120,
|
|
1010200022202020,
|
|
10201120,
|
|
11201120,
|
|
10201120,
|
|
1020102010022020,
|
|
10201120,
|
|
11201120,
|
|
10201120,
|
|
1010200022202020,
|
|
10201120,
|
|
11201120,
|
|
11211121,
|
|
1020101110102220,
|
|
11100011,
|
|
01101110,
|
|
11100101,
|
|
01101110,
|
|
11100101,
|
|
01101110,
|
|
2020202022202220,
|
|
1010100011102000,
|
|
|
|
#GOGOSTART
|
|
1000200011102000,
|
|
1110201010102010,
|
|
1000200011102000,
|
|
1110200010102010,
|
|
1000200011102000,
|
|
1110201010102000,
|
|
10201120,
|
|
2220200012201220,
|
|
1000200011102000,
|
|
1110201010102010,
|
|
1000200011102000,
|
|
1110200010102000,
|
|
30330330,
|
|
33033030,
|
|
7,
|
|
0000000000080000,
|
|
|
|
#GOGOEND
|
|
00000003,
|
|
33300000,
|
|
1000201110102010,
|
|
0010201110102010,
|
|
1000201110102010,
|
|
10210122,
|
|
1000201110102010,
|
|
0010201110102010,
|
|
1000201110102010,
|
|
1010200120012022,
|
|
1000201110102010,
|
|
0010201110102000,
|
|
1010202011102220,
|
|
1020002011102000,
|
|
7,
|
|
0000000000080000,
|
|
7,
|
|
00000800,
|
|
11100011,
|
|
01101110,
|
|
11100101,
|
|
01101110,
|
|
11100101,
|
|
01101110,
|
|
1010102010122020,
|
|
10201120,
|
|
12101140,
|
|
|
|
#GOGOSTART
|
|
10201120,
|
|
1020102011102000,
|
|
10201120,
|
|
1110200010102011,
|
|
10201120,
|
|
1020102011102000,
|
|
10201120,
|
|
2220200010102011,
|
|
10201120,
|
|
1020102011202000,
|
|
10201120,
|
|
1020200010102220,
|
|
30330330,
|
|
33033030,
|
|
7,
|
|
,
|
|
0008,
|
|
|
|
#GOGOEND
|
|
1010101022203030,
|
|
|
|
|
|
#END
|
|
|
|
|
|
COURSE:Hard
|
|
LEVEL:7
|
|
BALLOON:17,15,15,15,25
|
|
SCOREINIT:430
|
|
SCOREDIFF:110
|
|
|
|
|
|
#START
|
|
|
|
|
|
#GOGOSTART
|
|
10201120,
|
|
10210121,
|
|
10201120,
|
|
11201110,
|
|
10201120,
|
|
10210121,
|
|
10201120,
|
|
2022200010101000,
|
|
10201120,
|
|
10210121,
|
|
10201120,
|
|
1110200010101000,
|
|
30330330,
|
|
33033030,
|
|
7,
|
|
,
|
|
80000003,//17
|
|
|
|
#GOGOEND
|
|
03300000,//18
|
|
1202,
|
|
10201120,
|
|
1202,
|
|
1000200022202000,
|
|
1202,
|
|
10202220,
|
|
1202,
|
|
12110000,
|
|
1202,
|
|
10201120,
|
|
1202,
|
|
1000200022202000,
|
|
1202,
|
|
11201120,
|
|
11021020,
|
|
11021020,
|
|
11100011,
|
|
01101110,
|
|
11100101,
|
|
01101110,
|
|
11100101,
|
|
01101120,
|
|
22220222,
|
|
00001120,//42
|
|
|
|
#GOGOSTART
|
|
10201120,
|
|
11211120,
|
|
10201120,
|
|
1110200000000000,
|
|
10201120,
|
|
11211120,
|
|
10201120,
|
|
2220200000000000,
|
|
10201120,
|
|
11211120,
|
|
10201120,
|
|
1110200010102000,
|
|
30330330,
|
|
33033030,
|
|
7,
|
|
,//58
|
|
|
|
#GOGOEND
|
|
80000003,
|
|
33300000,//60
|
|
10201120,
|
|
10211020,
|
|
10201120,
|
|
12221020,
|
|
10201120,
|
|
10211020,
|
|
10201120,
|
|
1020102011102000,
|
|
1000200011102000,
|
|
1000201110002000,
|
|
1022202010222020,
|
|
1022202000000000,
|
|
7,
|
|
0008,
|
|
7,
|
|
0008,
|
|
11100011,
|
|
01101110,
|
|
11100101,
|
|
01101120,
|
|
11100101,
|
|
01101120,
|
|
12120122,
|
|
10201120,
|
|
12101140,//85
|
|
|
|
#GOGOSTART
|
|
10201120,
|
|
1020102011101000,
|
|
10201120,
|
|
1110100010102000,
|
|
10201120,
|
|
1020102011102000,
|
|
10201120,
|
|
2220200010102000,
|
|
10201120,
|
|
12101220,
|
|
10201120,
|
|
12201120,
|
|
30330330,
|
|
33033030,
|
|
7,
|
|
,
|
|
0008,//102
|
|
|
|
#GOGOEND
|
|
11111033,
|
|
,
|
|
,
|
|
,
|
|
,
|
|
,
|
|
,
|
|
,
|
|
#END
|
|
|
|
COURSE:Normal
|
|
LEVEL:4
|
|
BALLOON:14,8,18,10,10,17
|
|
SCOREINIT:630
|
|
SCOREDIFF:160
|
|
|
|
#START
|
|
#GOGOSTART
|
|
11,
|
|
1,
|
|
11,
|
|
1100,
|
|
11,
|
|
1,
|
|
11,
|
|
2200,
|
|
11,
|
|
1,
|
|
11,
|
|
1100,
|
|
30030030,
|
|
03003000,
|
|
9,
|
|
0009,
|
|
0800000000000000,//17
|
|
|
|
#GOGOEND
|
|
,//18
|
|
1210,
|
|
1212,
|
|
1210,
|
|
1212,
|
|
1210,
|
|
1212,
|
|
1210,
|
|
1100,
|
|
1210,
|
|
1211,
|
|
1210,
|
|
1222,
|
|
1210,
|
|
1210,
|
|
33,
|
|
33,
|
|
1101,
|
|
0112,
|
|
1101,
|
|
0112,
|
|
1202,
|
|
0222,
|
|
7,
|
|
8,//42
|
|
|
|
#GOGOSTART
|
|
1210,
|
|
1210,
|
|
11,
|
|
1200,
|
|
1210,
|
|
1210,
|
|
11,
|
|
2200,
|
|
1210,
|
|
1210,
|
|
11,
|
|
1200,
|
|
30030030,
|
|
03003030,
|
|
9,
|
|
0000009000080000,//58
|
|
|
|
#GOGOEND
|
|
,
|
|
,//60
|
|
1212,
|
|
1210,
|
|
1212,
|
|
1210,
|
|
1212,
|
|
1210,
|
|
1212,
|
|
10201120,
|
|
1212,
|
|
1210,
|
|
11001100,
|
|
11010000,
|
|
7,
|
|
0000000000080000,
|
|
7,
|
|
00000800,
|
|
1101,
|
|
0112,
|
|
1101,
|
|
0122,
|
|
1101,
|
|
0112,
|
|
30300303,
|
|
,
|
|
,//85
|
|
|
|
#GOGOSTART
|
|
1012,
|
|
11,
|
|
1210,
|
|
11,
|
|
1012,
|
|
11,
|
|
1210,
|
|
2200,
|
|
1012,
|
|
11,
|
|
1210,
|
|
1100,
|
|
30030030,
|
|
03003030,
|
|
9,
|
|
,
|
|
0908,//102
|
|
|
|
#GOGOEND
|
|
,
|
|
,
|
|
,
|
|
,
|
|
,
|
|
,
|
|
,
|
|
,
|
|
#END
|
|
|
|
COURSE:Easy
|
|
LEVEL:4
|
|
BALLOON:10,6,8,8,8,12
|
|
SCOREINIT:600
|
|
SCOREDIFF:140
|
|
|
|
#START
|
|
#GOGOSTART
|
|
11,
|
|
1,
|
|
11,
|
|
1100,
|
|
11,
|
|
1,
|
|
11,
|
|
2200,
|
|
11,
|
|
1,
|
|
11,
|
|
1100,
|
|
3003,
|
|
03,
|
|
9,
|
|
0090,
|
|
0800000000000000,//17
|
|
|
|
#GOGOEND
|
|
,//18
|
|
1,
|
|
1011,
|
|
1,
|
|
1022,
|
|
1,
|
|
1011,
|
|
1,
|
|
1100,
|
|
1,
|
|
1011,
|
|
1,
|
|
1022,
|
|
1,
|
|
1,
|
|
3,
|
|
3,
|
|
1100,
|
|
11,
|
|
1100,
|
|
11,
|
|
12,
|
|
12,
|
|
7,
|
|
8,//42
|
|
|
|
#GOGOSTART
|
|
11,
|
|
1110,
|
|
11,
|
|
1100,
|
|
11,
|
|
1110,
|
|
11,
|
|
2200,
|
|
11,
|
|
1110,
|
|
11,
|
|
1100,
|
|
3003,
|
|
0033,
|
|
9,
|
|
0000009000080000,//58
|
|
|
|
#GOGOEND
|
|
,
|
|
,//60
|
|
1202,
|
|
0202,
|
|
1202,
|
|
0202,
|
|
1202,
|
|
0202,
|
|
1202,
|
|
0212,
|
|
1202,
|
|
0202,
|
|
1202,
|
|
0202,
|
|
7,
|
|
0000000008000000,
|
|
7,
|
|
00000800,
|
|
1100,
|
|
11,
|
|
1100,
|
|
11,
|
|
1100,
|
|
11,
|
|
1100,
|
|
3,
|
|
,//85
|
|
|
|
#GOGOSTART
|
|
1011,
|
|
11,
|
|
11,
|
|
1100,
|
|
1011,
|
|
11,
|
|
11,
|
|
2200,
|
|
1011,
|
|
11,
|
|
11,
|
|
1100,
|
|
3003,
|
|
03,
|
|
9,
|
|
,
|
|
0908,//102
|
|
|
|
#GOGOEND
|
|
,
|
|
,
|
|
,
|
|
,
|
|
,
|
|
,
|
|
,
|
|
,
|
|
#END |