373 lines
5.1 KiB
Plaintext
373 lines
5.1 KiB
Plaintext
//TJADB Project
|
|
TITLE:YouTube Theme Song
|
|
TITLEJA:YouTubeテーマソング
|
|
SUBTITLE:--HIKAKIN & SEIKIN
|
|
SUBTITLEJA:HIKAKIN & SEIKIN
|
|
BPM:128
|
|
WAVE:YouTube Theme Song.ogg
|
|
OFFSET:-8.130
|
|
DEMOSTART:77.468
|
|
|
|
//shinuchi: 7690/5260/2590/1980
|
|
|
|
COURSE:Oni
|
|
LEVEL:7
|
|
BALLOON:18,13,15,13,4
|
|
SCOREINIT:620,2180
|
|
SCOREDIFF:160
|
|
|
|
#START
|
|
2002002002002020,
|
|
2002002002202020,
|
|
2002202002202020,
|
|
2002202011004000, //4
|
|
|
|
#GOGOSTART
|
|
1002102010221020,
|
|
1002102010221020,
|
|
1002102010211020,
|
|
1002102011004000,
|
|
|
|
1002102010221020,
|
|
1002102010221020,
|
|
1002102010211020,
|
|
1002102010201111, //12
|
|
#GOGOEND
|
|
|
|
1001102010011020,
|
|
1001102010011021,
|
|
1002202010022020,
|
|
1002202020222020,
|
|
|
|
1001201010012010,
|
|
1001201010012012,
|
|
1001203030302020,
|
|
500000000000000000000000000000000008000000000000, //20
|
|
|
|
1002102011221020,
|
|
1002102011221021,
|
|
1002102011221020,
|
|
1002102010212010,
|
|
|
|
1001201011221020,
|
|
1001201011221012,
|
|
1001201110102020,
|
|
7008, //28
|
|
|
|
3000101110102010,
|
|
1000101110102010,
|
|
1000201110002022,
|
|
7000000000801111,
|
|
|
|
2002020020200220,
|
|
2000220020200220,
|
|
1002020010202220,
|
|
1022102210221010,
|
|
500000000000000000000000000008000000400000000000, //37
|
|
|
|
#GOGOSTART
|
|
3002104010221020,
|
|
3002104010221020,
|
|
1002102220102020,
|
|
1002102011102010,
|
|
|
|
3002104010221020,
|
|
3002104010221020,
|
|
1002102220102020,
|
|
7008, //45
|
|
|
|
3002104012221020,
|
|
3002104012221020,
|
|
1002102222102010,
|
|
1002102011112010,
|
|
|
|
3002104012221020,
|
|
3002104012221020,
|
|
7008,
|
|
#GOGOEND
|
|
100100101110
|
|
#GOGOSTART
|
|
4000, //53
|
|
|
|
1002102010221020,
|
|
1002102012221020,
|
|
1002102011112020,
|
|
3030221000700080,
|
|
#GOGOEND
|
|
|
|
4,
|
|
0,
|
|
0, //60
|
|
#END
|
|
|
|
|
|
COURSE:Hard
|
|
LEVEL:5
|
|
BALLOON:9,10,10
|
|
SCOREINIT:600,2930
|
|
SCOREDIFF:163
|
|
|
|
#START
|
|
2002002000000000,
|
|
2002002000000000,
|
|
2002002000202020,
|
|
2002002000004000, //4
|
|
|
|
#GOGOSTART
|
|
1001102010001020,
|
|
1001102010001020,
|
|
1001102010002020,
|
|
1001102010004000,
|
|
|
|
1001102010001020,
|
|
1001102010001020,
|
|
1001102010002020,
|
|
500000000000000000000000000000000008000000000000, //12
|
|
#GOGOEND
|
|
|
|
1000101100002010,
|
|
1001101010002011,
|
|
1000201110020020,
|
|
1001101020002000,
|
|
|
|
1000201100002010,
|
|
1002201010002011,
|
|
10233322,
|
|
500000000000000000000000000000000008000000000000, //20
|
|
|
|
1000201110002020,
|
|
1002201010002011,
|
|
1000201110022020,
|
|
1002201010002000,
|
|
|
|
1000201110002020,
|
|
1002201010002011,
|
|
1000201110102020,
|
|
500000000000000000000000000000000008000000000000, //28
|
|
|
|
30110121,
|
|
10110121,
|
|
10121022,
|
|
7008,
|
|
|
|
2000200020200200,
|
|
2000200020200200,
|
|
2002002020202220,
|
|
2020202022202220,
|
|
500000000000000000000000000008000000400000000000, //37
|
|
|
|
#GOGOSTART
|
|
3003003000222020,
|
|
3003003000222020,
|
|
1001102000111020,
|
|
1001102000201110,
|
|
|
|
3003003000222020,
|
|
3003003000222020,
|
|
1001102000111020,
|
|
7008, //45
|
|
|
|
3003004000222020,
|
|
3003004000222020,
|
|
1001102000111020,
|
|
1001102000201110,
|
|
|
|
3003004000222020,
|
|
3003004000222020,
|
|
70000008,
|
|
#GOGOEND
|
|
100100100000
|
|
#GOGOSTART
|
|
4000, //53
|
|
|
|
1001102010001020,
|
|
1001102010001020,
|
|
1001102010002020,
|
|
3030111000300000,
|
|
#GOGOEND
|
|
|
|
4,
|
|
0,
|
|
0, //60
|
|
#END
|
|
|
|
|
|
COURSE:Normal
|
|
LEVEL:4
|
|
BALLOON:18,10
|
|
SCOREINIT:880,6480
|
|
SCOREDIFF:318
|
|
|
|
#START
|
|
1,
|
|
1,
|
|
1,
|
|
1004, //4
|
|
|
|
#GOGOSTART
|
|
1112,
|
|
1112,
|
|
1112,
|
|
500000000000000000000008000000000000400000000000,
|
|
1112,
|
|
1112,
|
|
1112,
|
|
500000000000000000000000000000000008000000000000, //12
|
|
#GOGOEND
|
|
|
|
1102,
|
|
1102,
|
|
10022020,
|
|
2,
|
|
|
|
1102,
|
|
1102,
|
|
10033010,
|
|
500000000000000000000000000000000008000000000000, //20
|
|
|
|
1202,
|
|
1202,
|
|
10012010,
|
|
1,
|
|
|
|
1202,
|
|
1202,
|
|
10012010,
|
|
500000000000000000000000000000000008000000000000, //28
|
|
|
|
30010020,
|
|
10010020,
|
|
10202011,
|
|
1,
|
|
|
|
20020020,
|
|
20020020,
|
|
9,
|
|
0000090000008000,
|
|
0004, //37
|
|
|
|
#GOGOSTART
|
|
3003003000000000,
|
|
3003003000000000,
|
|
2002002000101000,
|
|
2002002000000000,
|
|
|
|
3003003000000000,
|
|
3003003000000000,
|
|
2002002000101000,
|
|
500000000000000000000000000000000008000000000000, //45
|
|
|
|
3003003000002000,
|
|
3003003000002000,
|
|
2002002000101000,
|
|
2002002000000000,
|
|
|
|
3003003000002000,
|
|
3003003000002000,
|
|
700000000000000000000000000000000000000000000008,
|
|
#GOGOEND
|
|
000
|
|
#GOGOSTART
|
|
4, //53
|
|
|
|
1112,
|
|
1112,
|
|
1112,
|
|
600000000000000000000000000000000000000000000008,
|
|
#GOGOEND
|
|
|
|
0,
|
|
0,
|
|
0, //60
|
|
#END
|
|
|
|
|
|
COURSE:Easy
|
|
LEVEL:3
|
|
BALLOON:15,7
|
|
SCOREINIT:800,9920
|
|
SCOREDIFF:438
|
|
|
|
#START
|
|
1,
|
|
1,
|
|
1,
|
|
1004, //4
|
|
|
|
#GOGOSTART
|
|
1110,
|
|
1110,
|
|
1111,
|
|
500000000000000008000000000000000000400000000000,
|
|
|
|
1110,
|
|
1110,
|
|
1111,
|
|
500000000000000000000000000008000000000000000000, //12
|
|
#GOGOEND
|
|
|
|
11,
|
|
1,
|
|
22,
|
|
2,
|
|
|
|
11,
|
|
1,
|
|
13,
|
|
500000000000000000000000000008000000000000000000, //20
|
|
|
|
1110,
|
|
1,
|
|
2220,
|
|
2,
|
|
|
|
1110,
|
|
1,
|
|
11,
|
|
500000000000000000000000000008000000000000000000, //28
|
|
|
|
31,
|
|
1,
|
|
11,
|
|
1,
|
|
|
|
11,
|
|
11,
|
|
9,
|
|
0000090000008000,
|
|
0004, //37
|
|
|
|
#GOGOSTART
|
|
30030000,
|
|
30030000,
|
|
10010000,
|
|
500000000000000000000000000008000000000000000000,
|
|
|
|
30030000,
|
|
30030000,
|
|
10010000,
|
|
500000000000000000000000000008000000000000000000, //45
|
|
|
|
3003003000000000,
|
|
3003003000000000,
|
|
1001001000000000,
|
|
500000000000000000000000000008000000000000000000,
|
|
|
|
3003003000000000,
|
|
3003003000000000,
|
|
700000000000000000000000000000000000000000000008,
|
|
#GOGOEND
|
|
000
|
|
#GOGOSTART
|
|
4, //53
|
|
|
|
1110,
|
|
1110,
|
|
1111,
|
|
600000000000000000000000000000000000000000000008,
|
|
#GOGOEND
|
|
|
|
0,
|
|
0,
|
|
0, //60
|
|
#END |