Files
TJA-by-song-no/tja/477.tja
2026-03-04 23:59:27 +09:00

518 lines
5.7 KiB
Plaintext

//TJADB Project
TITLE:Shikou no Ran
TITLEJA:紫煌ノ乱
SUBTITLE:--Tatsh a.k.a. Zeami
SUBTITLEJA:世阿弥
BPM:183
WAVE:Shikou no Ran.ogg
OFFSET:-7.897
DEMOSTART:93.136
//Shinuchi: 3660/3020/1720/1180
COURSE:Oni
LEVEL:10
BALLOON:
SCOREINIT:440,1220
SCOREDIFF:110
#START
10101011,
1000100010222022,
10101011,
100000200200200020002000200020002000200200200200, //4
1330,
0000002211202020,
3330,
0000002210102011,
1330,
0000002211202020,
3330,
0000302212121211, //12
1101201011112012,
1022202210222101,
1101201011112010,
1010222221012101,
1101201011112010,
1010222221012101,
1101201011112012,
1022202210222101, //20
1101201021012011,
1022210210222101,
1101201021012010,
1010222221012101,
1101201021012011,
1022210210222101,
1101201021012012,
1112112211121122, //28
1,
0222,
3,
0222,
3,
2021,
1000000000000022,
1, //36
10201122,
1222,
10201122,
1020202010221020,
1020202010222020,
1020202010222020,
1022202022202020,
1020222020202220,
1020102011101010,
1022201022201022,
21212222, //47
#GOGOSTART
1010201120201220,
200000200200200000202020200000200000200200100100,
1010201120201220,
200000200200200000202020200000200000200200100100,
100100222200100200000100,
100100222200100200000200,
1010221110221210,
200200100100200200100200100000202020200000000000, //55
#GOGOEND
1111212111112121,
100100100100200100200100202020200100200100200100,
1111212111112121,
100100100100200100200100202020200100200100200100,
1121212111212121,
100100200100200100200100202010100100200100200100,
1121212111212121,
1121212120102010,
3000002020000011,
100000100000200000100200000202020100100000200000, //65
1020112010201220,
100000200000100100200000100000200000202020202020,
1020112010201220,
100000100000200200100100200100200100202020202020, //69
#GOGOSTART
1002102010201120,
1002102010201220,
1002102010201210,
100000200100000100200000000000400000202020100100,
1002102010201120,
1002102010201220,
1002102010201210,
100000200100000100200000000000400000202020100100, //77
1012021010210120,
1012021010212120,
1012021210120212,
1012021210102011,
13131313,
14144144,
3030111111111111,
200200100202020200100202020200100200102010201020,//85
#GOGOEND
1,
0,
0,
0,
0,
0,
0, //92
#END
COURSE:Hard
LEVEL:8
BALLOON:
SCOREINIT:490,1860
SCOREDIFF:128
#START
10101011,
1000100010222020,
10101011,
1022202020202020, //4
3330,
0000002220202020,
3330,
0000002220101000,
3330,
0000002220202020,
3330,
0000002220101000, //12
1000200011100010,
1022201010222000,
1000200011100010,
1010222010102000,
1000200011100010,
1010222010102000,
1000200011100010,
1022201010222000, //20
1110200010100010,
1022201010222000,
1110200010100010,
1022202010222000,
1110200010100010,
1022201010222000,
1110202011102020,
500000000000000000000000000000000008000000000000, //28
3,
0222,
3,
0222,
3,
2021,
1000000000000022,
1, //36
10201122,
1222,
10201122,
10201122,
12221222,
12221222,
1020202022202020,
1020202022202020,
1020102011101010,
12212212,
2010201020102220, //47
#GOGOSTART
1000100011200011,
2000102220200000,
1000100011200011,
2000102220200000,
1000111000200010,
1000111000200020,
0000100011200011,
2000112000404000, //55
#GOGOEND
1110101011101010,
1110101022202020,
1110101011101010,
1110101022202020,
1110101022202020,
1110101022102020,
1110101022202020,
1110101022102020,
00022000,
1010200201102000, //65
1020111010202220,
1020111010202220,
1020112010201120,
1020111110104000, //69
#GOGOSTART
3001100000202020,
3001100000202020,
3001100000202020,
3003003000402220,
3001100000202020,
3001100000202020,
3001100000202020,
3003003000402220, //77
1002001010002020,
1002001010202020,
1002001210020012,
1002001210002011,
500000000000000000000000000000000000000008000000,
03033033,
03600000,
000000000000000000000000000000000008000000000000, //85
#GOGOEND
3,
0,
0,
0,
0,
0,
0, //92
#END
COURSE:Normal
LEVEL:6
BALLOON:
SCOREINIT:620,3360
SCOREDIFF:185
#START
10101011,
1110,
10101011,
500000000000000000000000000000000008000000000000, //4
3330,
00022220,
3330,
00002220,
3330,
00022220,
3330,
00002220, //12
1210,
10201120,
1210,
10201120,
1210,
10201120,
1210,
10201120, //20
1212,
11201220,
1212,
11201220,
1212,
11201220,
1212,
500000000000000000000000000000000008000000000000, //28
3,
0222,
2,
0222,
2,
2022,
2,
2, //36
1,
0222,
1002,
10000021,
1,
0222,
1,
2,
0,
0,
0, //47
#GOGOSTART
10100200,
10012200,
10100200,
10020200,
00110200,
00110202,
00100200,
10010220, //55
#GOGOEND
11101110,
11102020,
11101110,
11102020,
11101110,
11202020,
11101110,
11202020,
1,
0, //65
12220111,
02220111,
02220111,
02221040, //69
#GOGOSTART
10100222,
10100222,
10100222,
3003003000404000,
10100222,
10100222,
10100222,
3003003000404000, ///77
1002001010002000,
1002001010002000,
1002001010020010,
1002001010002000,
500000000000000000000000000000000000000008000000,
03033033,
03600000,
000000000000000000000000000000000008000000000000, //85
#GOGOEND
3,
0,
0,
0,
0,
0,
0, //92
#END
COURSE:Easy
LEVEL:5
BALLOON:
SCOREINIT:430,4120
SCOREDIFF:133
#START
10101011,
1110,
10101011,
500000000000000000000000000000000008000000000000, //4
3330,
0022,
3330,
0022,
3330,
0022,
3330,
0022, //12
1110,
1022,
1110,
1022,
1110,
1022,
1110,
1022, //20
1110,
1212,
1110,
1212,
1110,
1212,
1110,
500000000000000000000000000000000008000000000000, //28
3,
0222,
2,
0222,
2,
2022,
2,
2, //36
1,
0222,
1002,
10000011,
1,
0222,
1,
2,
0,
0,
0, //47
#GOGOSTART
10100200,
10022200,
10100200,
10010200,
00110100,
00110102,
00100200,
10010110, //55
#GOGOEND
1111,
1210,
1111,
1210,
1111,
1210,
1111,
1212,
1,
0, //65
10201110,
10201110,
10201110,
11111040, //69
#GOGOSTART
10100220,
10100220,
10100220,
3003003000004000,
10100220,
10100220,
10100220,
3003003000004000, //77
10011010,
10011010,
10011010,
10011010,
500000000000000000000000000000000000000008000000,
03033033,
03600000,
000000000000000000000000000000000008000000000000, //85
#GOGOEND
3,
0,
0,
0,
0,
0,
0, //92
#END